#VERSION:0.83;
#TITLE:Disappearing Act;
#SUBTITLE:;
#ARTIST:Pierre Blanche;
#TITLETRANSLIT:;
#SUBTITLETRANSLIT:;
#ARTISTTRANSLIT:;
#GENRE:;
#ORIGIN:;
#CREDIT:;
#BANNER:Disappearing Act.png;
#BACKGROUND:Disappearing Act-bg.png;
#PREVIEWVID:;
#JACKET:Disappearing Act-jacket.png;
#CDIMAGE:;
#DISCIMAGE:;
#LYRICSPATH:;
#CDTITLE:;
#MUSIC:Disappearing Act.ogg;
#OFFSET:-0.030000;
#SAMPLESTART:98.601395;
#SAMPLELENGTH:11.599995;
#SELECTABLE:YES;
#BPMS:0.000=185.000;
#STOPS:;
#DELAYS:;
#WARPS:;
#TIMESIGNATURES:0.000=4=4;
#TICKCOUNTS:0.000=4;
#COMBOS:0.000=1;
#SPEEDS:0.000=1.000=0.000=0;
#SCROLLS:0.000=1.000;
#FAKES:;
#LABELS:0.000=Song Start;
#BGCHANGES:0.000=Disappearing Act.avi=1.000=0=0=0=StretchNoLoop====,
99999=-nosongbg-=1.000=0=0=0 // don't automatically add -songbackground-
;
#KEYSOUNDS:;
#ATTACKS:
;

//---------------dance-single - ----------------
#NOTEDATA:;
#CHARTNAME:;
#STEPSTYPE:dance-single;
#DESCRIPTION:;
#CHARTSTYLE:;
#DIFFICULTY:Beginner;
#METER:3;
#RADARVALUES:0.127124,0.290002,0.063562,0.000000,0.000000,112.000000,104.000000,8.000000,0.000000,0.000000,0.000000,0.000000,0.000000,0.000000,0.127124,0.290002,0.063562,0.000000,0.000000,112.000000,104.000000,8.000000,0.000000,0.000000,0.000000,0.000000,0.000000,0.000000;
#CREDIT:Ben Speirs;
#NOTES:
0000
0000
0000
0000
,
0000
0000
0000
0000
,
0000
0000
0000
0000
,
0000
0000
0000
0000
,
0010
0000
0000
0000
,
0000
0000
0000
0000
,
0000
0000
0000
0000
,
0000
0000
0000
0000
,
0000
0000
0000
0000
,
0000
0000
0000
0000
,
0000
0000
0000
0000
,
0000
0000
0000
0000
,
1001
0000
0000
0000
,
1000
0000
0000
0000
,
0010
0000
0000
0000
,
0010
0000
0000
0000
,
0100
0000
0000
0000
,
0100
0000
0000
0000
,
0001
0000
0000
0000
,
0001
0000
0000
0000
,
1000
0000
1000
0000
,
1000
0000
0000
0000
,
0001
0000
0000
0000
,
0001
0000
0000
0000
,
0100
0000
0100
0000
,
0100
0000
0000
0000
,
0010
0000
0000
0000
,
0010
0000
0000
0000
,
1000
1000
0000
0000
,
1000
0000
0000
0000
,
0001
0001
0000
0000
,
0001
0000
0000
0000
,
0010
0010
0000
0000
,
0010
0000
0000
0000
,
0100
0000
0100
0000
,
0100
0000
0100
0000
,
0100
0000
0000
0000
,
0000
0000
0000
0000
,
1000
0000
0000
0000
,
0000
0000
0000
0000
,
0010
0000
0000
0000
,
0000
0000
0000
0000
,
0100
0000
0000
0000
,
0000
0000
0000
0000
,
0000
0001
0000
0001
,
0000
0001
0000
0000
,
0000
1000
0000
1000
,
0000
1000
0000
0000
,
0000
0100
0000
0100
,
0000
0100
0000
0000
,
0000
0010
0000
0010
,
0010
0000
0000
0000
,
0001
0000
0001
0000
,
0001
0000
0000
0000
,
1000
0000
1000
0000
,
1000
0000
0000
0000
,
0010
0000
0010
0000
,
0010
0000
0000
0000
,
0100
0000
0100
0000
,
0100
0000
0000
0001
,
0001
0000
0000
0000
,
1000
0000
0000
1000
,
1000
0000
0000
0000
,
0010
0000
0010
0010
,
0010
0000
0000
0000
,
0100
0000
0000
0100
,
0100
0000
0000
0000
,
0001
0000
0001
0000
,
0001
0000
0000
0000
,
0000
0000
0000
0000
,
1000
0000
0000
0000
,
0000
0000
0000
0000
,
0100
0000
0100
0000
,
0100
0000
0000
0000
,
0010
0000
0010
0000
,
0010
0000
0000
0000
,
0001
0000
0001
0000
,
0001
0000
0001
0000
,
0001
0000
0000
0000
,
0100
0000
0000
0000
,
0010
0000
0010
0000
,
0010
0000
0010
0000
,
0010
0000
0000
0000
,
1000
0000
0000
0000
,
1001
0000
0000
0000
,
1000
0000
0000
0000
,
1001
0000
0000
0000
,
0001
0000
0000
0000
,
1001
0000
0000
0000
,
0100
0000
0000
0000
,
1001
0000
1001
0000
,
1001
1001
0000
0000
;

//---------------dance-double - ----------------
#NOTEDATA:;
#CHARTNAME:;
#STEPSTYPE:dance-double;
#DESCRIPTION:;
#CHARTSTYLE:;
#DIFFICULTY:Easy;
#METER:6;
#RADARVALUES:0.288300,0.362503,0.031781,0.246303,0.000000,254.000000,250.000000,4.000000,31.000000,0.000000,0.000000,0.000000,0.000000,0.000000,0.288300,0.362503,0.031781,0.246303,0.000000,254.000000,250.000000,4.000000,31.000000,0.000000,0.000000,0.000000,0.000000,0.000000;
#CREDIT:Ben Speirs;
#NOTES:
00000000
00000000
00000000
00000000
,
00000000
00000000
00000000
00000000
,
00000000
00000000
00000000
00000000
,
00000000
00000000
00000000
00000000
,
00010000
00000000
00000000
00000000
,
00000000
00000000
00000000
00000000
,
00000000
00000000
00000000
00000000
,
00000000
00000000
00000000
00000000
,
00000000
00000000
00000000
00000000
,
00000000
00000000
00000000
00000000
,
00000000
00000000
00000000
00000000
,
00000000
00000000
00000000
00000000
,
00010000
00001000
00010000
00000000
,
00001000
00001000
00100000
00000000
,
00001000
00010000
00001000
00000000
,
00010000
00010000
00000010
00000000
,
00010000
00001000
00010000
00001000
,
00100000
00010000
00100000
00000000
,
00001000
00010000
00001000
00010000
,
00000010
00000100
00000002
00000000
,
00001003
00001000
00000100
00000100
,
00010000
00010000
00002000
00003000
,
00100000
00100000
00010000
00010000
,
10000000
10000000
00200000
00300000
,
01000000
01000000
00001000
00001000
,
00010000
00010000
00000200
00000300
,
00001000
00001000
00000001
00000001
,
00000100
00000000
00000100
00000000
00000000
00000100
00000000
00000000
,
00000001
00001000
00000001
00000100
,
00000010
00001000
00000200
00000300
,
00010000
00001000
00100000
00010000
,
01000000
00100000
20000000
30000000
,
00010000
00100000
00001000
00010000
,
00000010
00001000
00000002
00000003
,
00001000
00000100
00010000
00001000
,
00100000
00010000
02000000
03000000
,
00010000
00000000
00000000
00000000
,
10000000
00000000
00000000
00000000
,
01000000
00000000
00000000
00000000
,
00100000
00000000
00000000
00000000
,
00002000
00000000
00000000
00000000
,
00023000
00000000
00000000
00000000
,
00030020
00000000
00000000
00000000
,
00000230
00000000
00000000
00000000
,
00000301
00000001
00000000
00001000
,
00000100
00010000
00000000
00010000
,
00001000
00001000
00000000
00100000
,
00010000
01000000
00000000
00010000
,
10000000
10000000
00000000
00010000
,
10000000
00100000
00000000
10000000
,
00100000
00100000
01000000
00010000
,
00200000
00302000
00023000
00030020
,
00000130
00000100
00000100
00000100
,
00000001
00001000
00000100
00010000
,
00001000
00001000
00001000
00001000
,
00100000
00010000
10000000
00100000
,
01000000
01000000
01000000
01000000
,
00010000
00100000
00001000
00010000
,
00000010
00000010
00000010
00000010
,
00000100
00000001
00001000
00000001
,
00002002
00003003
00001000
00000100
,
00010000
00010000
00001000
00100000
,
00020000
00030000
10000000
00100000
,
01000000
01000000
00010000
10000000
,
20020000
30030000
00010000
00100000
,
00001000
00001000
00010000
00000010
,
00000200
00000300
00000010
00001000
,
00000001
00000001
00001000
00001000
,
00000200
00000000
00000000
00000300
,
00020000
00000000
00000000
00030000
,
00002000
00000000
00000000
00003000
,
00200000
00000000
00000000
00300000
,
00010000
10000000
00100000
00000000
,
10000000
00010000
00100000
00000000
,
00001000
00010000
00000010
00000100
,
00000001
00001000
00000001
00000000
,
00001000
00000100
00000001
00000100
,
00010000
00001000
00200000
00300000
,
00010000
01000000
10000000
01000000
,
00001000
00010000
00000020
00000030
,
00001000
00001000
00000001
00000010
,
00000100
00000100
00020000
00030000
,
00001000
00001000
00100000
00010000
,
01000000
01000000
01000000
00000000
,
00010000
10000000
00010000
10000000
,
00010000
10000000
00010000
00100000
,
00001000
00010000
00001000
00010000
,
00001000
00010000
00000010
00001000
,
00000001
00001000
00000001
00001000
,
00000001
00001000
00000100
00010000
,
00002000
00003000
00020000
00030000
,
00011000
00011000
00000000
00000000
;

//---------------dance-single - ----------------
#NOTEDATA:;
#CHARTNAME:;
#STEPSTYPE:dance-single;
#DESCRIPTION:;
#CHARTSTYLE:;
#DIFFICULTY:Challenge;
#METER:17;
#RADARVALUES:0.787717,1.051259,0.341647,0.436990,0.500552,694.000000,651.000000,43.000000,55.000000,0.000000,0.000000,0.000000,0.000000,0.000000,0.787717,1.051259,0.341647,0.436990,0.500552,694.000000,651.000000,43.000000,55.000000,0.000000,0.000000,0.000000,0.000000,0.000000;
#CREDIT:Ben Speirs;
#NOTES:
0000
0000
0000
0000
,
0000
0000
0000
0000
,
0000
0000
0000
0000
,
0000
0000
0000
0000
,
0010
0000
0000
0000
,
0000
0000
0000
0000
,
0000
0000
0000
0000
,
0000
0000
0000
0000
,
0000
0000
0000
0000
,
0000
0000
0000
0000
,
0000
0000
0000
0000
,
0000
0000
0000
0000
,
2001
0000
3010
0001
0010
0100
0010
0001
,
0010
1000
0100
0010
0001
1000
0010
0010
,
0020
0000
0133
1000
0100
0001
0100
0010
,
0100
0100
0100
0001
0010
0010
0100
1000
,
0002
0000
0000
0203
0000
0000
2300
0000
0000
3200
0000
0000
0301
0000
1000
0001
,
2000
0000
0000
3200
0000
0000
0332
0000
0000
0203
0000
0000
1330
0000
0001
1000
,
0001
0100
1000
0001
0010
1000
0100
0010
,
0002
0000
0000
0000
0100
0000
0000
0000
2000
0000
0000
0000
3333
0030
0000
0000
,
1000
0100
1000
0001
1000
0010
1000
0001
,
1000
0000
0000
0000
0100
0000
0000
0000
1000
0000
0000
0000
0001
0000
0000
0000
1000
0000
0000
0000
0020
0030
0000
0000
0020
0030
0000
0000
0001
0000
0000
0000
,
0100
0010
0100
1000
0100
0010
0100
0001
,
0100
0000
0000
0000
0010
0000
0000
0000
0100
0000
0000
0000
0001
0000
0000
0000
0020
0030
0000
0000
0020
0030
0000
0000
1000
0000
0001
0000
1000
0000
0001
0000
,
0010
0100
0010
1000
0010
0100
0010
0001
,
0010
0000
0000
0000
0100
0000
0000
0000
0010
0000
0000
0000
0001
0000
0000
0000
0200
0300
0000
0000
0200
0300
0000
0000
1000
0000
0000
0000
0001
0000
0000
0000
,
0100
0010
0100
1000
0100
0010
0100
0001
,
1000
0000
1000
0000
0001
0000
1000
0001
1000
0010
0100
0000
0001
1000
0001
0000
,
1000
0100
0010
0000
0001
0100
0010
0000
1000
0010
0100
0000
0001
0010
0100
0000
,
1000
0000
0001
0000
0100
0000
0000
0000
0001
0000
1000
0000
0100
0000
0000
0000
0010
0000
0000
0000
0200
0300
0000
0000
0200
0300
0000
0000
0001
0000
0000
0000
,
1000
0010
0100
0000
0001
0010
0100
0000
1000
0100
0010
0000
0001
0100
0010
0000
,
1000
0000
0001
0000
0010
0000
0000
0000
0001
0000
1000
0000
0010
0000
0000
0000
0200
0300
0000
0000
0200
0300
0000
0000
1000
0000
0100
0000
0010
0000
0001
0000
,
0100
0010
1000
0000
0100
0010
0001
0000
0010
0100
1000
0000
0010
0100
0001
0000
,
1000
0000
0001
0000
0100
0000
0000
0000
0001
0000
1000
0000
0100
0000
0000
0000
0020
0030
0000
0000
0020
0030
0000
0000
0100
0000
0000
0000
0001
0000
0000
0000
,
1000
0001
0100
0000
0001
0100
0010
0000
1000
0010
1000
0000
0001
0010
0001
0000
,
1000
0000
0100
0000
0010
0000
0002
0000
0100
0000
1003
0000
0001
0010
0100
1000
,
0001
1000
0100
0000
,
1000
0001
0100
0000
,
0001
0100
0010
0000
,
1000
0100
0010
0000
,
0002
0010
1003
0000
,
2000
0010
3001
0000
,
0002
0100
1003
0000
,
2000
0100
3001
0000
,
1001
0000
0101
0100
0010
0100
0001
0010
,
0100
0100
1000
0010
0100
0001
1000
0010
,
0010
0000
1010
1000
0001
0010
0100
1000
,
0010
0010
0100
0001
1000
0100
0010
0001
,
0100
0000
1001
1000
0001
0100
1000
0100
,
0001
0001
0010
0100
1000
0001
0100
0010
,
0010
0000
1001
0001
1000
0100
0001
0100
,
1000
0010
0100
0001
1000
0000
0001
0010
0100
0000
1000
0010
0100
0000
0001
1000
,
0010
0000
0100
0000
0101
0000
0001
0010
0100
0000
1000
0000
1100
0000
0001
0000
,
0100
0000
0000
0000
0110
0000
0000
0000
0110
0000
0000
0000
0010
0000
1000
0000
0200
0300
0000
0000
0200
0300
0000
0000
0002
0000
0000
0000
0010
0000
0000
0000
,
1033
0000
0100
0000
1100
0000
1000
0001
0100
0000
0010
0000
0110
0000
0010
0000
,
2000
3200
0302
2003
3002
0203
2300
3020
,
0130
0000
0001
0000
1001
0000
1000
0100
0010
0000
0001
0000
0101
0000
0100
0001
,
1000
0000
0000
0000
1010
0000
0000
0000
1010
0000
0000
0000
0001
0000
0010
0000
0200
0300
0000
0000
0200
0300
0000
0000
0001
0000
0010
0000
0100
0000
1000
0000
,
0010
0000
0100
0000
0110
0000
0010
1000
0100
0000
0010
0000
0110
0000
0100
0010
,
0001
1000
0001
1000
0010
0100
0001
0010
0100
1000
0010
0100
0001
1000
0100
0010
,
0001
0000
0100
0000
1000
0000
0100
0010
1000
0000
0100
0000
0001
0000
0100
0010
,
0001
1000
0001
0000
0100
0000
0001
0010
0103
0000
1000
0000
1001
0000
0001
0000
,
0101
0000
0100
0000
0010
0000
1000
0100
0001
0000
0100
0000
0010
0000
0001
1000
,
0002
0203
2330
3002
2003
3200
0332
1003
,
1103
0000
0100
0000
0001
0000
0100
0010
0001
0000
0100
0000
1000
0000
0100
0000
,
0010
1030
0100
0000
0110
0000
0010
0001
1000
0000
0001
0000
0101
0000
0100
0000
,
0110
0000
0010
0000
1000
0000
0100
0010
0001
0000
1000
0000
0001
0100
0010
1000
,
0100
0000
1100
0000
0101
0000
1001
3000
,
1030
0000
0010
0000
0000
0010
0000
0100
,
0000
0100
0101
1001
,
0001
0000
0010
0000
0000
0010
0000
0100
,
0000
0100
1100
1001
,
1000
0010
0100
0000
0000
0001
0101
0000
,
0001
0000
0010
0000
0100
0000
0000
0000
0000
0000
1000
0000
1100
0000
0001
1000
,
0001
1000
0010
0100
0001
1000
0100
0010
,
0001
0100
0010
1000
0001
0000
1000
0100
0010
0000
0001
0000
0011
0000
1001
0000
,
1100
0100
0010
0001
1000
0010
0100
1000
,
1000
0000
0100
0000
0010
0000
0010
0000
0100
0000
0001
0010
0100
0010
0001
1000
,
0010
1000
0100
0010
0001
1000
0010
0001
,
0001
0000
0010
0000
0100
0000
0100
0000
0001
0010
0100
1000
0010
0100
0001
1000
,
0100
0010
0100
0010
0100
0000
0010
0000
0001
0000
0100
0000
0010
0000
1000
0000
,
0001
0100
0001
0100
0001
0000
1000
0000
0100
1000
0001
0100
0010
1000
0100
0010
,
0001
1000
0001
1000
0001
0000
1000
0000
0100
0000
0010
0000
0001
0100
0010
1000
,
0001
0000
0100
0001
1000
0000
0001
0010
0100
1000
0001
0100
0010
1000
0100
0010
,
0001
0010
0001
1000
0001
0100
0001
1000
,
0001
0000
0000
0000
0010
0000
0000
0000
0001
0000
0000
0000
1000
0000
0000
0000
0001
0000
0000
0000
0200
0300
0000
0000
0200
0300
0000
0000
1000
0000
0000
0000
,
0010
0100
0010
0001
0010
0100
0010
1000
,
0010
0000
0000
0000
0010
0000
0000
0000
0010
0000
0000
0000
1000
0000
0000
0000
0200
0300
0000
0000
0200
0300
0000
0000
0001
0000
1000
0000
0001
0000
1000
0000
,
0100
0010
0100
0001
0100
0010
0100
1000
,
0100
0000
0000
0000
0010
0000
0000
0000
0100
0000
0000
0000
1000
0000
0000
0000
0020
0030
0000
0000
0020
0030
0000
0000
0001
0000
0000
0000
1000
0000
0000
0000
,
1010
1001
0000
0001
0101
1001
0000
1000
,
1100
0110
1001
0000
0000
0000
0000
0000
;

//---------------dance-single - ----------------
#NOTEDATA:;
#CHARTNAME:;
#STEPSTYPE:dance-single;
#DESCRIPTION:;
#CHARTSTYLE:;
#DIFFICULTY:Hard;
#METER:14;
#RADARVALUES:0.662863,0.797507,0.190687,0.317811,0.210550,584.000000,560.000000,24.000000,40.000000,0.000000,0.000000,0.000000,0.000000,0.000000,0.662863,0.797507,0.190687,0.317811,0.210550,584.000000,560.000000,24.000000,40.000000,0.000000,0.000000,0.000000,0.000000,0.000000;
#CREDIT:Ben Speirs;
#NOTES:
0000
0000
0000
0000
,
0000
0000
0000
0000
,
0000
0000
0000
0000
,
0000
0000
0000
0000
,
0010
0000
0000
0000
,
0000
0000
0000
0000
,
0000
0000
0000
0000
,
0000
0000
0000
0000
,
0000
0000
0000
0000
,
0000
0000
0000
0000
,
0000
0000
0000
0000
,
0000
0000
0000
0000
,
2001
0000
3100
0010
0100
0010
0100
0010
,
0001
1000
0001
1000
0010
0100
0001
1000
,
0002
0000
0013
0100
0010
0100
0010
0100
,
1000
0001
1000
0001
0100
0010
1000
0001
,
1000
0000
0000
0100
0000
0000
1000
0000
0000
0001
0000
0000
1000
0000
1000
0000
,
0001
0000
0000
0100
0000
0000
0001
0000
0000
1000
0000
0000
0001
0000
0001
0000
,
1000
0010
0100
0001
0010
0100
1000
0001
,
2000
0310
0002
3003
,
0001
0100
0010
0100
1000
0100
0010
0100
,
0001
0100
0010
0100
0001
0010
0010
0001
,
1000
0100
0010
0100
0001
0100
0010
0100
,
1000
0100
0001
0100
0010
0010
0001
1000
,
0010
0100
0010
0001
0010
0100
0010
1000
,
0010
0100
0010
0001
0010
0010
1000
0001
,
0010
0100
0010
1000
0010
0100
0010
0001
,
0100
0010
1010
0000
0001
0020
0000
0130
,
1000
0001
1000
0000
0001
0000
0100
0000
0010
0000
1000
0000
0100
0000
0010
0000
,
0001
0010
0001
0000
1000
0000
0010
0000
0100
0000
0001
0000
2000
0000
0000
0000
,
3001
0100
0001
0000
1000
0000
0010
0000
0100
0000
0001
0000
0010
0000
0100
0000
,
1000
0001
1000
0000
0010
0000
0100
0000
0001
0000
0010
0000
1000
0000
0010
0000
,
0001
0100
0001
0000
0010
0000
0100
0000
0010
0000
0001
0000
1000
0000
0010
0000
,
0100
0001
0100
0000
0010
0000
1000
0000
0001
0000
0010
0000
0100
0000
0100
0000
,
1000
0001
1000
0000
0100
0000
0010
0000
0100
0000
1000
0000
0001
0000
0100
0000
,
0010
1000
0010
0000
0100
0000
0002
0000
0000
0000
0000
0000
1003
0100
1000
0100
,
2000
0000
0000
3000
,
0002
0000
0000
0003
,
0200
0000
0000
0300
,
0020
0000
0000
0030
,
2000
0000
0100
0000
,
3200
0000
0010
0000
,
0320
0300
0000
0000
0000
0000
0000
0000
0001
0000
0000
0000
0000
0000
0000
0000
,
0032
0000
2000
3003
,
1001
0000
0101
0000
0100
0010
1000
0000
,
0001
0010
0001
0010
0100
1000
0001
0000
,
1001
0000
1010
0000
0010
0100
0001
0000
,
1000
0100
1000
0100
0010
0001
1000
0000
,
0201
0000
0301
0010
0100
1000
0001
0000
,
1000
0010
1000
0001
0010
0100
1000
0000
,
1020
0000
1030
0100
0010
0001
1000
0000
,
0001
0000
1000
0100
1000
0000
0001
0100
0001
0000
1000
0000
0001
0000
0000
0000
,
1000
0000
0100
0000
1000
0000
0001
0010
0100
0000
1000
0000
0010
0000
0100
0000
,
0001
0000
0010
0000
0010
0000
0100
1000
0001
0000
0001
0000
2000
0000
0000
0000
,
3010
0000
0100
0000
0001
0000
0010
0100
1000
0000
0001
0000
0100
0000
0001
0000
,
2000
3200
0302
2003
3020
0032
0203
0320
,
1030
0000
0001
0000
0100
0000
0001
0010
0100
0000
1000
0000
0001
0000
0100
0000
,
0010
0000
0100
0000
0100
0000
0010
1000
0001
0000
0010
0000
0001
1000
0001
1000
,
0001
0000
0100
0000
0010
0000
1000
0100
0010
0000
0001
0000
1000
0000
0010
0000
,
1010
1100
0011
0101
,
1001
0000
1000
0000
0100
0000
0010
0001
1000
0000
0001
0000
0100
0000
0010
0000
,
0100
0000
0100
0000
0001
0000
1000
0100
0010
0000
0001
1000
0020
0000
0000
0000
,
0130
0000
0001
0000
1000
0000
0001
0010
0100
0000
0100
0000
1000
0000
0001
0100
,
0002
0023
2030
3002
0203
2300
3020
0230
,
0301
0000
1000
0000
0010
0000
1000
0100
0010
0000
0001
0000
1000
0000
0010
0000
,
0100
0001
1000
0000
1000
0000
0001
0010
0100
0000
1000
0000
0020
0000
0000
0000
,
0130
0000
0001
0000
1000
0000
0001
0010
0100
0000
1000
0000
0001
1000
0001
1000
,
0010
1010
0110
0101
,
0000
0000
1000
0000
0000
1000
0000
1000
,
0000
1000
1100
1001
,
0000
0000
0001
0000
0000
0001
0000
0001
,
0000
0001
0011
1001
,
1000
0100
0010
0000
0000
0100
0010
0000
,
0001
0000
0100
0000
0010
0000
0000
0000
0000
0000
0100
0000
0010
0000
1000
0001
,
1000
0001
0100
0010
1000
0100
0010
0001
,
1000
0100
0000
0100
0010
0000
0001
0000
0100
0000
0100
0000
0010
0000
0010
0000
,
1001
1000
0100
1000
0001
0100
0001
0010
,
0010
0000
1000
0000
0010
0000
0010
0000
0001
0000
1000
0100
1000
0100
1000
0000
,
0001
1000
0100
1000
0001
0010
0001
0100
,
0100
0000
1000
0000
0100
0000
0100
0000
0001
0100
0001
0000
1000
0100
1000
0000
,
0001
1000
0001
1000
0002
0000
0000
0000
0013
0000
0100
0000
1000
0000
0001
0000
,
1000
0001
1000
0001
2000
0000
0000
0000
3010
0100
0010
0000
1000
0000
0001
0000
,
0010
0100
0010
0100
0020
0000
0000
0000
0031
0000
1000
0000
0001
0000
0100
0000
,
0010
0000
1000
0001
1000
0000
0001
0100
0001
0000
1000
0100
1000
0000
0001
0000
,
1000
0010
0100
0010
0001
0010
0100
0010
,
1000
0010
0100
0010
1000
0100
0100
1000
,
0001
0010
0100
0010
1000
0010
0100
0010
,
0001
0001
0001
0100
0010
0010
1000
0001
,
0100
0010
0100
1000
0100
0010
0100
0001
,
0100
0010
0100
1000
0100
0100
0001
1000
,
0100
1100
0000
1000
0001
0101
0000
0001
,
0100
0010
1001
0000
0000
0000
0000
0000
;

//---------------dance-single - ----------------
#NOTEDATA:;
#CHARTNAME:;
#STEPSTYPE:dance-single;
#DESCRIPTION:;
#CHARTSTYLE:;
#DIFFICULTY:Medium;
#METER:10;
#RADARVALUES:0.426775,0.616255,0.349592,0.238358,0.000000,376.000000,332.000000,44.000000,30.000000,0.000000,0.000000,0.000000,0.000000,0.000000,0.426775,0.616255,0.349592,0.238358,0.000000,376.000000,332.000000,44.000000,30.000000,0.000000,0.000000,0.000000,0.000000,0.000000;
#CREDIT:Ben Speirs;
#NOTES:
0000
0000
0000
0000
,
0000
0000
0000
0000
,
0000
0000
0000
0000
,
0000
0000
0000
0000
,
0010
0000
0000
0000
,
0000
0000
0000
0000
,
0000
0000
0000
0000
,
0000
0000
0000
0000
,
0000
0000
0000
0000
,
0000
0000
0000
0000
,
0000
0000
0000
0000
,
0000
0000
0000
0000
,
1001
1010
1010
1010
,
0001
0000
1000
0100
0010
0000
0001
0100
,
0010
0110
0110
0110
,
0100
0001
1000
0000
0001
0010
0100
0010
,
0002
0103
0020
1030
,
2000
3100
0020
0031
,
1000
0010
1000
0010
0100
0001
0100
0001
,
2000
0001
0002
3003
,
1000
0100
0010
0001
,
1000
0000
0010
0000
0100
0001
0100
0001
,
0100
0001
0010
0100
,
1000
0000
0001
0000
1000
0010
1000
0010
,
1000
0001
0100
0010
,
1000
0000
0100
0000
1000
0001
1000
0001
,
1000
0001
1000
0010
,
0100
0000
0010
0000
0000
0010
0000
0000
,
1000
0010
0000
0100
0000
0001
0000
1000
,
0000
0100
0000
0010
0000
0001
1000
0001
,
0000
1000
0000
0010
0000
0100
0000
0001
,
0000
0010
0000
0100
0000
1000
0100
1000
,
0000
0001
0000
1000
0000
0010
0000
0100
,
0000
0001
0000
1000
0000
0001
0100
0001
,
0000
1000
0000
0001
0000
0010
0000
0100
,
0000
0100
0000
2000
0000
0000
3001
0100
,
0001
0000
0000
0000
,
1000
0000
0000
0000
,
0010
0000
0000
0000
,
0100
0000
0000
0000
,
0002
0000
0000
0003
,
0020
0000
0000
0030
,
0200
0000
0000
0300
,
2000
0000
0000
3000
,
0001
0101
0100
0010
,
1000
0001
0010
0100
,
1000
1100
0100
0010
,
0001
1000
0010
0100
,
0010
0110
0100
0001
,
0010
0100
1000
0001
,
1000
1001
0001
0100
,
2002
0000
0000
3003
,
0001
0100
0001
0000
0100
0001
0100
0000
,
0001
0100
0001
0000
0200
0000
0310
0000
,
1000
0100
1000
0000
0100
1000
0100
0000
,
2000
3200
0320
0032
,
1003
0010
1000
0000
0010
1000
0010
0000
,
1000
0010
1000
0000
0020
0000
0130
0000
,
0001
1000
0001
0000
1000
0001
1000
0000
,
0002
0023
0230
2300
,
3001
0101
0100
0110
,
0010
0000
1010
0000
1000
0100
0010
0000
,
0001
0011
0010
0110
,
0100
0000
1100
0000
1000
0010
0100
0000
,
0001
0101
1000
1100
,
0001
0000
0011
0000
1000
0001
0200
0000
,
0310
0000
0110
0000
0001
1000
0010
0100
,
0002
0023
0230
2300
,
3000
0000
0001
0000
0000
0001
0000
0001
,
0000
0001
0100
0010
,
0000
0000
1000
0000
0000
1000
0000
1000
,
0000
1000
0100
0010
,
0001
0011
0000
0011
,
0000
1100
0000
1100
,
0001
0001
1000
1000
,
0001
0100
0010
0000
1000
0001
1000
0001
,
1000
0000
0001
0000
1000
0100
0000
1000
,
0001
0000
1000
0020
0000
0000
0130
0000
,
0001
0000
1000
0000
0001
0010
0000
0001
,
1000
0000
0001
0200
0000
0000
0310
0000
,
1000
0001
1000
0000
0001
0000
0100
0000
,
0010
0100
0010
0000
0100
0000
0001
0000
,
1000
0100
1000
0000
0001
0100
0001
0000
,
1000
0001
1000
0001
1000
0000
0010
0000
,
1001
1001
1001
1001
,
1001
0000
1001
0000
0001
0010
0100
0000
,
1100
1100
1100
1100
,
1100
0000
1100
0000
1000
0010
0100
0000
,
0101
0101
0101
0101
,
0101
0000
0101
0000
0001
0100
0010
0000
,
1000
0100
0000
0000
0010
0001
0000
0000
,
1000
0001
1000
0000
0000
0000
0000
0000
;

//---------------dance-double - ----------------
#NOTEDATA:;
#CHARTNAME:;
#STEPSTYPE:dance-double;
#DESCRIPTION:;
#CHARTSTYLE:;
#DIFFICULTY:Challenge;
#METER:17;
#RADARVALUES:0.768421,1.015009,0.301920,0.389318,0.440963,677.000000,639.000000,38.000000,49.000000,0.000000,0.000000,0.000000,0.000000,0.000000,0.768421,1.015009,0.301920,0.389318,0.440963,677.000000,639.000000,38.000000,49.000000,0.000000,0.000000,0.000000,0.000000,0.000000;
#CREDIT:Ben Speirs;
#NOTES:
// measure 0
00000000
00000000
00000000
00000000
,  // measure 1
00000000
00000000
00000000
00000000
,  // measure 2
00000000
00000000
00000000
00000000
,  // measure 3
00000000
00000000
00000000
00000000
,  // measure 4
00010000
00000000
00000000
00000000
,  // measure 5
00000000
00000000
00000000
00000000
,  // measure 6
00000000
00000000
00000000
00000000
,  // measure 7
00000000
00000000
00000000
00000000
,  // measure 8
00000000
00000000
00000000
00000000
,  // measure 9
00000000
00000000
00000000
00000000
,  // measure 10
00000000
00000000
00000000
00000000
,  // measure 11
00000000
00000000
00000000
00000000
,  // measure 12
00021000
00000000
00030010
00000100
00000010
00000100
00001000
00000100
,  // measure 13
00000010
00001000
00000100
00000001
00000100
00010000
00001000
00100000
,  // measure 14
00002000
00000000
01003000
00100000
01000000
00100000
00010000
00100000
,  // measure 15
01000000
01000000
01000000
00010000
00100000
01000000
10000000
00010000
,  // measure 16
10000000
00000000
00000000
00100000
00000000
00000000
00010000
00000000
00000000
00001000
00000000
00000000
00000100
00000000
00000001
00001000
,  // measure 17
00000001
00000000
00000000
00000010
00000000
00000000
00001000
00000000
00000000
00010000
00000000
00000000
01000000
00000000
10000000
00010000
,  // measure 18
10000000
00100000
00010000
00001000
00100000
00010000
00001000
00000100
,  // measure 19
00000020
00002330
00020000
00033000
,  // measure 20
00010000
00001000
00010000
00000100
00010000
00000010
00010000
00000100
,  // measure 21
00010000
00000000
00000000
00000000
00001000
00000000
00000000
00000000
00010000
00000000
00000000
00000000
00000010
00000000
00000000
00000000
00010000
00000000
00000000
00000000
00002000
00003000
00000000
00000000
00002000
00003000
00000000
00000000
00000010
00000000
00000000
00000000
,  // measure 22
00000100
00001000
00000100
00000010
00000100
00000001
00000100
00000010
,  // measure 23
00000100
00000000
00000000
00000000
00001000
00000000
00000000
00000000
00000100
00000000
00000000
00000000
00000010
00000000
00000000
00000000
00000200
00003300
00000000
00000000
00000200
00000300
00000000
00000000
00010000
00000000
00001000
00000000
00010000
00000000
00000000
00000000
,  // measure 24
00001000
00100000
00001000
00010000
00001000
01000000
00001000
00010000
,  // measure 25
00001000
00000000
00000000
00000000
00100000
00000000
00000000
00000000
00001000
00000000
00000000
00000000
00010000
00000000
00000000
00000000
00001000
00000000
00000000
00000000
00020000
00030000
00000000
00000000
00020000
00030000
00000000
00000000
01000000
00000000
00000000
00000000
,  // measure 26
00100000
00010000
00100000
01000000
00100000
10000000
00100000
01000000
,  // measure 27
00010000
00000000
00010000
00000000
10000000
00000000
00010000
01000000
00010000
10000000
00100000
00000000
10000000
00010000
10000000
00000000
,  // measure 28
00010000
00100000
01000000
00000000
10000000
00000000
00100000
00000000
01000000
00010000
00100000
00000000
00001000
00000000
00010000
00000000
,  // measure 29
00000010
00000000
00001000
00000000
00000100
00000000
00000000
00000000
00000010
00000000
00000000
00000000
00000001
00000000
00000000
00000000
00000100
00000000
00000000
00000000
00000020
00000033
00000000
00000000
00000020
00000030
00000000
00000000
00000001
00000000
00000000
00000000
,  // measure 30
00001000
00000100
00000010
00000000
00000001
00000000
00000100
00000000
00000010
00001000
00000100
00000000
00010000
00000000
00001000
00000000
,  // measure 31
01000000
00000000
00010000
00000000
00100000
00000000
00000000
00000000
01000000
00000000
00000000
00000000
10000000
00000000
00000000
00000000
00200000
00300000
00000000
00000000
00200000
33300000
00000000
00000000
00010000
03000000
10000000
00000000
00100000
00000000
10000000
00000000
,  // measure 32
00010000
00100000
01000000
00000000
10000000
00100000
01000000
00000000
00010000
01000000
00100000
00000000
10000000
01000000
00100000
00000000
,  // measure 33
00010000
00000000
00000000
00000000
01000000
00000000
00000000
00000000
00001000
00000000
00000000
00000000
00010000
00000000
00000000
00000000
00000200
00000300
00000000
00000000
00000200
00000300
00000000
00000000
00000010
00000000
00000000
00000000
00001000
00000000
00000001
00000000
,  // measure 34
00001000
00000100
00000010
00000000
00000001
00000100
00000010
00000000
00001000
00000010
00000100
00000000
00000001
00000010
00000100
00000000
,  // measure 35
00001000
00000000
00000010
00000000
00010000
00000000
00002000
00000000
00100000
00000000
00013000
00000000
00001000
00010000
00100000
01000000
,  // measure 36
00100000
20000000
31000000
00000000
,  // measure 37
10000000
02000000
03010000
00000000
,  // measure 38
01000000
00020000
00031000
00000000
,  // measure 39
00010000
00002000
00003100
00000000
,  // measure 40
00000020
00010000
00001000
00000000
,  // measure 41
00020330
00000100
00001000
00000000
,  // measure 42
00032000
00100000
00010000
00000000
,  // measure 43
02033000
10000000
00310000
03000000
,  // measure 44
10010000
00000000
11000000
01000000
00100000
00010000
01000000
00100000
,  // measure 45
00010000
00010000
00001000
00010000
00001000
00000100
00000001
00001000
,  // measure 46
00001000
00000000
00000101
00000100
00000010
00001000
00000100
00000010
,  // measure 47
00001000
00001000
00010000
00001000
00010000
00100000
10000000
00010000
,  // measure 48
00010000
00000000
10010000
10000000
01000000
00010000
01000000
10000000
,  // measure 49
00100000
00100000
00010000
00001000
00000100
00000010
00001000
00000001
,  // measure 50
00000100
00000000
00001001
00000001
00000010
00001000
00000010
00000001
,  // measure 51
00001000
00000000
00000001
00000100
00000010
00000000
00001000
00000100
00000010
00000000
00000001
00001000
00000001
00000000
00000100
00000010
,  // measure 52
00001000
00000000
00000100
00000000
00010100
00000000
00010000
00001000
01000000
00000000
00010000
00000000
01010000
00000000
10000000
01000000
,  // measure 53
00100000
00000000
00110000
00000000
00110000
00000000
10000000
00010000
01000000
00000000
00100000
00000000
20000000
00000000
01000000
00000000
,  // measure 54
30010000
00000000
00100000
00000000
00101000
00000000
00001000
00010000
00000010
00000000
00000100
00000000
00000110
00000000
00000100
00000000
,  // measure 55
00000002
00000023
00002030
00023000
02030000
23000000
30200000
02300000
,  // measure 56
03010000
00000000
03100000
00000000
00101000
00000000
00001000
00010000
00000010
00000000
00001000
00000000
00001010
00000000
00000001
00000010
,  // measure 57
00000100
00000000
00001100
00000000
00001100
00000000
00000001
00001000
00000010
00000000
00000100
00000000
00000001
00001000
00000001
00001000
,  // measure 58
00000103
00000000
00010000
00000000
00010100
00000000
00000100
00010000
00001000
00000000
01000000
00000000
01010000
00000000
00010000
00000000
,  // measure 59
10000000
01000000
10000000
01000000
00100000
00010000
00100000
00010000
10000000
00100000
01000000
00010000
00100000
01000000
10000000
00010000
,  // measure 60
10000000
00000000
00100000
00000000
00010000
00000000
00100000
01000000
00010000
00000000
10000000
00000000
01000000
00000000
00100000
00000000
,  // measure 61
00001000
00010000
00000010
00000000
00001000
00000000
00000001
00000100
00000010
00000000
00001000
00000000
00001100
00000000
00000100
00000000
,  // measure 62
00010100
00000000
00010000
00030000
00001000
00000000
00100000
00010000
01000000
00000000
00100000
00000000
10000000
00000000
00010000
00000000
,  // measure 63
20000000
32000000
03020000
00032000
00003020
00000032
00000203
00000320
,  // measure 64
00001030
00000000
00000100
00000000
00000001
00000000
00000100
00000010
00000001
00000000
00000100
00000000
00000010
00000000
00001000
00000000
,  // measure 65
00000100
00010000
00001000
00000000
00001000
00000000
00100000
00010000
01000000
00000000
00010000
00000000
10010000
00000000
10000000
00000000
,  // measure 66
11000000
00000000
01000000
00000000
00100000
00000000
00010000
10000000
00100000
00000000
01000000
00000000
00010000
00100000
01000000
10000000
,  // measure 67
00010000
10010000
00011000
00001001
,  // measure 68
00000001
00000000
00000100
00000000
00000000
00000100
00000000
00000010
,  // measure 69
00000000
00001000
00001100
00010100
,  // measure 70
00010000
00000000
00001000
00000000
00000000
00001000
00000000
00100000
,  // measure 71
00000000
00100000
00110000
10010000
,  // measure 72
10000000
00100000
01000000
00000000
00000000
00010000
01010000
00000000
,  // measure 73
00010000
00000000
00100000
00000000
01000000
00000000
00000000
00000000
00000000
00000000
10000000
00000000
11000000
00000000
00010000
10000000
,  // measure 74
00010000
01000000
00100000
00010000
00001000
00000100
00000010
00001000
,  // measure 75
00000001
00000010
00000100
00001000
00000010
00000000
00000100
00000001
00001000
00000000
00000100
00000000
00001100
00000000
00010100
00000000
,  // measure 76
00011000
00001000
00100000
00010000
01000000
00100000
10000000
01000000
,  // measure 77
01000000
00000000
00010000
00000000
01000000
00000000
01000000
00000000
10000000
00100000
01000000
00010000
00100000
00010000
10000000
00100000
,  // measure 78
01000000
00010000
00100000
00001000
00010000
00000010
00000100
00001000
,  // measure 79
00001000
00000000
00000100
00000000
00000001
00000000
00000001
00000000
00001000
00000100
00000010
00000001
00000100
00000010
00000100
00000001
,  // measure 80
00001000
00000100
00001000
00000100
00001000
00000000
00000001
00000000
00000100
00000000
00001000
00000000
00010000
00000000
00100000
00000000
,  // measure 81
10000000
00010000
10000000
00010000
10000000
00000000
01000000
00000000
00100000
00010000
10000000
00100000
01000000
00010000
10000000
01000000
,  // measure 82
00100000
00010000
00100000
00010000
00100000
00000000
00001000
00000000
00010000
00000000
00000010
00000000
00000100
00000010
00000100
00000010
,  // measure 83
00001000
00000000
00000001
00000010
00000100
00000000
00001000
00000010
00000100
00000001
00000010
00000100
00010000
00000000
00001000
00010000
,  // measure 84
00001000
00010000
00001000
00100000
00001000
01000000
00001000
00100000
,  // measure 85
00001000
00000000
00000000
00000000
00010000
00000000
00000000
00000000
00001000
00000000
00000000
00000000
01000000
00000000
00000000
00000000
00001000
00000000
00000000
00000000
00020000
00030000
00000000
00000000
00020000
00030000
00000000
00000000
01000000
00000000
00000000
00000000
,  // measure 86
00100000
00010000
00100000
01000000
00100000
10000000
00100000
01000000
,  // measure 87
00100000
00000000
00000000
00000000
00100000
00000000
00000000
00000000
00100000
00000000
00000000
00000000
01000000
00000000
00000000
00000000
00200000
00330000
00000000
00000000
00200000
00300000
00000000
00000000
00001000
00000000
00010000
00000000
00001000
00000000
00000000
00000000
,  // measure 88
00010000
00000100
00010000
00001000
00010000
00000010
00010000
00001000
,  // measure 89
00010000
00000000
00000000
00000000
00000100
00000000
00000000
00000000
00010000
00000000
00000000
00000000
00001000
00000000
00000000
00000000
00010000
00000000
00000000
00000000
00002000
00003000
00000000
00000000
00002000
00003000
00000000
00000000
00000010
00000000
00000000
00000000
,  // measure 90
00000100
00000101
00000000
00000001
00001000
00001100
00000000
00000100
,  // measure 91
00010000
00011000
00101000
00000000
00000000
00000000
00000000
00000000
;

//---------------dance-double - ----------------
#NOTEDATA:;
#CHARTNAME:;
#STEPSTYPE:dance-double;
#DESCRIPTION:;
#CHARTSTYLE:;
#DIFFICULTY:Hard;
#METER:14;
#RADARVALUES:0.645837,0.797507,0.158905,0.309866,0.174796,569.000000,549.000000,20.000000,39.000000,0.000000,0.000000,0.000000,0.000000,0.000000,0.645837,0.797507,0.158905,0.309866,0.174796,569.000000,549.000000,20.000000,39.000000,0.000000,0.000000,0.000000,0.000000,0.000000;
#CREDIT:Ben Speirs;
#NOTES:
// measure 0
00000000
00000000
00000000
00000000
,  // measure 1
00000000
00000000
00000000
00000000
,  // measure 2
00000000
00000000
00000000
00000000
,  // measure 3
00000000
00000000
00000000
00000000
,  // measure 4
00010000
00000000
00000000
00000000
,  // measure 5
00000000
00000000
00000000
00000000
,  // measure 6
00000000
00000000
00000000
00000000
,  // measure 7
00000000
00000000
00000000
00000000
,  // measure 8
00000000
00000000
00000000
00000000
,  // measure 9
00000000
00000000
00000000
00000000
,  // measure 10
00000000
00000000
00000000
00000000
,  // measure 11
00000000
00000000
00000000
00000000
,  // measure 12
00012000
00000000
00103000
00010000
00100000
00010000
00100000
00010000
,  // measure 13
10000000
00100000
00010000
00100000
01000000
00010000
00100000
00001000
,  // measure 14
00020000
00000000
00030100
00001000
00000100
00001000
00000100
00001000
,  // measure 15
00000001
00000100
00001000
00000100
00000010
00001000
00000100
00010000
,  // measure 16
00001000
00000000
00000000
00100000
00000000
00000000
00001000
00000000
00000000
00010000
00000000
00000000
00001000
00000000
00000000
00000000
,  // measure 17
00010000
00000000
00000000
00000010
00000000
00000000
00010000
00000000
00000000
00001000
00000000
00000000
00010000
00000000
00000000
00000000
,  // measure 18
00001000
00010000
00100000
10000000
01000000
00010000
01000000
10000000
,  // measure 19
00200000
00320000
00002000
00033000
,  // measure 20
00010000
00001000
00010000
00000100
00010000
00001000
00010000
00000100
,  // measure 21
00010000
00001000
00010000
00000100
00010000
00001000
00001000
00100000
,  // measure 22
00001000
00010000
00001000
01000000
00001000
00010000
00001000
01000000
,  // measure 23
00001000
00010000
00001000
01000000
00001000
00001000
00010000
00100000
,  // measure 24
10000000
00010000
10000000
00100000
10000000
00010000
10000000
01000000
,  // measure 25
10000000
00010000
10000000
00100000
10000000
10000000
00100000
01000000
,  // measure 26
00010000
10000000
00010000
00100000
00010000
10000000
00010000
01000000
,  // measure 27
00010000
00100000
00101000
00000000
00001000
00021000
00000000
00000000
,  // measure 28
00030100
00001000
00000100
00000000
00001000
00000000
00000010
00000000
00000100
00000000
00000001
00000000
00001000
00000000
00000100
00000000
,  // measure 29
00000010
00000001
00000010
00000000
00000001
00000000
00000100
00000000
00000010
00000000
00001000
00000000
00000100
00000000
00000100
00000000
,  // measure 30
00010000
00001000
00010000
00000000
00001000
00000000
00100000
00000000
00010000
00000000
01000000
00000000
00100000
00000000
10000000
00000000
,  // measure 31
00010000
00100000
00010000
00000000
10000000
00000000
00100000
00000000
01000000
00000000
01000000
00000000
00010000
10000000
00010000
10000000
,  // measure 32
00010000
01000000
00100000
10000000
00010000
00100000
00001000
00010000
,  // measure 33
00000100
00001000
00000100
00000000
00001000
00000000
00000010
00000000
00000100
00000000
00000001
00000000
00001000
00000000
00001000
00000000
,  // measure 34
00000001
00000010
00000001
00000000
00000100
00000000
00000010
00000000
00001000
00000000
00000100
00000000
00000001
00000000
00000100
00000000
,  // measure 35
00010000
00000000
00001000
00000000
00100000
00000000
00020000
00000000
00000000
00000000
00000000
00000000
10030000
00100000
10000000
00100000
,  // measure 36
20000000
00000000
00000000
00000000
,  // measure 37
30020000
00000000
00000000
00000000
,  // measure 38
00032000
00000000
00000000
00000000
,  // measure 39
00003002
00000000
00000000
00000000
,  // measure 40
00000203
00000000
00000010
00000000
,  // measure 41
00000320
00000000
00010000
00000000
,  // measure 42
00020030
00000000
00001000
00000000
,  // measure 43
00032000
00000000
00100000
00000000
,  // measure 44
00103000
00000000
00110000
00000000
00010000
10000000
01000000
00000000
,  // measure 45
10000000
00100000
01000000
00100000
00010000
00100000
10000000
00000000
,  // measure 46
00010000
00000000
01010000
00000000
10000000
01000000
00100000
00000000
,  // measure 47
00001000
00010000
00100000
00010000
00001000
00000010
00000001
00001000
,  // measure 48
00000001
00000000
00001100
00000000
00001000
00000001
00000010
00000000
,  // measure 49
00000001
00000100
00000010
00000100
00001000
00000100
00000001
00000000
,  // measure 50
00001000
00000000
00001010
00000000
00000001
00000010
00000100
00000000
,  // measure 51
00010000
00000000
00001000
00010000
00001000
00000000
00010000
00001000
00010000
00000000
00001000
00000000
00100000
00000000
00100000
00000000
,  // measure 52
00010000
00000000
10000000
00000000
00100000
00000000
01000000
00010000
01000000
00000000
00100000
00000000
10000000
00000000
01000000
00000000
,  // measure 53
00100000
00000000
00001000
00000000
00001000
00000000
00010000
00001000
00010000
00000000
00000010
00000000
00000200
00000000
00000000
00000000
,  // measure 54
00000301
00000000
00001000
00000000
00000010
00000000
00001000
00000100
00001000
00000000
00000001
00000000
00000100
00000000
00000010
00000000
,  // measure 55
00020000
00030200
00000320
00000032
00000203
00002300
00023000
00230000
,  // measure 56
10300000
00000000
00010000
00000000
01000000
00000000
00010000
00100000
00010000
00000000
10000000
00000000
01000000
00000000
00100000
00000000
,  // measure 57
00001000
00000000
00010000
00000000
00010000
00000000
00001000
00010000
00001000
00000000
00010000
00000000
00000020
00000000
00000000
00000000
,  // measure 58
00000130
00000000
00000001
00000000
00001000
00000000
00000100
00010000
00000100
00000000
00010000
00000000
00001000
00000000
01000000
00000000
,  // measure 59
01010000
00011000
00010100
00011000
,  // measure 60
20010000
00000000
00000000
00000000
30100000
00000000
01000000
00010000
10000000
00000000
01000000
00000000
00100000
00000000
00010000
00000000
,  // measure 61
00100000
00001000
00100000
00000000
00001000
00000000
00010000
00000010
00010000
00000000
00000100
00000000
00002000
00000000
00000000
00000000
,  // measure 62
00003010
00000000
00010000
00000000
00001000
00000000
01000000
00010000
00100000
00000000
00001000
00000000
00100000
00000000
00100000
00000000
,  // measure 63
00002000
00203000
02300000
23000000
30200000
00320000
00032000
00003200
,  // measure 64
00000301
00000000
00001000
00000000
00000010
00000000
00001000
00000100
00000010
00000000
00000001
00000000
00000100
00000000
00000010
00000000
,  // measure 65
00010000
00001000
00010000
00000000
00001000
00000000
00100000
00010000
00100000
00000000
00010000
00000000
02000000
00000000
00000000
00000000
,  // measure 66
03100000
00000000
10000000
00000000
00010000
00000000
10000000
01000000
00100000
00000000
00010000
00000000
10000000
00000000
00010000
00000000
,  // measure 67
10010000
00011000
00001001
00000110
,  // measure 68
00001001
00000000
00000001
00000000
00000000
00000001
00000000
00000100
,  // measure 69
00000000
00000100
00000010
00000010
,  // measure 70
00000000
00000000
00001000
00000000
00000000
00001000
00000000
00000100
,  // measure 71
00000000
00000100
00010000
00010000
,  // measure 72
00001000
00100000
00010000
00000000
00100000
00010000
10000000
00000000
,  // measure 73
00010000
10000000
00100000
00000000
10000000
00100000
01000000
00000000
,  // measure 74
00010000
10000000
00010000
10000000
00100000
01000000
00100000
01000000
,  // measure 75
00010000
00100000
00000000
00100000
00001000
00000000
00000000
00000000
00010000
00000000
00010000
00000000
00001000
00000000
00001000
00000000
,  // measure 76
00000010
00000001
00000100
00001000
00000100
00000001
00000010
00000100
,  // measure 77
00000100
00000000
00010000
00000000
00001000
00000000
00001000
00000000
00100000
00000000
00010000
01000000
00010000
01000000
00010000
00000000
,  // measure 78
00100000
01000000
10000000
00100000
00010000
00100000
01000000
00001000
,  // measure 79
00001000
00000000
00010000
00000000
00000100
00000000
00000100
00000000
00001000
00000001
00001000
00000000
00000001
00000100
00000001
00000000
,  // measure 80
00001000
00000010
00001000
00000010
00002000
00000000
00000000
00000000
00003100
00000000
00010000
00000000
00001000
00000000
00100000
00000000
,  // measure 81
00010000
01000000
00010000
01000000
00020000
00000000
00000000
00000000
10030000
00000000
01000000
00000000
00100000
00000000
00001000
00000000
,  // measure 82
00010000
00001000
00010000
00001000
00010000
00000000
00000010
00000000
00000100
00000000
00000001
00000000
00001000
00000001
00001000
00000001
,  // measure 83
00000100
00000010
00000001
00000010
00001030
00000010
00000100
00001000
,  // measure 84
00020000
00000000
00031000
00100000
00001000
00010000
00001000
01000000
,  // measure 85
00001000
00010000
00001000
00100000
00001000
00010000
00010000
00000100
,  // measure 86
00010000
00001000
00010000
00000010
00010000
00001000
00010000
00000100
,  // measure 87
00010000
00010000
00010000
00000010
00010000
00010000
00001000
00000100
,  // measure 88
00000001
00001000
00000001
00000100
00000001
00000010
00000001
00000100
,  // measure 89
00000001
00001000
00000001
00000100
00000001
00000001
00000100
00000010
,  // measure 90
00001000
00001100
00000000
00000100
00010000
00011000
00000000
00001000
,  // measure 91
01000000
00100000
10010000
00000000
00000000
00000000
00000000
00000000
;

//---------------dance-double - ----------------
#NOTEDATA:;
#CHARTNAME:;
#STEPSTYPE:dance-double;
#DESCRIPTION:;
#CHARTSTYLE:;
#DIFFICULTY:Medium;
#METER:10;
#RADARVALUES:0.425640,0.616255,0.405209,0.143015,0.000000,375.000000,324.000000,51.000000,18.000000,0.000000,0.000000,0.000000,0.000000,0.000000,0.425640,0.616255,0.405209,0.143015,0.000000,375.000000,324.000000,51.000000,18.000000,0.000000,0.000000,0.000000,0.000000,0.000000;
#CREDIT:Ben Speirs;
#NOTES:
00000000
00000000
00000000
00000000
,
00000000
00000000
00000000
00000000
,
00000000
00000000
00000000
00000000
,
00000000
00000000
00000000
00000000
,
00010000
00000000
00000000
00000000
,
00000000
00000000
00000000
00000000
,
00000000
00000000
00000000
00000000
,
00000000
00000000
00000000
00000000
,
00000000
00000000
00000000
00000000
,
00000000
00000000
00000000
00000000
,
00000000
00000000
00000000
00000000
,
00000000
00000000
00000000
00000000
,
00010000
00011000
00011000
00011000
,
00001000
00000000
00100000
00010000
01000000
00000000
00010000
10000000
,
00100000
10100000
10100000
10100000
,
00010000
00100000
00001000
00000000
00010000
00000010
00001000
00000000
,
00000001
00000100
00001000
00010000
,
00100000
10000000
01000000
00010000
,
00001000
00010000
00001000
00010000
00001000
00010000
00001000
00010000
,
00000000
00000000
00000000
00000000
,
00010000
00000100
00000010
00000001
,
00001000
00000000
00000010
00000000
00000100
00000001
00000100
00000001
,
00000100
00000010
00001000
00000100
,
00010000
00000000
00001000
00000000
00100000
00010000
00100000
00010000
,
00100000
00010000
10000000
00100000
,
01000000
00000000
00001000
00000000
00010000
00001000
00010000
00001000
,
00010000
00000100
00000010
00000001
,
00001000
00000000
00000010
00000000
00000000
00000010
00000000
00000000
,
00001000
00000001
00000000
00000100
00000000
00000010
00000000
00001000
,
00000000
00000100
00000000
00010000
00000000
00001000
00100000
00001000
,
00000000
00100000
00000000
00010000
00000000
10000000
00000000
00100000
,
00000000
01000000
00000000
00001000
00000000
00010000
00001000
00010000
,
00000000
00000100
00000000
00001000
00000000
00000001
00000000
00000100
,
00000000
00000010
00000000
00001000
00000000
00000100
00010000
00000100
,
00000000
00010000
00000000
00001000
00000000
00100000
00000000
00010000
,
00000000
01000000
00000000
00020000
00000000
00000000
10030000
00100000
,
10000000
00000000
00000000
00000000
,
00010000
00000000
00000000
00000000
,
00001000
00000000
00000000
00000000
,
00000001
00000000
00000000
00000000
,
00000002
00000000
00000000
00000000
,
00000203
00000000
00000000
00000000
,
00002300
00000000
00000000
00000000
,
00023000
00000000
00000000
00000000
,
00130000
10100000
00000000
10100000
,
00000000
10010000
00000000
10010000
,
00100000
00101000
00000000
00101000
,
00000000
00011000
00000000
00011000
,
00010000
00010100
00000000
00010100
,
00000000
00001100
00000000
00001100
,
00000010
00000110
00000000
00000110
,
00000001
00000000
00001000
00000000
00000001
00000000
00001000
00000001
,
00000200
00000310
00001000
00000100
,
00010000
00001000
00010000
00000000
00001000
00010000
00002000
00000000
,
00203000
00310000
10000000
00100000
,
01000000
00010000
01000000
00000000
00010000
10000000
00010000
00000000
,
20000000
31000000
00100000
00010000
,
01000000
00001000
01000000
00000000
00001000
00010000
00002000
00000000
,
00023000
00000000
00030100
00000000
00001000
00000100
00001000
00000000
,
00001100
00000011
00000101
00001010
,
00001002
00000000
00000103
00000000
00000010
00001000
00000010
00000000
,
00001000
00000100
00001000
00000000
00000100
00000000
00010100
00000000
,
00012000
00000000
00103000
00000000
00010000
00100000
00010000
00000000
,
10000000
00100000
10000000
00000000
00010000
00000000
01010000
00000000
,
20010000
00000000
30100000
00000000
10000000
00100000
10000000
00000000
,
00010000
01000000
00010000
00000000
00100000
00000000
00101000
00000000
,
00021000
00000000
00030100
00000000
00010000
00000100
00010000
00000000
,
00010100
00010100
00011000
00011000
,
00000000
00000000
00100000
00000000
00000000
00100000
00000000
00100000
,
00000000
00100000
00001000
00010000
,
00000000
00000000
00000010
00000000
00000000
00000010
00000000
00000010
,
00000000
00000010
00010000
00001000
,
00100000
00010000
00000000
10000000
,
00100000
01000000
00000000
00010000
,
00100000
00100000
00001000
00001000
,
00010000
00000100
00000010
00000000
00000001
00001000
00000010
00000000
,
00000100
00000001
00000100
00000000
00000001
00001000
00000000
00000001
,
00000010
00000000
00000001
00002000
00000000
00000000
00003100
00000000
,
00010000
00001000
00010000
00000000
00001000
00100000
00000000
00001000
,
00010000
00000000
00001000
02000000
00000000
00000000
03010000
00000000
,
10000000
00010000
10000000
00000000
00010000
01000000
00000000
00010000
,
10000000
00000000
00010000
00200000
00000000
00000000
01300000
00000000
,
10000000
00010000
10000000
00000000
00010000
01000000
00010000
00000000
,
10000000
01000000
00100000
00001000
,
00011000
00011000
00101000
00101000
,
00011000
00000000
00011000
00000000
00010000
00000100
00001000
00000000
,
00001100
00001100
00001001
00001001
,
00001000
00000001
00000100
00000000
00000001
00001000
00000010
00000000
,
00001010
00001010
00010010
00010010
,
00001010
00000000
00001010
00000000
00001000
00000100
00010000
00000000
,
00001000
00010000
00000000
00001000
00010000
00001000
00000000
00010000
,
00001000
00010000
00001000
00000000
00000000
00000000
00000000
00000000
;

//---------------dance-single - ----------------
#NOTEDATA:;
#CHARTNAME:;
#STEPSTYPE:dance-single;
#DESCRIPTION:;
#CHARTSTYLE:;
#DIFFICULTY:Easy;
#METER:6;
#RADARVALUES:0.280355,0.362503,0.047672,0.206577,0.000000,247.000000,241.000000,6.000000,26.000000,0.000000,0.000000,0.000000,0.000000,0.000000,0.280355,0.362503,0.047672,0.206577,0.000000,247.000000,241.000000,6.000000,26.000000,0.000000,0.000000,0.000000,0.000000,0.000000;
#CREDIT:Ben Speirs;
#NOTES:
0000
0000
0000
0000
,
0000
0000
0000
0000
,
0000
0000
0000
0000
,
0000
0000
0000
0000
,
0010
0000
0000
0000
,
0000
0000
0000
0000
,
0000
0000
0000
0000
,
0000
0000
0000
0000
,
0000
0000
0000
0000
,
0000
0000
0000
0000
,
0000
0000
0000
0000
,
0000
0000
0000
0000
,
1000
0100
1000
0000
,
0100
0010
0001
0000
,
0001
0100
0001
0000
,
0100
0010
1000
0000
,
0001
1000
0001
1000
,
0100
0100
0100
0000
,
1000
0001
1000
0001
,
0200
0000
0000
0300
,
0001
0010
0001
0010
,
0001
0010
0100
0000
,
1000
0010
1000
0010
,
1000
0010
0100
0000
,
0001
1000
0001
1000
,
0001
1000
0100
0000
,
0010
0001
0010
0001
,
1000
0000
1000
0000
0000
0001
0000
0000
,
1000
0100
0010
0001
,
0100
0010
2000
3000
,
0010
1000
0100
0010
,
0001
1000
0002
0003
,
1000
0010
0100
0001
,
0010
0100
2000
3000
,
0001
0100
0010
1000
,
0100
0010
0001
1000
,
0020
0000
0000
0000
,
0230
0000
0000
0000
,
0302
0000
0000
0000
,
2003
0000
0000
0000
,
3200
0000
0000
0000
,
0320
0000
0000
0000
,
0032
0000
0000
0000
,
2000
0000
0000
3003
,
1000
0100
0000
0100
,
0010
0001
0000
0001
,
1000
0010
0000
0010
,
0100
0001
0000
1000
,
0001
1000
0000
1000
,
0001
0010
0000
0010
,
0100
1000
0000
0001
,
0200
0000
0000
0300
,
1001
1000
0100
0010
,
0001
0100
0200
0300
,
0001
0001
1000
1000
,
0001
0010
0100
0000
,
1000
1000
0001
0001
,
1000
0010
0200
0300
,
0010
0010
1000
0001
,
1000
0100
0010
0001
,
2002
3003
0001
0100
,
0010
1000
0001
0010
,
0020
0030
0001
1000
,
0010
0100
0010
0010
,
0220
0330
0100
0001
,
1000
0001
0010
0100
,
0200
0300
1000
0001
,
1000
0100
0010
0001
,
2000
0000
0000
3000
,
1000
0000
1000
0000
,
0002
0000
0000
0003
,
0001
0000
0001
0000
,
0100
0100
0000
0100
,
0000
0010
0000
0010
,
0000
1000
0000
1000
,
0001
0010
0100
0000
,
1000
0010
0001
0010
,
1000
0100
0020
0030
,
0001
0100
1000
0100
,
0001
0010
0200
0300
,
1000
1000
0100
0010
,
0001
0001
2000
3000
,
0001
0001
0100
0010
,
0100
0100
0100
0000
,
1001
1000
0001
1000
,
0001
1000
0001
0100
,
0001
1000
0001
1000
,
0001
1000
0100
0100
,
1000
0001
1000
0001
,
1000
0001
0010
0010
,
0001
0000
1000
0000
,
1001
1001
0000
0000
;
