#TITLE:Devil In Your Heart;
#SUBTITLE:;
#ARTIST:SiM;
#TITLETRANSLIT:;
#SUBTITLETRANSLIT:;
#ARTISTTRANSLIT:;
#GENRE:;
#CREDIT:;
#BANNER:Devil In Your Heart.png;
#BACKGROUND:Devil In Your Heart-bg.png;
#LYRICSPATH:Devil In Your Heart.lrc;
#CDTITLE:;
#MUSIC:Devil In Your Heart.ogg;
#OFFSET:0.000000;
#SAMPLESTART:23.971264;
#SAMPLELENGTH:19.920008;
#SELECTABLE:YES;
#BPMS:0.000000=120.000000
,16.000000=240.000000
,80.000000=120.000000
,112.000000=240.000000
,192.000000=120.000000
,232.000000=240.000000
,296.000000=120.000000
;
#STOPS:
;
#BGCHANGES:0.000=Devil In Your Heart.avi=1.000=0=0=0=StretchNoLoop====,
99999=-nosongbg-=1.000=0=0=0 // don't automatically add -songbackground-
;
#KEYSOUNDS:;
#ATTACKS:;

//---------------dance-single - ----------------
#NOTES:
     dance-single:
     :
     Hard:
     14:
     0.750239,1.044083,0.853721,0.500160,0.211274,609.000000,510.000000,99.000000,58.000000,0.000000,0.000000,0.750239,1.044083,0.853721,0.500160,0.211274,609.000000,510.000000,99.000000,58.000000,0.000000,0.000000:
0000
0000
0000
0000
,
0000
0000
0000
0000
,
0000
0000
0000
0000
,
0000
0000
0000
0000
,
1000
0001
1000
0001
1000
0010
0200
0000
,
0310
0200
0301
0101
,
1000
0000
1002
0000
0013
0100
1000
0000
,
0020
0130
0010
1010
,
0002
0000
1003
0100
0010
0000
0001
0000
,
0200
0000
0310
1000
0010
1000
0001
0000
,
1000
0000
0001
0010
0100
1000
0010
0100
,
0002
0000
1003
0100
0010
0001
1000
0000
,
0002
0000
0013
1000
0020
0000
0032
0000
,
0103
1300
0200
0000
0301
0000
1000
0000
,
3001
0100
0001
0100
0010
0000
1000
0100
,
0020
0000
0031
1000
0020
0000
0130
0000
,
0001
0000
1000
0100
1000
0000
0001
0100
,
0001
0000
1000
0010
0100
0001
1000
0000
,
0001
0000
0011
0000
0010
0100
0010
0100
,
1000
0010
0100
0001
0010
1000
0010
0001
,
2001
0000
0100
0001
0010
0000
0100
0001
,
3010
0000
1000
0100
1100
0100
0110
0010
,
0012
0000
0010
1000
0100
0000
0010
1000
,
0103
0000
0001
0010
0011
0010
0110
0100
,
1002
0000
0103
0101
2001
0000
3100
1100
,
1002
0000
1003
0010
0110
0100
0101
0001
,
1002
0000
1003
0100
1100
0000
0001
0100
,
0101
0000
1000
0100
1000
0001
0100
0001
0010
0000
0010
0000
0001
1000
0000
0001
,
1000
0100
0000
1100
0000
0101
0000
0100
,
0001
0010
0000
0011
0000
1010
0000
1000
,
0010
0100
0000
0001
0010
0100
0000
1000
,
0020
1000
0230
0010
,
0301
0010
0000
0011
0000
1010
0000
0010
,
1000
0100
0000
1100
0000
0101
0000
0001
,
0100
0010
0000
1000
0100
0010
0000
0001
,
2000
0010
3200
0010
,
1330
0001
0000
0101
0000
0110
0000
1010
,
0000
1100
0000
0110
0000
0011
0000
1000
,
0001
0100
0000
0001
0100
0010
0000
1000
,
0002
0010
2003
0310
,
3002
0203
2300
3200
,
0302
0023
2030
3020
,
0032
0000
0103
0000
0010
1000
0001
1000
,
0010
0000
1001
0000
1000
0100
0010
0001
,
0100
0000
0101
0000
0001
0010
0100
1000
,
0010
0000
1010
0000
1000
0100
0010
0001
,
2000
0003
0000
0000
,
0002
0000
0000
3003
,
1010
0000
0000
1000
0001
0000
0101
0000
1001
0000
0000
1000
0100
0000
1100
0000
,
1001
0000
0000
1000
0010
0000
0100
0000
0101
0000
1010
0000
1100
0000
0011
0000
,
1001
0000
0000
1000
0010
0000
0110
0000
0101
0000
0000
0001
0013
0000
0110
0000
,
1100
0000
0000
1000
0001
0000
1000
0100
1000
0010
0000
0010
0000
0100
0001
0000
,
0101
0000
0100
0010
1000
0000
0100
0000
1100
0000
0100
0010
0001
0000
1000
0000
,
1001
0000
0101
0110
1010
1100
0110
0011
,
1001
0000
1000
0100
0010
0000
0001
0000
0011
0000
0001
0100
0010
0000
1000
0000
,
1010
0000
1000
0010
0100
0000
0001
0100
0001
0010
0000
0010
0000
0100
1000
0000
,
2200
3300
0202
0303
,
2002
0000
3003
0000
0220
0000
0330
0000
2002
0000
3003
0000
1000
0001
0000
0001
,
0200
0000
0310
1000
0001
1000
0200
0000
,
0320
0000
0031
0100
0010
0100
0002
0000
,
2003
0000
3100
0010
0001
0010
0200
0000
,
2300
0000
3010
0100
0001
0100
0020
0000
,
1030
0100
1000
0001
0100
0001
0010
0100
,
1000
0001
1000
0010
0100
0010
1000
0001
,
0010
0100
0010
0001
1000
0001
0100
0010
,
1000
0000
1100
0000
0001
1000
0001
1000
,
0001
0010
1000
0010
0001
0000
1000
0010
,
0001
0010
1000
0000
0001
0100
1000
0001
,
0010
0000
1000
0100
0001
1000
0010
0000
,
0001
0100
1000
0100
0001
0010
0100
1000
,
0020
0100
0001
0100
,
1000
0000
0130
0001
0010
0100
1000
0010
,
2000
0000
3001
0000
1000
0100
0010
0001
,
0101
1010
1100
0011
,
1001
0000
1000
0100
0010
0000
0100
0000
1001
0000
0001
0100
0010
0000
0100
0000
,
1001
0000
0101
0110
1010
1100
0110
0011
,
1001
0000
0001
0010
0100
0000
0010
0000
1001
0000
1000
0010
0100
0000
0010
0000
,
1001
0000
0000
0000
0001
0000
1000
0100
1000
0010
0000
0010
0000
0100
0001
0000
,
1000
0000
0001
0100
0000
0010
1000
0000
1010
0000
1000
0100
0000
0010
0001
0000
,
0011
0000
1000
0010
0100
0000
0001
0000
0101
0000
1010
0000
1100
0000
0011
0000
,
1001
0000
1000
0010
0000
0100
0001
0000
0101
0000
0001
0010
0000
0100
1000
0000
,
1100
0000
0001
1000
0000
1000
0001
0100
0001
0010
0000
0010
0000
0100
1000
0000
,
2001
0000
3013
0100
0102
0000
1033
0100
,
1100
0011
1001
0000
;

//---------------dance-single - ----------------
#NOTES:
     dance-single:
     :
     Medium:
     11:
     0.523566,0.648052,0.379431,0.750239,0.034494,425.000000,381.000000,44.000000,87.000000,0.000000,0.000000,0.523566,0.648052,0.379431,0.750239,0.034494,425.000000,381.000000,44.000000,87.000000,0.000000,0.000000:
0000
0000
0000
0000
,
0000
0000
0000
0000
,
0000
0000
0000
0000
,
0000
0000
0000
0000
,
0001
0100
0001
0000
0100
0000
0010
0000
,
1000
0001
2002
3003
,
2200
0000
3300
0000
0001
0100
0001
0000
,
1000
0100
0220
0330
,
0001
0000
1000
0100
1000
0000
0010
0000
,
0100
0000
0001
0100
0001
0000
2000
0000
,
3000
0001
0010
0100
,
1100
1100
0101
0101
,
2000
0000
3001
0100
0001
0000
2000
0000
,
3001
0100
0001
0000
0020
0000
0030
0000
,
0001
1000
0001
0000
1000
0000
0010
0000
,
0100
0000
0001
0010
0100
0000
2000
0000
,
3000
0001
0100
0010
,
1000
0000
0100
0010
0001
0000
2000
0000
,
3000
0000
0001
0000
1000
0100
1000
0100
,
0010
0011
0011
1010
,
1002
0000
0100
0100
0203
0000
0010
0010
,
0320
0000
1030
0010
0001
0010
0100
0001
,
2000
0000
0100
0100
3200
0000
0010
0010
,
0320
0000
0031
0010
1000
0010
0001
0100
,
0020
0000
0100
0100
0230
0000
1000
1000
,
2300
0000
3100
0001
0010
0100
1000
0001
,
1002
0000
1003
0100
2100
0000
3001
0100
,
0101
0110
2002
3003
,
1000
0100
0000
0100
0000
0010
0000
0001
,
0010
0001
0000
1000
0000
0001
0000
1000
,
0010
1000
0000
0001
0000
0100
0000
0010
,
2000
0000
3002
0000
,
0013
0100
0000
0100
0000
1000
0000
0001
,
0010
0001
0000
1000
0000
0001
0000
1000
,
0100
1000
0000
0001
0000
0100
0000
0001
,
2000
0000
3020
0000
,
0130
0001
0000
0001
0000
1000
0000
0001
,
0100
0001
0000
0100
0000
0010
0000
1000
,
0100
1000
0000
0001
0000
0010
0000
0001
,
2000
0000
3002
0000
,
2003
3020
0230
0302
,
0023
0230
2300
3020
,
0230
0000
0301
1003
,
0100
0000
1100
0000
0001
1000
0001
1000
,
0002
0203
0320
2030
,
3200
0000
0320
0000
0031
0010
0100
1000
,
0002
0000
0000
0000
,
2000
0000
0000
3033
,
1002
0000
1003
0100
0002
0000
1003
0010
,
0002
0000
0103
0100
0010
0010
1000
0001
,
2001
0000
3001
0010
2000
0000
3001
0100
,
2000
0000
0000
0000
3010
0000
0010
0000
0100
0000
0000
0100
0000
0000
0001
0000
,
2001
0000
0100
0001
0100
0000
0100
0001
,
3100
0000
1000
0100
0010
0001
1000
0001
,
1002
0000
0100
1000
0100
0000
0100
1000
,
0103
0000
0000
0000
0001
0000
0100
0000
0010
0000
0000
0010
0000
0000
1000
0000
,
2200
3300
0202
0303
,
1010
0110
2002
3003
,
0001
0202
0303
0200
,
0310
2020
3030
2000
,
3100
2200
3300
0200
,
0310
0022
0033
0002
,
1003
0000
1000
0010
0000
0010
0100
0000
,
0001
0000
0001
0010
0000
0010
0100
0000
,
1000
0000
1000
0001
0000
0001
0100
0000
,
0020
0000
0000
0000
0130
0001
1000
0001
,
1000
0100
0000
0010
0001
0000
1000
0010
,
0000
0100
0001
0000
1000
0100
0000
0100
,
0010
0000
0010
0001
0000
0001
0100
0000
,
0100
0010
0000
0010
1000
0000
0001
0000
,
0200
0010
0000
0010
,
0000
0000
0310
0000
0100
0001
0010
0100
,
2000
0000
3001
3000
1000
0001
1000
0001
,
0100
0101
0110
1010
,
1001
0000
0000
1000
0000
0000
0100
0000
1200
0000
0000
0000
0310
0000
0001
0000
,
2000
0000
3001
0100
0010
1000
0100
0010
,
0011
0000
0000
0001
0000
0000
0100
0000
0201
0000
0000
0000
0310
0000
1000
0000
,
0002
0000
0000
0000
1003
0000
0010
0000
0100
0000
0000
0100
0000
0000
0001
0000
,
2001
0000
0000
0000
0010
0000
0100
0000
3001
0000
0000
1000
0000
0000
0001
0000
,
0200
0000
0310
1000
0001
0010
0100
1000
,
1002
0000
0000
0000
0100
0000
0010
0000
1003
0000
0000
0001
0000
0000
1000
0000
,
0020
0000
0000
0000
0130
0000
0001
0000
0010
0000
0000
0010
0000
0000
0100
0000
,
2100
0000
3001
0100
0102
0000
1003
0010
,
1010
0110
1001
0000
;

//---------------dance-single - ----------------
#NOTES:
     dance-single:
     :
     Easy:
     7:
     0.330155,0.468037,0.198339,0.465666,0.000000,268.000000,245.000000,23.000000,54.000000,0.000000,0.000000,0.330155,0.468037,0.198339,0.465666,0.000000,268.000000,245.000000,23.000000,54.000000,0.000000,0.000000:
0000
0000
0000
0000
,
0000
0000
0000
0000
,
0000
0000
0000
0000
,
0000
0000
0000
0000
,
1000
0000
0001
0000
,
1000
0010
0100
0000
,
0001
0010
0100
0000
,
1000
0010
0100
0000
,
0001
0100
0001
0100
,
0010
0000
0010
0000
,
1000
0100
1000
0100
,
0010
0000
0010
0000
,
0001
1000
0001
1000
,
0100
1000
0100
0000
,
1000
0001
1000
0001
,
0100
0001
0100
0000
,
0001
0100
0010
0000
,
1000
0100
0010
0000
,
0001
1000
0010
0000
,
0100
0100
0010
0010
,
2000
0100
0000
0100
,
0000
0000
3100
0000
1000
0001
1000
0000
,
0002
0100
0000
0100
,
0000
0000
0103
0000
0001
1000
0001
0000
,
2000
0010
0000
0001
,
0000
0000
3100
0000
1000
0001
1000
0000
,
2002
3003
0220
0330
,
1001
0110
2002
3003
,
0001
0000
0100
0000
,
0001
0010
0100
1000
,
0020
0030
0200
0300
,
2002
3003
2002
3003
,
1000
0000
0001
0000
,
1000
0100
0010
0001
,
0200
0300
0020
0030
,
2002
3003
2002
3003
,
1000
0001
0100
0010
,
1000
0100
0010
0001
,
0200
0000
0300
0300
0020
0000
0030
0030
,
2002
3003
2002
3003
,
0001
0010
0100
1000
,
0020
0000
0230
0000
,
0302
0000
0100
0000
,
2003
0000
3100
0010
,
0001
0100
0001
0100
,
0010
1000
0010
1000
,
0002
0000
0000
0000
,
2000
0000
0000
3003
,
2001
0000
0001
0000
3100
0000
1000
0100
,
1000
0000
0100
0010
,
1002
0000
1000
0000
0013
0000
0001
0010
,
0001
0000
0010
0100
,
1000
0000
0100
1000
0100
0000
1000
0100
,
1000
0000
0100
0010
,
0001
0000
0100
0001
0100
0000
0001
0100
,
0001
0000
0100
0010
,
2020
3030
0202
0303
,
1100
0011
2002
3003
,
2000
0000
0000
3010
,
0200
0000
0000
0301
,
0020
0000
0000
0130
,
2000
0000
0000
3000
,
0001
0000
0000
1000
0000
0000
0010
0000
,
0010
0000
0000
1000
0000
0000
0001
0000
,
0001
0000
0000
0010
0000
0000
0100
0000
,
0200
0000
0300
0000
,
1000
0000
0000
0100
0000
0000
0010
0000
,
0000
0001
0000
0000
1000
0000
0000
0010
,
0000
0000
0100
0000
0000
0001
0000
0000
,
0010
0000
0000
0100
0000
0000
1000
0000
,
0020
0000
0000
0000
,
0030
0000
0100
0001
,
2000
0000
3000
0000
,
0001
0010
0100
1000
,
0002
0100
1000
0100
,
1003
0000
0000
0000
0001
0010
0100
0000
,
2000
0100
0001
0100
,
3001
0000
0000
0000
1000
0100
0010
0000
,
0001
0000
0010
0001
0010
0000
0001
0010
,
0001
0000
0000
0000
0010
0100
1000
0000
,
0010
0000
1000
0010
1000
0000
0010
1000
,
0010
0000
0000
0000
1000
0001
0100
0000
,
0202
0303
2020
3030
,
1001
0110
1001
0000
;

//---------------dance-single - ----------------
#NOTES:
     dance-single:
     :
     Beginner:
     3:
     0.151526,0.324026,0.086234,0.000000,0.000000,123.000000,113.000000,10.000000,0.000000,0.000000,0.000000,0.151526,0.324026,0.086234,0.000000,0.000000,123.000000,113.000000,10.000000,0.000000,0.000000,0.000000:
0000
0000
0000
0000
,
0000
0000
0000
0000
,
0000
0000
0000
0000
,
0000
0000
0000
0000
,
0001
0000
0000
0000
,
1000
0000
0000
0000
,
0010
0000
0010
0000
,
0010
0000
0000
0000
,
1000
0000
0000
0000
,
0100
0000
0000
0000
,
0010
0000
0000
0000
,
0001
0000
0001
0000
,
0001
0000
0000
0000
,
1000
0000
0000
0000
,
0010
0000
0010
0000
,
0010
0000
0000
0000
,
1000
0000
0000
0000
,
0001
0000
0000
0000
,
0100
0000
0100
0000
,
0100
0000
0000
0000
,
1001
0000
1000
0000
,
1000
0000
0000
0000
,
0010
0000
0010
0000
,
0010
0000
0000
0000
,
0100
0000
0100
0000
,
0100
0000
0000
0000
,
0001
0000
0001
0000
,
0001
0001
0001
0000
,
1000
0000
0000
0000
,
0010
0000
0000
0000
,
0100
0000
0000
0000
,
0010
0000
0010
0000
,
0010
0000
0000
0000
,
1000
0000
0000
0000
,
0001
0000
0000
0000
,
0010
0000
0010
0000
,
0010
0000
0000
0000
,
0001
0000
0000
0000
,
1000
0000
0000
0000
,
0100
0000
0100
0000
,
0100
0000
0000
0000
,
1000
0000
0000
0000
,
0010
0000
0000
0000
,
0100
0000
0000
0000
,
0001
0000
0001
0000
,
0001
0000
0001
0000
,
0001
0000
0000
0000
,
0000
0000
0000
0000
,
1001
0000
1000
0000
,
1000
0000
0000
0000
,
0010
0000
0010
0000
,
0010
0000
0000
0000
,
0100
0000
0100
0000
,
0100
0000
0000
0000
,
0001
0000
0001
0000
,
0001
0000
0000
0000
,
1001
0000
1001
0000
,
1001
0000
1001
0000
,
1000
0000
0000
0000
,
0010
0000
0000
0000
,
0100
0000
0000
0000
,
0001
0000
0000
0000
,
1000
0000
1000
0000
,
1000
0000
1000
0000
,
1000
0000
1000
0000
,
1000
0000
0000
0000
,
0100
0000
0100
0000
,
0100
0000
0000
0000
,
0010
0000
0010
0000
,
0010
0000
0000
0000
,
0001
0000
0000
0000
,
0000
0000
1000
0000
,
1000
0000
0000
0000
,
0001
0000
0001
0000
,
1001
0000
1000
0000
,
1000
0000
0000
0000
,
0001
0000
0001
0000
,
0001
0000
0000
0000
,
0010
0000
0010
0000
,
0010
0000
0000
0000
,
0100
0000
0100
0000
,
0100
0000
0000
0000
,
1000
0000
0001
0000
,
1001
1001
1001
0000
;

//---------------dance-double - ----------------
#NOTES:
     dance-double:
     :
     Hard:
     14:
     0.728065,0.972077,0.767486,0.543277,0.185404,591.000000,502.000000,89.000000,63.000000,0.000000,0.000000,0.728065,0.972077,0.767486,0.543277,0.185404,591.000000,502.000000,89.000000,63.000000,0.000000,0.000000:
// measure 0
00000000
00000000
00000000
00000000
,  // measure 1
00000000
00000000
00000000
00000000
,  // measure 2
00000000
00000000
00000000
00000000
,  // measure 3
00000000
00000000
00000000
00000000
,  // measure 4
00001000
01000000
00001000
01000000
00001000
00100000
02000000
00000000
,  // measure 5
23000000
30200000
01300000
01010000
,  // measure 6
00020000
00000000
00130000
00000000
00001000
00010000
00000020
00000000
,  // measure 7
00002030
00003302
00000013
00000011
,  // measure 8
00002000
00000000
00003100
00000010
00000200
00000000
00020300
00000000
,  // measure 9
00032000
00000000
01003000
00100000
01000000
00010000
23000000
00000000
,  // measure 10
30010000
00000000
10000000
01000000
00100000
00010000
01000000
00010000
,  // measure 11
00200000
00030000
00301000
00010000
00001000
00010000
00000200
00000000
,  // measure 12
00002300
00000000
00003010
00000001
00000010
00000000
00002000
00000000
,  // measure 13
00003100
00000001
00000100
00000000
00020000
00000000
00032000
00000000
,  // measure 14
01003000
00100000
01000000
00100000
10000000
00000000
00010000
00100000
,  // measure 15
01000000
00000000
10000000
00100000
01000000
00000000
01010000
00000000
,  // measure 16
20000000
00000000
31000000
03100000
00002000
00000000
00103000
00010000
,  // measure 17
02000000
00000000
03100000
00010000
00100000
00010000
00002000
00000000
,  // measure 18
00003100
00000000
00000101
00000000
00001000
00000100
00000010
00000001
,  // measure 19
00000101
00000110
00001010
00001100
,  // measure 20
00020100
00000000
00100000
00001000
00000100
00000000
00100000
00001000
,  // measure 21
00030100
00000000
00010000
00001000
00100000
00010000
10000000
00001000
,  // measure 22
00102000
00000000
00000100
00010000
00100000
00000000
00000100
00010000
,  // measure 23
00103000
00000000
00001000
00010000
00000100
00001000
00000001
00000100
,  // measure 24
00002001
00000000
00003100
00010100
00020100
00000000
00031000
01001000
,  // measure 25
02001000
00000000
03010000
00100000
01100000
01000000
11000000
10000000
,  // measure 26
10020000
00000000
00130000
00100000
00021000
00000000
00030010
00000010
,  // measure 27
00001001
00000000
00000001
00000100
00000010
00000100
00000001
00001000
00000100
00000000
00000100
00000000
00001000
00000010
00000000
00000010
,  // measure 28
00010000
00001000
00000000
00101000
00000000
00110000
00000000
00100000
,  // measure 29
00010000
01000000
00000000
01010000
00000000
10100000
00000000
10000000
,  // measure 30
00100000
01000000
00000000
00010000
00100000
00001000
00000000
00010000
,  // measure 31
00000020
00000100
00000230
00000001
,  // measure 32
00000301
00001000
00000000
00001100
00000000
00010100
00000000
00010000
,  // measure 33
00001000
00100000
00000000
00101000
00000000
00110000
00000000
00100000
,  // measure 34
00010000
01000000
00000000
00010000
10000000
00100000
00000000
10000000
,  // measure 35
00020000
00100000
20030000
01000000
,  // measure 36
30010000
00100000
00000000
00110000
00000000
00011000
00000000
00001010
,  // measure 37
00000000
00001100
00000000
00011000
00000000
00110000
00000000
00010000
,  // measure 38
10000000
00100000
00000000
01000000
00010000
00100000
00000000
00001000
,  // measure 39
00010000
00001000
00000000
00010000
00000200
00000000
00000310
00000000
,  // measure 40
00000002
00000203
00002300
00023300
,  // measure 41
00230000
20300000
32000000
03020000
,  // measure 42
00032000
00000000
00103000
00000000
00001000
00010000
00001000
00000000
,  // measure 43
00010000
00000000
00010010
00000000
00000010
00000100
00000010
00000100
,  // measure 44
00000001
00000000
00000101
00000000
00000100
00000010
00001000
00000100
,  // measure 45
00010000
00000000
00001000
00100000
01000000
00100000
00010000
01000000
,  // measure 46
00200000
00000000
00000000
00000000
,  // measure 47
02000000
00000000
00000000
03300000
,  // measure 48
10010000
00000000
00000000
10000000
01000000
00000000
00100000
00000000
00110000
00000000
00000000
00010000
01000000
00000000
00001000
00000000
,  // measure 49
00011000
00000000
00000000
00010000
00000100
00000000
00000010
00000000
00000011
00000000
00000110
00000000
00001100
00000000
00001010
00000000
,  // measure 50
00001001
00000000
00000000
00000001
00000100
00000000
00000010
00000000
00001010
00000000
00000000
00001000
00000100
00000000
00010000
00000000
,  // measure 51
00011000
00000000
00000000
00001000
01000000
00000000
00010000
10000000
00010000
00100000
00000000
00100000
00000000
01000000
10000000
00000000
,  // measure 52
11000000
00000000
01000000
00100000
00010000
00000000
01000000
00000000
01010000
00000000
01000000
00100000
10000000
00000000
00010000
00000000
,  // measure 53
10010000
00000000
00010000
00100000
00110000
00011000
00001100
00000110
,  // measure 54
00001001
00000000
00001000
00000100
00000010
00000000
00000001
00000000
00000101
00000000
00000100
00000010
00001000
00000000
00000001
00000000
,  // measure 55
00001001
00000000
00000000
00000000
00001000
00000000
00000001
00000100
00000001
00000010
00000000
00000010
00000000
00000100
00001000
00000000
,  // measure 56
00002200
00003300
00220000
00330000
,  // measure 57
00010010
00000000
00030030
00000000
01001000
00000000
03003000
00000000
00011000
00000000
00033000
00000000
00010000
00001000
00000000
00001000
,  // measure 58
00200000
00000000
00310000
10000000
01000000
10000000
00200000
00000000
,  // measure 59
02300000
00000000
03010000
10000000
00010000
00100000
00002000
00000000
,  // measure 60
00023000
00000000
00030010
00000100
00000010
00001000
00000200
00000000
,  // measure 61
00000320
00000000
00000031
00000000
00001000
00000010
00000100
00000000
,  // measure 62
00000001
00000100
00000001
00001000
00000100
00001000
00000010
00010000
,  // measure 63
00001000
00100000
00001000
00010000
00000010
00010000
00001000
01000000
,  // measure 64
00010000
00100000
00010000
10000000
00100000
10000000
00010000
01000000
,  // measure 65
00200000
00000000
10300000
00000000
30010000
10000000
00010000
00000000
,  // measure 66
10000000
01000000
00010000
00001000
00020000
00000000
00031000
00000100
,  // measure 67
00000010
00001000
00000001
00000000
00000001
00000010
00001000
00010000
,  // measure 68
00002000
00000000
00013000
00100000
01000000
00010000
10000000
00000000
,  // measure 69
00010000
00100000
10000000
00100000
00010000
01000000
00100000
10000000
,  // measure 70
00020000
01000000
10000000
00130000
,  // measure 71
00010000
00000000
10000000
01000000
00100000
00010000
00001000
00000100
,  // measure 72
00000020
00000000
00000031
00001000
00000010
00000100
00000010
00000100
,  // measure 73
00000101
00001010
00010100
00101000
,  // measure 74
00011000
00000000
00010000
00100000
10300000
00000000
00010000
00000000
10010000
00000000
10000000
01000000
00100000
00000000
00010000
00000000
,  // measure 75
01010000
00000000
10010000
00010000
00110000
00100000
00101000
00001000
,  // measure 76
00011000
00000000
00001000
00000100
00000301
00000000
00001000
00000000
00001001
00000000
00000001
00000010
00000100
00000000
00001000
00000000
,  // measure 77
00001010
00000000
00000000
00000000
00000001
00000000
00001000
00000100
00001000
00000010
00000000
00000010
00000000
00000100
00000001
00000000
,  // measure 78
00000101
00000000
00000001
00000100
00001000
00000000
00010000
00000000
00011000
00000000
00001000
00010000
01000000
00000000
10000000
00000000
,  // measure 79
11000000
00000000
00000000
10000000
00010000
00000000
10000000
00000000
10100000
00000000
01100000
00000000
01010000
00000000
10010000
00000000
,  // measure 80
10100000
00000000
10000000
00100000
00010000
00000000
00001000
00000000
00011000
00000000
00010000
00001000
00000010
00000000
00000001
00000000
,  // measure 81
00000011
00000000
00000000
00000001
00001000
00000000
00000001
00000100
00000001
00000010
00000000
00000010
00000000
00000100
00010000
00000000
,  // measure 82
00020100
00000000
00031000
00010000
00201000
00000000
00310000
00100000
,  // measure 83
10010000
00011000
00001001
00000000
;

//---------------dance-double - ----------------
#NOTES:
     dance-double:
     :
     Medium:
     11:
     0.528494,0.684054,0.448419,0.500160,0.051741,429.000000,377.000000,52.000000,58.000000,0.000000,0.000000,0.528494,0.684054,0.448419,0.500160,0.051741,429.000000,377.000000,52.000000,58.000000,0.000000,0.000000:
00000000
00000000
00000000
00000000
,
00000000
00000000
00000000
00000000
,
00000000
00000000
00000000
00000000
,
00000000
00000000
00000000
00000000
,
00010000
00001000
00010000
00001000
,
00000010
00000000
00000001
00000000
00002000
00000300
00003000
00000000
,
00000001
00000000
00000100
00000000
00000010
00001000
00000010
00000000
,
00001000
00000100
00020000
00030000
,
00001000
00000000
00100000
00010000
00100000
00000000
00010000
00000000
,
01000000
00000000
00010000
10000000
00020000
00000000
00030000
00000000
,
10000000
00100000
01000000
00001000
,
00011000
00011000
00011000
00011000
,
00020000
00000000
00030100
00000010
00000100
00000000
00020000
00000000
,
00030100
00000010
00000100
00000000
00000020
00000000
00000032
00000000
,
00001003
00000000
00000001
00000100
00000001
00000000
00000100
00000000
,
00000010
00000000
00001000
00000100
00001000
00000000
00000200
00003000
,
00000300
00000000
00010000
00001000
00010000
00000000
00001000
00100000
,
00001000
00000000
00100000
00000000
00010000
10000000
00020000
00000000
,
00030000
00000000
10000000
00000000
00010000
01000000
00010000
00000000
,
01010000
01010000
00011000
00011000
,
00010200
00000000
00000310
00000100
00002000
00000000
00003010
00000100
,
00000002
00000000
00000103
00000010
00001000
00000100
00010000
00001000
,
00201000
00000000
01300000
00100000
00020000
00000000
01030000
00100000
,
20000000
00000000
30100000
01000000
00010000
00100000
00001000
00010000
,
00021000
00000000
00000100
00000100
00000100
00000000
00001000
00001000
,
00031000
00000000
00010000
00000100
00000010
00000100
00010000
00001000
,
00012000
00000000
01000000
01000000
01000000
00000000
00100000
00100000
,
00103000
00001000
00022000
00033000
,
00010000
00001000
00000000
00100000
00000000
00010000
00000000
10000000
,
01000000
10000000
00000000
00010000
00000000
00100000
00000000
00001000
,
00010000
00001000
00000000
00010000
00000000
00000010
00000000
00001000
,
00000002
00000000
00002003
00000000
,
00003001
00000100
00000000
00000010
00000000
00001000
00000000
00000100
,
00010000
00000100
00000000
00010000
00000000
00001000
00000000
00100000
,
00010000
00100000
00000000
00010000
00000000
10000000
00000000
00100000
,
02000000
00000000
03020000
00000000
,
10030000
01000000
00000000
00100000
00000000
00010000
00000000
00001000
,
00000000
00000100
00000000
00000010
00000000
00000001
00000000
00001000
,
00000010
00001000
00000000
00000001
00000100
00000001
00000000
00001000
,
00000200
00000000
00020300
00000000
,
00031000
00100000
01000000
10000000
,
00100000
01000000
00010000
00000000
,
02010000
00000000
03001000
00010000
,
00010200
00000000
00000000
00000000
00001300
00000001
00001000
00000001
,
00001000
00000000
00000001
00000000
00000100
00000010
00000100
00000000
,
00000001
00000000
00001000
00000000
00000100
00010000
00000100
00010000
,
00002000
00000000
00000000
00000000
,
00020000
00000000
00000000
00033000
,
00101000
00000000
00000000
00100000
00000000
00000000
00010000
00000000
01010000
00000000
00000000
01000000
00000000
00000000
00100000
00000000
,
20100000
00000000
30010000
00100000
00010000
00100000
00001000
00010000
,
00010100
00000000
00000000
00000100
00000000
00000000
00001000
00000000
00001010
00000000
00000000
00000010
00000000
00000000
00000100
00000000
,
00000102
00000000
00000000
00000000
00001003
00000000
00000100
00000000
00010000
00000000
00000000
00001000
00000000
00000000
00000000
00000000
,
00021000
00000000
00000100
00001000
00000100
00000000
00000100
00001000
,
00030100
00000000
00010000
00000100
00010000
00001000
00100000
00001000
,
00012000
00000000
00100000
00010000
00100000
00000000
00100000
00010000
,
00103000
00000000
00000000
00000000
00001000
00000000
00100000
00000000
00001000
00000000
00000000
00010000
00000000
00000000
00000100
00000000
,
00020200
00030300
00202000
00303000
,
00011000
00011000
00011000
00000000
,
10000000
10200000
00000000
01300000
,
00010000
00210000
00000000
00301000
,
00010000
00010200
00000000
00001300
,
00000010
00000210
00000000
00000301
,
00001000
00000000
00001000
00000100
00000000
00000100
00010000
00000000
,
00001000
00000000
00001000
00100000
00000000
00100000
00010000
00000000
,
10000000
00000000
10000000
00100000
00000000
00100000
01000000
00000000
,
00020000
10030000
20020000
30030000
,
10000000
01000000
00000000
10000000
01000000
00000000
00100000
00010000
,
00000000
00100000
00010000
00000000
00001000
00000100
00000000
00001000
,
00000100
00000000
00000010
00000001
00000000
00000010
00000001
00000000
,
00001000
00000010
00000000
00001000
00000010
00000000
00000100
00000000
,
00000102
00001000
00000000
00000010
,
00000000
00000000
00001003
00000000
00000103
00010000
00001000
00000000
,
00201000
00000000
00310000
00000000
01030000
00001000
00010000
00000000
,
00011000
00011000
00011000
00011000
,
00201000
00000000
00310000
01000000
02010000
00000000
03100000
10000000
,
20100000
00000000
30010000
00100000
00001000
00001000
00010000
00010000
,
00010200
00000000
00001300
00000010
00001020
00000000
00000130
00000001
,
00000102
00000000
00000000
00000000
00001003
00000000
00000100
00000000
00010000
00001000
00000000
00001000
00000000
00001000
00010000
00000000
,
00021000
00000000
00000010
00000100
00001000
00000000
00000010
00000100
,
00031000
00000000
00010000
00001000
00100000
00001000
00010000
00001000
,
00012000
00000000
01000000
00100000
00010000
00000000
01000000
00100000
,
00013000
00000000
00000000
00000000
00001000
00000000
00010000
00000000
00000100
00010000
00000000
00010000
00000000
00010000
00001000
00000000
,
00202000
00303000
00020020
00030030
,
00011000
00011000
00011000
00000000
;

//---------------dance-double - ----------------
#NOTES:
     dance-double:
     :
     Easy:
     7:
     0.291965,0.432034,0.215586,0.224209,0.000000,237.000000,212.000000,25.000000,26.000000,0.000000,0.000000,0.291965,0.432034,0.215586,0.224209,0.000000,237.000000,212.000000,25.000000,26.000000,0.000000,0.000000:
00000000
00000000
00000000
00000000
,
00000000
00000000
00000000
00000000
,
00000000
00000000
00000000
00000000
,
00000000
00000000
00000000
00000000
,
00010000
00000000
00001000
00000000
,
00100000
00010000
00100000
00000000
,
00001000
00000000
00010000
00000000
,
00000010
00001000
00000010
00000000
,
00010000
00001000
00010000
00000000
,
00001000
00010000
00001000
00000000
,
00100000
00000000
01000000
00000000
,
10000000
00010000
10000000
00000000
,
00010000
01000000
00100000
00000000
,
10000000
01000000
00100000
00000000
,
00001000
00000000
00010000
00000000
,
00000100
00000010
00000001
00000000
,
00001000
00000010
00000100
00000000
,
00000001
00000010
00000100
00000000
,
00010000
00000000
00001000
00000000
,
00100000
00010000
10000000
00100000
,
02000000
00100000
00100000
00100000
,
03100000
00000000
01000000
00001000
,
00020000
00000100
00000100
00000100
,
00030100
00000000
00010000
00000100
,
00000020
00000001
00000001
00000001
,
00000031
00000000
00000001
00001000
,
00002002
00003003
00000220
00000330
,
00001001
00000110
00002002
00003003
,
00000001
00000000
00000100
00000000
,
00000010
00000000
00010000
00000000
,
00001000
00000000
00100000
00000000
,
10010000
00000000
10010000
00000000
,
10000000
00000000
00010000
00000000
,
00100000
00000000
00001000
00000000
,
00010000
00000000
00000010
00000000
,
00001001
00000000
00001001
00000000
,
00000001
00000000
00001000
00000000
,
00000100
00000000
00010000
00000000
,
00001000
00000000
01000000
00000000
,
10010000
00000000
10010000
00000000
,
00010000
00100000
00010000
00100000
,
00001000
00000000
00010000
00000000
,
00000020
00000000
00000000
00000000
,
00000230
00000000
00000000
00000000
,
00000301
00001000
00000001
00001000
,
00000200
00000000
00020300
00000000
,
00032000
00000000
00000000
00000000
,
00020000
00000000
00000000
00033000
,
00011000
00000000
00001000
00100000
,
00010000
10000000
00100000
01000000
,
10010000
00000000
00010000
00100000
,
00001000
00010000
00000010
00000000
,
00001001
00000000
00000001
00001000
,
00000010
00000010
00010000
00000000
,
00011000
00000000
00001000
00100000
,
00010000
00010000
10000000
00000000
,
10010000
00000000
01100000
00000000
,
10010000
01100000
10010000
00000000
,
20000000
00000000
00000000
31000000
,
00200000
00000000
00000000
00301000
,
00020000
00000000
00000000
00030010
,
00000200
00000000
00000000
00000000
,
00000301
00000000
00000000
00000001
00000000
00000000
00000001
00000000
,
00001000
00000000
00000000
00001000
00000000
00000000
00001000
00000000
,
00000100
00000000
00000000
00000100
00000000
00000000
00000100
00000000
,
00020000
00000000
00000000
00000000
,
00031000
00000000
00000000
00100000
00000000
00000000
00001000
00000000
,
00000000
00010000
00000000
00000000
00000010
00000000
00000000
00010000
,
00000000
00000000
00001000
00000000
00000000
01000000
00000000
00000000
,
00001000
00000000
00000000
00010000
00000000
00000000
00000100
00000000
,
00020000
00000000
00031000
00000000
,
00001000
00000000
00100000
00010000
,
02000000
00000000
03100000
00000000
,
10000000
00010000
10000000
00010000
,
20000000
01000000
00010000
01000000
,
30010000
00000000
00010000
00100000
,
00002000
00010000
01000000
00010000
,
01003000
00000000
00001000
00010000
,
00000200
00001000
00010000
00001000
,
00010300
00000000
00000100
00001000
,
00000002
00000100
00001000
00000100
,
00001003
00000000
00000001
00001000
,
00001001
00000000
00011000
00000000
,
10010000
01100000
10010000
00000000
;
