#TITLE:Dawn Saga;
#SUBTITLE:;
#ARTIST:Nhato;
#TITLETRANSLIT:;
#SUBTITLETRANSLIT:;
#ARTISTTRANSLIT:;
#GENRE:Celtic Trance Step;
#CREDIT:;
#BANNER:Dawn Saga.png;
#BACKGROUND:Dawn Saga-background.png;
#LYRICSPATH:;
#CDTITLE:yosefu_cdtitle_v2.png;
#MUSIC:Dawn Saga.ogg;
#OFFSET:0.000000;
#SAMPLESTART:86.932922;
#SAMPLELENGTH:20.756760;
#SELECTABLE:YES;
#BPMS:0.000000=185.000000
;
#STOPS:
;
#BGCHANGES:0.000=Dawn Saga-bga.avi=1.000=0=0=1=====,
99999=-nosongbg-=1.000=0=0=0 // don't automatically add -songbackground-
;
#KEYSOUNDS:;
#ATTACKS:;

//---------------dance-single - ----------------
#NOTES:
     dance-single:
     :
     Easy:
     6:
     0.258427,0.404196,0.088834,0.500703,0.008076,224.000000,213.000000,11.000000,62.000000,0.000000,0.000000,0.258427,0.404196,0.088834,0.500703,0.008076,224.000000,213.000000,11.000000,62.000000,0.000000,0.000000:
0000
0000
0000
0000
,
0000
0000
0000
0000
,
0000
0000
0000
0000
,
0000
0000
0000
0000
,
0000
0000
0000
0000
,
0000
0000
0000
0000
,
0000
0000
0000
0000
,
0000
0000
0000
0000
,
0000
0000
0000
0000
,
2000
0000
3002
0000
,
0203
0000
0000
0310
,
2000
0000
3002
0000
,
0023
0000
0230
0000
,
1300
0001
0200
0000
,
0310
1000
0001
0010
,
0200
0000
0000
0000
,
2300
0000
0000
0000
,
3001
0100
0010
0100
,
0001
0000
0000
0000
1000
0000
0000
0000
0100
0000
0000
0000
,
0010
0001
1000
0001
,
0010
0000
1001
0000
,
0001
0000
1000
0100
,
0010
0000
0001
0100
,
0010
0000
1001
0000
,
1000
0100
0010
0100
,
1000
0000
0001
0100
,
0010
0000
1000
0100
,
0010
0100
1000
0001
,
0100
0010
2000
0000
,
3002
0000
0203
0000
,
0302
0000
1003
0000
,
0002
0000
0203
0000
,
0320
0000
1030
0000
,
0001
0000
1000
0100
,
0010
0000
0100
0001
,
0100
1000
0001
0100
,
0010
1000
0001
0010
,
0100
0000
1100
0000
,
1000
0000
1001
0000
,
0001
0000
0101
0000
,
0100
0000
2002
0000
,
3003
0000
1010
0000
,
0010
0000
0110
0000
,
0100
0000
0001
1000
,
0001
0010
0100
1001
,
2000
0000
0000
0000
,
0000
0000
0000
0000
,
0000
0000
0000
0000
,
3002
0000
0000
0000
,
2003
0000
3200
0000
,
2300
0000
0000
3001
,
0200
0000
0320
2030
,
3002
0000
0000
0023
,
0230
1300
0002
0000
,
0000
0103
0010
1000
,
0002
0000
0000
1003
,
0002
0000
0000
0000
,
2003
0000
3200
0000
,
2300
0000
0000
3001
,
0200
0000
0310
1000
,
0002
0000
0013
0100
,
1000
0001
0200
0000
,
0000
0310
1000
0001
,
0020
0000
0000
0000
,
0230
0000
0000
0000
,
1300
0001
0100
0001
,
1000
0100
2001
0000
,
3001
0000
0100
0001
,
1000
0000
0000
0000
0001
1000
0001
0000
,
1000
0000
0100
0010
,
0001
1000
0010
0100
,
0001
0000
1000
0100
,
0010
0000
0100
1000
,
0001
0000
0000
0000
1000
0001
1000
0000
,
0010
0100
0001
1000
,
0002
0000
0203
0000
,
0302
0000
0000
0000
1003
0001
1000
0000
,
0200
0000
0320
0032
,
2003
0000
3010
0100
,
0002
0000
2003
0000
,
3100
0000
0010
0001
0010
0000
0100
0000
,
2000
0000
0000
0000
3001
1000
0001
1000
,
0001
0000
0101
0000
,
0200
0000
0302
0000
,
0203
0000
0000
0310
,
2000
0000
3200
0302
,
0203
0000
1300
0001
,
0100
0010
2000
0000
,
0000
3001
0010
0100
,
2000
0000
0000
0000
,
3020
0000
0000
0000
,
0130
0000
0000
0000
;

//---------------dance-single - ----------------
#NOTES:
     dance-single:
     The Start of a New Adventure:
     Challenge:
     16:
     0.684140,0.918628,0.104986,0.379565,0.924685,593.000000,580.000000,13.000000,47.000000,0.000000,0.000000,0.684140,0.918628,0.104986,0.379565,0.924685,593.000000,580.000000,13.000000,47.000000,0.000000,0.000000:
0000
0000
0000
0000
,
0000
0000
0000
0000
,
0000
0000
0000
0000
,
0000
0000
0000
0000
,
0000
0000
0000
0000
,
0000
0000
0000
0000
,
0000
0000
0000
0000
,
0000
0000
0000
0000
,
0000
0000
0000
0000
,
1000
0000
0001
0000
0101
0000
0100
0001
,
1000
0001
0100
0000
0001
1000
0100
1000
,
0001
0000
1000
0000
1010
0000
0010
1000
,
0001
0000
0010
0000
0100
0000
1000
0001
1000
0001
0100
0000
0001
1000
0001
1000
,
0100
0010
0002
0000
2003
0000
3001
0100
,
0010
0100
0001
0000
1000
0100
0020
0000
,
0031
0000
1000
0000
1010
0000
0010
0100
,
0001
0000
0000
0000
1000
0000
0100
1000
0001
0000
0100
0000
0001
1000
0100
0000
,
0010
0001
1000
0010
,
1000
0000
0100
0000
0001
0000
0100
0000
1000
0000
0001
0000
,
0100
0010
1000
0001
0010
0100
1000
0100
0010
0001
1000
0010
,
0200
0000
0000
0300
1001
0000
0000
0000
,
0001
0100
0001
0100
0000
0000
0010
1000
0001
1000
0010
0100
,
0001
1000
0100
0010
0000
0000
0001
0010
0100
1000
0001
0100
,
0010
1000
0001
0010
0000
0000
0110
0000
0000
0000
0000
0000
,
0100
1000
0100
0010
0001
1000
0010
0100
0001
0010
0100
1000
,
0010
0100
0001
1000
0000
0000
0100
0010
0001
1000
0010
0100
,
0001
1000
0100
1000
0000
0000
0001
0100
0010
1000
0100
0010
,
0001
1000
0010
0100
0001
1000
0100
0010
0100
1000
0001
0100
,
0010
0100
0001
1000
0100
0010
0001
0000
0100
0010
1000
0100
,
0010
0001
1000
0010
0000
0000
0100
0001
0010
0100
0010
0001
,
0100
0010
1000
0001
0000
0000
0010
0100
0010
0001
0100
0010
,
1000
0001
0010
0100
0000
0000
0110
0000
0000
0000
0000
0000
,
0010
0001
0010
0100
1000
0010
0100
0001
0010
0100
1000
0010
,
0001
0010
1000
0001
0000
0000
0010
1000
0010
0100
1000
0001
,
0100
1000
0100
0010
0000
0000
1000
0001
0010
0100
1000
0010
,
0100
1000
0100
0001
1000
0100
0010
0001
1000
0010
0100
0001
,
0010
0100
1000
0010
0100
0001
1000
0100
0010
0001
0100
0010
,
2000
0000
0000
0000
3000
0000
0011
0000
0001
0000
0001
0000
,
1000
0000
0010
0000
0010
0000
0110
0000
0100
0000
0001
0000
,
0020
0000
0000
0000
0000
0000
1030
0010
0100
1000
0001
0100
,
0010
0000
0010
0000
0010
0000
1002
0000
0000
0000
0000
0000
,
0203
0000
0000
0000
0000
0000
0000
0000
0000
0300
0000
0000
1010
0000
0000
0000
1000
0000
0000
0000
1000
0000
0000
0000
,
0001
0000
0010
0000
0010
0000
0110
0000
0100
0000
1000
0000
,
0020
0000
0000
0000
0000
0000
0031
0010
0100
0001
0010
0100
,
1000
0100
1000
0001
0100
0001
0100
0010
1000
1010
0000
0000
,
0020
0000
0000
0000
,
0000
0000
0000
0000
,
1030
0000
0100
0000
0110
0000
0010
0001
,
2000
0000
0000
0000
,
3020
0000
0000
1030
0020
0000
0000
0130
,
0020
0000
0000
0000
0000
0000
1030
0001
,
0020
0000
0000
0031
0020
0000
2030
0000
,
3020
0000
0001
0230
,
2300
0000
3010
0100
0002
0000
1000
0000
,
0000
0000
0013
0100
1000
0001
0200
0000
,
0320
0000
0000
0000
0000
0000
1030
0001
,
0010
0000
0001
0000
1000
0000
0001
1000
0001
1000
0100
0000
1000
0001
1000
0001
,
0100
0000
0000
0001
0000
0000
0100
0000
0000
0001
0000
0000
1000
0000
0100
0000
,
0010
0000
0000
0001
0000
0000
0010
0000
0001
0000
0000
0000
1000
0000
0010
0000
,
0001
0000
0000
0010
0000
0000
0100
0000
0000
0001
0000
0000
1000
0000
0100
0000
,
0010
0000
0000
0100
0000
0000
1000
0000
0010
0000
0100
0000
0001
0000
1000
0000
,
0100
0000
0000
0010
0000
0000
0100
0000
0000
1000
0000
0000
0001
0000
0100
0000
,
0010
0000
0000
1000
0000
0000
0001
0000
0010
0000
0000
0000
0100
0000
1000
0000
,
0001
0000
0000
0100
0000
0000
0010
0000
0000
0100
0000
0000
0001
0000
1000
0000
,
0100
0000
0010
0001
0000
0000
1000
0000
0010
0100
0000
0000
0001
1000
0001
1000
,
0001
0000
1000
0100
0000
0010
0001
0000
0100
0010
0000
1000
0010
0000
0100
0001
,
0000
0010
1000
0000
0010
0001
0000
1000
0002
0000
0000
0000
0000
0000
0000
0000
,
1003
0000
0010
1000
0000
0001
1000
0000
0001
0010
0000
0001
1000
0001
0100
0000
,
0010
0000
1000
0001
0000
0010
0001
0000
1000
0010
0100
0001
0010
0100
1000
0001
,
0100
0000
1000
0100
0000
0010
0100
0000
0001
1000
0000
0100
0010
0001
1000
0000
,
0010
0000
0100
0001
1000
0000
0100
0000
0010
0001
1000
0000
0010
0100
0001
0010
,
0100
0000
1000
0001
0000
0100
0001
0000
1000
0100
0000
0010
0001
1000
0010
0000
,
0100
0000
0001
1000
0000
0001
0010
0000
0100
0000
0000
1000
0001
0100
0010
1000
,
0100
0000
0010
0001
0000
1000
0010
0000
1000
0100
0001
0100
0010
0001
1000
0010
,
0100
0000
1000
0100
0000
0000
0001
0000
0010
1000
0000
0010
0001
1000
0010
0100
,
0002
0000
0000
0013
0002
0000
0000
0103
,
0002
0000
0000
0000
0000
0000
0000
0000
1003
0010
0001
0010
0100
0001
1000
0100
,
0020
0000
0000
0031
0020
0000
2030
0000
,
3020
0000
0000
0000
0130
1000
0010
0100
,
0002
0000
0013
0100
2000
0000
0000
0000
,
3100
0001
0100
1000
0001
0100
0020
1030
,
0002
0000
0000
0000
0000
0000
0000
0000
0103
1000
0100
0001
1000
0100
0001
0100
,
1000
0001
0100
0010
1000
0100
0010
0001
0100
0001
0000
0000
,
0020
0000
0000
0031
0020
0000
0000
0130
,
0020
0000
0000
0000
0100
0000
0031
1000
,
0020
0000
0000
0130
0020
0000
0032
0000
,
0023
0000
0000
0000
1030
0001
0020
0000
,
0130
1000
0020
0000
0230
0000
0000
0000
,
0000
0310
0100
1000
0100
0001
1000
0000
,
0200
0000
0000
0000
0000
0000
0000
0000
0000
0000
0000
1300
,
0020
0000
0000
0000
,
1030
0000
0000
0000
;

//---------------dance-single - ----------------
#NOTES:
     dance-single:
     :
     Beginner:
     4:
     0.160363,0.257216,0.048455,0.032303,0.000000,139.000000,133.000000,6.000000,4.000000,0.000000,0.000000,0.160363,0.257216,0.048455,0.032303,0.000000,139.000000,133.000000,6.000000,4.000000,0.000000,0.000000:
0000
0000
0000
0000
,
0000
0000
0000
0000
,
0000
0000
0000
0000
,
0000
0000
0000
0000
,
0000
0000
0000
0000
,
0000
0000
0000
0000
,
0000
0000
0000
0000
,
0000
0000
0000
0000
,
0000
0000
0000
0000
,
1000
0000
0000
0000
,
0001
0000
0000
0000
,
1000
0000
0000
0000
,
0010
0000
0010
0000
,
1000
0000
0000
0000
,
0001
0000
0000
0000
,
0010
0000
0000
0000
,
0001
0000
0001
0000
,
1000
0000
0000
0000
,
0001
0000
0000
0000
,
1000
0000
0000
0000
,
0001
0000
1001
0000
,
1000
0000
1000
0000
,
0010
0000
0010
0000
,
0100
0000
0100
0000
,
0001
0000
0001
0000
,
1000
0000
1000
0000
,
0100
0000
0100
0000
,
0010
0000
0010
0000
,
0001
0000
0001
0000
,
1000
0000
1000
0000
,
0010
0000
0000
0000
,
0100
0000
0100
0000
,
0001
0000
0000
0000
,
1000
0000
1000
0000
,
0010
0000
0010
0000
,
0100
0000
0100
0000
,
0001
0000
0001
0000
,
1000
0000
0001
0000
,
1000
0000
0001
0000
,
0100
0000
0010
0000
,
0100
0000
0020
0030
,
1000
0000
0001
0000
,
1000
0000
0001
0000
,
0010
0000
0100
0000
,
0010
0000
0100
0000
,
2002
0000
0000
0000
,
0000
0000
0000
0000
,
3003
0000
0000
0000
,
0002
0000
0003
0000
,
1000
0000
0000
0000
,
0001
0000
0000
0000
,
0100
0000
0000
0000
,
0010
0000
0000
0000
,
1000
0000
0000
0000
,
0100
0000
0000
0000
,
0010
0000
0000
0000
,
0001
0000
0001
0000
,
1000
0000
0000
0000
,
0010
0000
0010
0000
,
0100
0000
0000
0000
,
0001
0000
0001
0000
,
1000
0000
0000
0000
,
0100
0000
0100
0000
,
0010
0000
0000
0000
,
0001
0000
0001
0000
,
1000
0000
0001
0000
,
1000
0000
1001
0000
,
0001
0000
0100
0000
,
0010
0000
0100
0100
,
0001
0000
1000
0000
,
0100
0000
0010
0000
,
0100
0000
1000
0000
,
0001
0000
0100
0000
,
0010
0000
1000
1000
,
0001
0000
1001
0000
,
1000
0000
0100
0000
,
1000
0000
0001
0001
,
0100
0000
0010
0000
,
1000
0000
0001
0000
,
0010
0000
0100
0000
,
1000
0000
0001
0000
,
0100
0000
0010
0010
,
1000
0000
1001
0000
,
0001
0000
0000
0000
,
0010
0000
0000
0000
,
0100
0000
0000
0000
,
1000
0000
0000
0000
,
0001
0000
0000
0000
,
0100
0000
0000
0000
,
0010
0000
0000
0000
,
1000
0000
0000
0000
,
1001
0000
0000
0000
;

//---------------dance-single - ----------------
#NOTES:
     dance-single:
     :
     Medium:
     10:
     0.366874,0.514432,0.048455,0.565309,0.266503,318.000000,312.000000,6.000000,70.000000,0.000000,0.000000,0.366874,0.514432,0.048455,0.565309,0.266503,318.000000,312.000000,6.000000,70.000000,0.000000,0.000000:
// measure 0
0000
0000
0000
0000
,  // measure 1
0000
0000
0000
0000
,  // measure 2
0000
0000
0000
0000
,  // measure 3
0000
0000
0000
0000
,  // measure 4
0000
0000
0000
0000
,  // measure 5
0000
0000
0000
0000
,  // measure 6
0000
0000
0000
0000
,  // measure 7
0000
0000
0000
0000
,  // measure 8
0000
0000
0000
0000
,  // measure 9
2000
0000
0000
3010
2000
0000
0000
3010
,  // measure 10
2000
0000
0000
0000
0000
0000
3001
1000
,  // measure 11
0020
0000
0000
0130
0020
0000
0230
0000
,  // measure 12
0302
0000
0000
0000
1003
0100
0010
0000
,  // measure 13
0001
0100
0020
0000
2030
0000
0000
0000
,  // measure 14
0000
3100
0010
0000
0001
1000
0010
0000
,  // measure 15
0200
0000
0000
0000
,  // measure 16
0302
0000
0000
0000
,  // measure 17
1003
0100
0010
0001
,  // measure 18
1000
0000
0010
0000
0100
0000
0001
0000
1000
0000
0100
0000
,  // measure 19
0010
0000
0001
0000
1000
0000
0010
0000
0100
0000
0001
0000
,  // measure 20
1000
0000
1001
0000
,  // measure 21
1000
0000
0000
0000
0000
0000
0100
0000
0010
0000
0001
0000
,  // measure 22
1000
0000
0000
0000
0000
0000
0010
0000
0100
0000
0001
0000
,  // measure 23
1000
0000
1010
0000
,  // measure 24
0010
0000
0100
0000
0010
0000
1000
0000
0001
0000
0010
0000
,  // measure 25
0100
0000
0000
0000
0000
0000
1000
0000
0001
0000
0100
0000
,  // measure 26
0010
0000
0000
0000
0000
0000
1000
0000
0001
0000
0010
0000
,  // measure 27
0100
0000
1000
0000
0100
0000
0010
0000
0001
0000
0100
0000
,  // measure 28
0010
0000
1000
0000
0001
0000
0010
0000
0000
0000
0100
0000
,  // measure 29
2000
0000
0000
0000
3001
0000
2000
0000
0000
0000
3010
0000
,  // measure 30
2000
0000
0000
0000
0000
0000
0000
0000
3001
0000
0010
0000
,  // measure 31
0200
0000
0000
0000
1300
0000
0200
0000
0000
0000
0310
0000
,  // measure 32
0002
0000
0000
0000
0000
0000
0000
0000
0000
0003
0100
0000
,  // measure 33
0020
0000
0000
0000
1030
0001
0020
0000
0000
0000
0000
0000
,  // measure 34
0000
0000
0000
0000
0130
1000
0001
0000
0100
0000
0010
0000
,  // measure 35
2000
0000
0000
0000
0000
0000
0000
0000
0000
0000
3001
0010
,  // measure 36
0100
0000
1000
0000
0001
0000
0100
0001
0100
0001
0000
0000
,  // measure 37
1000
0000
1001
0000
,  // measure 38
0001
0000
0000
0000
0000
0000
0010
0000
0100
0000
0010
0000
,  // measure 39
0100
0000
0000
0000
0000
0000
1000
0000
0001
1000
0000
0000
,  // measure 40
0010
0000
1000
0000
0010
0000
2000
0000
0000
0000
0000
0000
,  // measure 41
3001
0000
0011
0000
,  // measure 42
0010
0000
0000
0000
0000
0000
0100
0000
1000
0000
0100
0000
,  // measure 43
1000
0000
0000
0000
0000
0000
0001
0000
0100
0001
0000
0000
,  // measure 44
1000
0010
0100
0101
,  // measure 45
0002
0000
0000
0000
,  // measure 46
0000
0000
0000
0000
,  // measure 47
0000
0000
0000
0000
,  // measure 48
2003
0000
0000
0000
,  // measure 49
3002
0000
0000
0103
0002
0000
0000
1003
,  // measure 50
0002
0000
0000
0000
0000
0000
0013
0100
,  // measure 51
2000
0000
0000
3001
2000
0000
3020
0000
,  // measure 52
0230
0000
0000
0302
,  // measure 53
0023
0000
0130
1000
0002
0000
0000
0000
,  // measure 54
0000
0000
0103
0010
1000
0000
0100
0000
,  // measure 55
0020
0000
0000
0000
0000
0000
0031
1000
,  // measure 56
0020
0000
0000
0000
,  // measure 57
0230
0000
0000
0301
0200
0000
0000
0310
,  // measure 58
0200
0000
0000
0000
0000
0000
0301
1000
,  // measure 59
0200
0000
0000
0310
0200
0000
2300
0000
,  // measure 60
3002
0000
0000
0000
0103
0010
2000
0000
,  // measure 61
3100
0010
0002
0000
0203
0000
0000
0000
,  // measure 62
0000
0310
1000
0000
0001
0010
0100
0000
,  // measure 63
2000
0000
0000
0000
,  // measure 64
3001
0000
0000
0100
0000
0000
0001
0000
1000
0000
0000
0000
0001
0000
0000
0000
,  // measure 65
0100
0000
0001
0000
1000
0001
1000
0001
,  // measure 66
1000
0100
0010
0001
1001
0000
0000
0000
,  // measure 67
1000
0000
0000
0001
0000
0000
1000
0000
0000
0001
0000
0000
1000
0000
0000
0000
,  // measure 68
0001
0000
0000
0100
0000
0000
0001
0000
0100
0000
0001
0000
0100
0000
0001
0000
,  // measure 69
1000
0000
0000
0100
0000
0000
1000
0000
0000
0100
0000
0000
1000
0000
0000
0000
,  // measure 70
0001
0000
0000
0100
0000
0000
0001
0000
0100
0000
0000
0000
0001
0000
0000
0000
,  // measure 71
0010
0000
0000
0100
0000
0000
0010
0000
0000
0100
0000
0000
0010
0000
0000
0000
,  // measure 72
0001
0000
0000
1000
0000
0000
0001
0000
1000
0000
0000
0000
0010
0000
0000
0000
,  // measure 73
0100
0000
0000
0001
0000
0000
0100
0000
0001
0000
1000
0000
0001
0000
1000
0000
,  // measure 74
0001
0000
0000
0100
0000
0000
0001
0000
1000
0000
0000
0000
0100
0000
0000
0000
,  // measure 75
0020
0000
0000
0031
0020
0000
0000
0130
,  // measure 76
0020
0000
0000
0000
0031
1000
0010
0100
,  // measure 77
0002
0000
0000
0103
0002
0000
2003
0000
,  // measure 78
3020
0000
0000
0000
0130
0001
1000
0000
,  // measure 79
0200
0000
1300
0001
0200
0000
0000
0000
,  // measure 80
0310
1000
0001
0000
0010
0100
2000
0000
,  // measure 81
3002
0000
0000
0000
0103
0010
1000
0100
,  // measure 82
0020
0000
0031
0000
,  // measure 83
2000
0000
0000
3010
2000
0000
0000
3001
,  // measure 84
2000
0000
0000
0000
0000
0000
3100
0010
,  // measure 85
0002
0000
0000
1003
0002
0000
0203
0000
,  // measure 86
0320
0000
0000
0000
1030
0001
0020
0000
,  // measure 87
0130
1000
0002
0000
0203
0000
0000
0000
,  // measure 88
0000
0310
1000
0000
0001
0010
0100
0000
,  // measure 89
0020
0000
0000
0000
,  // measure 90
0032
0000
0000
0000
,  // measure 91
1003
0000
0000
0000
;

//---------------dance-single - ----------------
#NOTES:
     dance-single:
     :
     Hard:
     14:
     0.451094,0.734902,0.064607,0.654144,0.432058,391.000000,383.000000,8.000000,81.000000,0.000000,0.000000,0.451094,0.734902,0.064607,0.654144,0.432058,391.000000,383.000000,8.000000,81.000000,0.000000,0.000000:
0000
0000
0000
0000
,
0000
0000
0000
0000
,
0000
0000
0000
0000
,
0000
0000
0000
0000
,
0000
0000
0000
0000
,
0000
0000
0000
0000
,
0000
0000
0000
0000
,
0000
0000
0000
0000
,
0000
0000
0000
0000
,
2000
0000
0000
3010
2000
0000
0000
3001
,
2000
0000
0000
0000
0000
0000
3001
0100
,
0020
0000
0000
0130
0020
0000
0032
0000
,
0023
0000
0000
0000
1030
0001
0200
0000
,
0310
1000
0002
0000
0023
0000
0000
0000
,
0000
0130
1000
0010
0100
0001
2000
0000
,
3200
0000
0000
0000
0000
0000
0000
0310
,
0002
0000
0000
0000
,
1003
0100
0010
0001
,
1000
0000
0010
0000
0100
0000
0001
0000
1000
0000
0001
0000
,
0010
0000
0010
0100
0000
0100
1000
0000
1000
0010
1000
0010
,
2000
0000
3001
0000
,
1000
0000
0010
1000
0000
0000
1001
0000
0001
1000
0000
0001
,
0100
0000
0001
1000
0000
0000
1001
0000
0001
0010
0000
0001
,
1000
0000
0001
0100
0000
0000
0101
0000
0000
0000
0000
0000
,
0001
0000
0001
0100
0000
0100
0010
0000
0010
1000
0001
1000
,
0001
0000
1000
0001
0000
0000
0101
0000
0100
0001
0000
1000
,
0001
0000
0100
0001
0000
0000
1001
0000
1000
0001
1000
0001
,
1000
0000
1000
0100
0000
0100
0010
0000
0010
0001
0000
0001
,
0100
0000
0100
0010
1000
0010
2000
0000
0000
3100
0010
0001
,
2000
0000
0000
0000
3010
0000
2000
0000
0000
0000
3001
0000
,
2000
0000
0000
0000
0000
0000
3100
0000
0010
0000
0001
0000
,
0200
0000
0000
0000
0310
0000
0200
0000
0000
0000
1300
0000
,
0200
0000
0000
0000
0000
0000
0010
0000
0000
0000
0301
0000
,
2000
0000
0000
0000
3100
0010
0002
0000
0000
0000
0000
0000
,
0100
0000
0000
0000
0103
0010
1000
0000
0100
0000
0010
0000
,
0001
0000
0100
0000
0010
0000
0001
0000
0010
0000
0100
0000
,
0001
0000
0001
1000
0000
1000
0100
0000
0100
0010
0000
0000
,
0011
0000
0000
0000
0000
0000
0001
0000
1000
0000
0001
0000
,
0010
0000
0100
0000
0010
0000
0001
0000
0100
0000
0010
0000
,
2000
0000
0000
0000
0000
0000
3001
0000
0001
0100
0010
1000
,
0001
0000
1000
0000
0001
0000
0022
0000
0000
0033
0000
0000
,
0001
0000
0000
0000
0000
0000
1000
0000
0010
0000
1000
0000
,
0001
0000
0010
0000
0001
0000
1000
0000
0010
0000
0100
0000
,
0002
0000
0000
0000
0000
0000
1003
0000
1000
0100
0010
0001
,
2000
3020
0230
0301
,
2000
0000
0000
0000
,
0000
0000
0000
0000
,
0000
0000
0000
0000
,
3002
0000
0000
0000
,
0203
0000
0000
0310
0200
0000
0000
0301
,
0200
0000
0000
0000
0000
0000
0301
1000
,
0200
0000
0000
0310
0200
0000
0302
0000
,
0203
0000
0000
2300
,
3002
0000
0103
0010
2000
0000
0000
0000
,
0000
0000
3010
0100
0001
0010
0200
0000
,
0320
0000
0000
0000
0000
0000
0031
1000
,
0020
0000
0000
0000
,
0230
0000
0000
0301
0200
0000
0000
0310
,
0200
0000
0000
0000
0000
0000
0301
1000
,
0200
0000
0000
0310
0200
0000
0302
0000
,
0203
0000
0000
0000
1300
0001
0200
0000
,
0310
1000
0002
0000
0023
0000
0000
0000
,
0000
0130
1000
0001
0100
0010
2000
0000
,
3001
0000
0000
0001
0000
0000
0100
0000
0000
0100
0000
0000
0010
0000
0000
0000
,
1000
0000
0000
0001
0000
0000
1000
0000
0000
0001
0000
0000
1000
0000
0001
0000
,
0010
0000
0000
0100
0000
0000
1000
0000
0000
0001
0000
0000
0100
0000
0000
0010
,
0000
0000
1000
0000
0000
0100
0000
0000
0020
0000
0000
0000
0000
0000
0000
0000
,
0031
0000
0000
1000
0000
0000
0001
0000
0000
1000
0000
0000
0010
0000
0100
0000
,
0001
0000
0000
0100
0000
0000
0001
0000
1000
0001
1000
0000
0001
0000
0100
0000
,
0001
0000
0000
0010
0000
0000
0001
0000
0000
0010
0000
0000
0100
0000
1000
0000
,
0001
0000
0000
0100
0000
0000
0001
0000
1000
0000
0100
0000
0010
0000
0100
0000
,
1000
0000
0000
0001
0000
0000
0100
0000
0000
0001
0000
0000
1000
0000
0100
0000
,
0010
0000
0000
0001
0000
0000
1000
0000
0001
0000
0000
0000
0100
0000
0010
0000
,
1000
0000
0000
0001
0000
0000
0100
0000
0001
0100
0001
0000
1000
0001
1000
0000
,
0001
0000
0000
0100
0000
0000
0010
0000
1000
0010
0000
0000
0000
0000
0000
0000
,
2000
0000
0000
3010
2000
0000
0000
3100
,
2000
0000
0000
0000
0000
0000
0000
0000
3001
0100
0001
0100
0001
0000
1000
0000
,
0200
0000
0000
0310
0200
0000
0302
0000
,
0203
0000
0000
0000
1300
0001
0100
0010
,
2000
0000
3100
0010
0002
0000
0000
0000
,
0103
0010
1000
0100
0010
0001
2000
0000
,
3020
0000
0000
0000
0000
0000
0000
0000
1030
0001
1000
0001
1000
0001
1000
0001
,
1000
0000
1010
0000
,
0020
0000
0000
0130
0020
0000
0000
1030
,
0020
0000
0000
0000
0000
0000
0130
0001
,
0020
0000
0000
0130
0020
0000
2030
0000
,
3020
0000
0000
0000
0130
1000
0002
0000
,
0103
0010
2000
0000
3200
0000
0000
0000
,
0000
0310
0001
1000
0010
0100
0002
0000
,
2003
0000
0000
0000
0000
0000
0000
0000
0000
0000
0000
3100
,
0020
0000
0000
0000
,
0031
0000
0000
0000
;
