#TITLE:Dark Fall;
#SUBTITLE:;
#ARTIST:黒龍;
#TITLETRANSLIT:;
#SUBTITLETRANSLIT:;
#ARTISTTRANSLIT:Kokuryu;
#GENRE:;
#CREDIT:;
#MUSIC:Dark Fall.ogg;
#BANNER:;
#BACKGROUND:;
#CDTITLE:;
#SAMPLESTART:67.123;
#SAMPLELENGTH:19.016;
#SELECTABLE:YES;
#OFFSET:0.600;
#BPMS:0.000=202.000;
#STOPS:32.000=0.891
,221.000=0.891
,346.000=0.891
;
#BGCHANGES:;
#FGCHANGES:;

//--------------- dance-single - Pandemonium X ----------------
#NOTES:
     dance-single:
     Pandemonium X:
     Beginner:
     5:
     0,0,0,0,0:
0000
0000
0000
0000
,
0000
0000
0000
0000
,
0000
0000
0000
0000
,
0000
0000
0000
0000
,
0000
0000
0000
0000
,
0001
0000
0000
0000
,
1000
0000
0000
0000
,
0010
0000
0100
0000
,
0000
0001
0000
0000
,
0000
1000
0000
0000
,
0000
0010
0000
0000
,
0000
0100
0000
0000
,
0000
0010
0000
0000
,
0000
1000
0000
0000
,
0000
0100
0000
0000
,
0000
0010
0010
0010
,
0000
0001
0000
0000
,
0000
1000
0000
0000
,
0000
0010
0000
0000
,
0000
0100
0000
0000
,
0000
1001
0000
0000
,
0000
0110
0000
0100
,
0000
0010
0000
0010
,
0000
0100
0000
0000
,
0000
0001
0000
0000
,
0000
1000
0000
0000
,
0000
0010
0000
0000
,
0000
0100
0000
0000
,
0000
0010
0000
0000
,
0000
1000
0000
0000
,
0000
0100
0000
0000
,
0000
0010
0000
0000
,
0000
0100
0000
0000
,
0000
1000
0000
0000
,
0000
0001
0000
0000
,
0000
0100
0000
0000
,
0000
0010
0000
0000
,
0000
0100
0000
0000
,
0000
0010
0000
0000
,
0000
1001
0000
0000
,
0000
0110
0000
0000
,
0000
0001
0000
0000
,
0000
1000
0000
0000
,
0000
0001
0000
0000
,
0000
1000
0000
0000
,
0000
0001
0000
0000
,
0000
1000
0000
0000
,
0000
0110
0000
0000
,
0000
1000
0000
0000
,
0000
0001
0000
0000
,
0000
0010
0000
0000
,
0000
0100
0000
0000
,
0000
1000
0000
1000
,
0000
0001
0000
0001
,
0000
0100
0000
0100
,
0000
0000
0010
0010
,
0010
0000
0100
0100
,
0100
0000
0001
0001
,
0001
0000
1000
1000
,
1000
0000
0010
0010
,
0010
0000
0100
0100
,
0100
0000
0001
0001
,
0001
0000
1001
1001
,
1001
0000
1000
0001
,
1000
0000
0010
0100
,
0010
0000
1000
0010
,
1000
0000
0001
0100
,
0001
0000
1001
0000
,
0000
0000
0110
0000
,
0100
0000
0010
0010
,
0010
0010
0000
0000
,
0000
0000
0100
0000
,
0010
0000
1000
0000
,
0001
0001
1000
0000
,
0010
0000
0100
0000
,
0010
1000
0001
0000
,
1000
0000
0100
0000
,
0010
0010
0100
0000
,
0010
0000
0001
0000
,
1001
0110
1001
0000
,
0001
0000
1000
0000
,
0010
0000
1000
0000
,
0001
0000
0100
0000
,
0010
0000
1001
0000
,
0000
0000
0000
0000
,
0000
0000
0000
0000
,
0000
0000
0000
0001
,
0000
0000
0000
1000
,
0000
0000
0000
0010
,
0000
0000
0000
0100
,
0000
0000
0000
0110
,
0000
0000
0000
1001
,
0000
0001
0000
1000
,
0000
0001
0000
0200
,
0000
0000
0000
0000
0000
0300
0000
0000
;

//--------------- dance-single - Pandemonium X ----------------
#NOTES:
     dance-single:
     Pandemonium X:
     Easy:
     9:
     0,0,0,0,0:
0000
0000
0000
0000
,
0000
0000
0000
0000
,
0000
0000
0000
0000
,
0000
0000
0000
0000
,
0000
0000
0000
0000
,
0001
0000
1000
0000
,
0001
0000
0100
0100
,
0010
1000
0100
0020
,
0030
0100
1000
0010
,
0000
0100
0001
1000
,
0000
0001
1000
0100
,
0000
1000
0010
0100
,
0000
0010
0100
0001
,
0000
1000
0001
0100
,
0000
0010
1000
0100
,
0000
1001
1001
1001
,
0000
0001
1000
0010
,
0010
1000
0001
0010
,
0010
0001
1000
0010
,
0010
1000
0001
0010
,
0010
0110
0000
0000
,
0100
1100
0000
1001
,
0000
0101
0110
1010
,
1000
0002
0000
0000
,
0003
1000
0001
0100
,
0100
0010
1000
0001
,
0100
0001
1000
0010
,
0010
1000
0100
0010
,
0001
0100
0010
1000
,
1000
0010
0100
0001
,
0010
0100
0010
0001
,
0001
0010
0001
1000
,
0100
1001
0001
1000
,
1000
0001
0100
1000
,
0100
0001
0100
0010
,
0010
1000
0010
0001
,
0010
1010
0000
0000
,
0001
0000
0101
0000
0000
0001
0000
0000
,
1000
1100
0000
0000
,
0000
0200
0000
0000
,
0300
1002
0000
0000
,
0000
0000
1003
0000
0000
0001
0000
0000
,
1000
0002
0000
0000
,
0000
0000
1003
0000
0000
0001
0000
0000
,
1000
0002
0000
0000
,
0000
0000
1003
0000
0000
0001
0000
0000
,
1000
0002
0000
0000
,
0000
0013
0000
0000
,
0000
1000
0100
1000
,
0010
0100
0001
0010
,
0100
0010
0001
1000
,
0010
1001
0001
0100
,
0010
0000
0101
0000
,
1001
0000
0011
0000
,
1010
0000
1001
0000
,
0110
0000
0001
0100
,
0010
0010
0100
0010
,
1000
1000
0100
0010
,
0100
0100
0010
0001
,
1000
1000
0001
1000
,
0100
0100
0010
0100
,
1000
1000
0100
1000
,
0010
0010
0100
0010
,
0100
0100
0010
1000
,
0001
0001
1000
0100
,
0010
0010
0100
0010
,
0001
0001
1000
0001
,
0100
0100
1001
0000
,
0000
0010
1001
0000
,
0110
0000
0101
0101
,
1010
1010
0002
0000
,
0000
0003
1000
0100
,
1000
0010
0100
0001
,
0010
0100
0010
0000
0100
0000
0010
0000
,
0001
0100
0010
1000
,
0001
0100
0001
0000
0100
0000
0010
0000
,
1000
0001
0010
0001
,
1000
0100
1000
0000
0100
0000
1000
0000
,
0010
0100
0001
0100
,
1001
1001
1000
0001
,
0010
0001
1000
0010
,
0100
0001
0100
0000
0001
0000
0100
0000
,
0010
1000
0001
0010
,
0100
1000
0100
0000
0000
1000
0000
1000
,
0000
1000
0000
1000
0000
1000
0000
0010
,
0000
0100
0000
0100
0010
0000
0100
0000
,
0001
2000
3000
0001
,
1000
0010
1000
0001
,
0010
0100
0010
0001
,
0100
0010
0100
0001
,
1000
0010
1000
1100
,
0000
0000
0000
0011
,
0000
1000
1000
0101
,
0001
1001
1000
0020
,
0000
0000
0000
0000
0000
0030
0000
0000
;

//--------------- dance-single - Pandemonium X ----------------
#NOTES:
     dance-single:
     Pandemonium X:
     Medium:
     13:
     0,0,0,0,0:
0000
0000
0000
0000
,
0000
0000
0000
0000
,
0000
0000
0000
0000
,
0000
0000
0000
0000
,
0000
0000
0000
0000
,
0001
1010
0001
1010
,
0001
0000
1010
0000
0001
1000
0001
0000
,
1000
0000
1000
0001
1000
0100
0010
0001
,
0000
0000
0000
0000
1000
0000
0000
0000
0001
0000
0000
0000
0100
0000
0000
0001
,
0000
0000
0010
0000
0100
0000
0000
0000
1000
0000
0000
0000
0100
0000
0000
1000
,
0000
0000
0001
0000
0100
0000
0000
0000
0010
0000
0000
0000
0100
0000
0000
0001
,
0000
0000
1000
0000
0100
0000
0000
0000
0010
0000
0000
0000
0100
0000
0000
0010
,
0000
0000
0001
0000
1000
0000
0000
0000
0001
0000
0000
0000
0100
0000
0000
0010
,
0000
0000
1000
0000
0010
0000
0000
0000
0100
0000
0000
0000
0001
0000
0000
1000
,
0000
0000
0100
0000
1000
0000
0000
0000
0001
0000
0000
0000
1000
0000
0000
0010
,
0000
1000
1100
0000
0011
0000
1001
0000
,
0000
0000
0000
0000
0001
0000
0100
0000
0001
0000
0000
0000
0100
0000
0000
0010
,
0000
0000
1000
0000
0001
0000
1000
0000
0001
0000
0000
0000
0010
0000
0000
0100
,
0000
0000
0010
0000
0001
0000
0100
0000
0001
0000
0000
0000
0100
0000
0000
0010
,
0000
0000
1000
0000
0001
0000
0010
0000
0001
0000
0000
0000
0010
0000
0000
0100
,
0000
1000
1100
0000
0000
0000
0000
0000
,
0100
1000
1010
0000
0000
0000
0101
0000
,
0000
1001
0110
1001
,
0110
0020
0000
0000
,
0030
0000
1001
0000
0001
0000
1000
0010
,
1000
0001
0010
1000
,
0010
0000
0001
0000
0100
0000
0010
1000
,
0010
1000
0100
0001
,
0100
0000
1000
0000
0001
0000
0010
0100
,
0010
0100
0010
0001
,
0100
0000
0010
0000
0100
0000
0001
1000
,
0001
1000
0100
0001
,
0100
0000
0010
0001
0100
0000
0010
1000
,
0100
0010
0100
1000
,
0001
0000
1000
0010
0100
0000
0010
0100
,
0001
0100
0010
1000
,
0001
1100
1000
0010
,
0100
0001
0010
0100
,
0010
0001
1000
0001
,
0100
0020
0000
0000
,
0030
2001
0000
0000
,
0000
0000
3001
0000
0000
0010
0000
0000
,
0001
2000
0000
0000
,
0000
0000
3001
0000
0000
0010
0000
0000
,
0001
0200
0000
0000
,
0000
0000
0010
0000
0000
0001
0000
0000
,
0010
0020
0000
0000
,
0330
2002
0000
3003
,
0000
0001
0100
0010
,
1000
0100
0010
0100
,
1000
0001
0100
0001
,
0010
0011
0001
1000
,
0001
1000
0011
1000
,
0011
0001
1010
0001
,
1010
0010
1001
0100
,
1001
0000
1010
0110
,
0100
0000
0000
0010
0000
0000
1000
0000
1001
0000
0000
0000
0011
0000
0000
0000
,
0001
0000
0000
0010
0000
0000
0100
0000
1100
0000
0000
0000
0110
0000
0000
0000
,
0100
0000
0000
1000
0000
0000
0010
0000
0110
0000
0000
0000
0101
0000
0000
0000
,
0001
0000
0000
0100
0000
0000
0010
0000
1010
0000
0000
0000
0110
0000
0000
0000
,
0100
0000
0000
0001
0000
0000
1000
0000
1001
0000
0000
0000
0101
0000
0000
0000
,
0001
0000
0000
0010
0000
0000
0001
0000
0101
0000
0000
0000
0110
0000
0000
0000
,
0010
0000
0000
0100
0000
0000
0001
0000
1001
0000
0000
0000
1001
0000
0000
0000
,
1001
0000
0000
0000
1000
0001
0010
0000
,
0100
0000
0000
1000
0000
0000
0100
0000
1000
0000
0010
0000
0100
0000
0000
0000
,
0010
0000
0000
0100
0000
0000
0001
0000
0010
0000
0100
0000
0010
0000
0000
0000
,
0001
0000
0000
0010
0000
0000
0100
0000
1000
0000
0010
0000
0100
0000
0000
0000
,
0001
0000
0000
1000
0000
0000
0010
0000
0110
0000
0000
0000
0000
0000
0000
0000
,
0000
0001
1000
0001
1001
0000
0000
0000
,
1100
0000
0101
1010
,
1100
0011
0020
0000
,
0000
0000
0030
0000
0100
0010
0001
0000
,
0010
0100
1000
0000
0100
0010
0001
0000
,
1000
1000
1000
0000
0001
0100
0010
0000
,
0100
0010
1000
0000
0010
0100
0001
0000
,
1000
1000
1000
0001
1000
0100
0010
0000
,
0100
1000
0010
0000
0100
0001
0010
0000
,
0100
0100
0100
0000
0010
0001
0100
0000
,
0010
0100
0001
0000
0100
0000
0010
1000
,
1001
0110
0001
1000
,
0010
1000
0100
0010
,
0100
0100
0100
0100
0010
0000
0001
0000
,
0100
0010
1000
0001
,
1000
1000
1000
1000
0000
0001
0000
1000
,
0000
0010
0000
1000
0000
0100
0000
0001
,
0000
0100
0000
1000
0010
0000
0100
0010
,
1000
0100
0010
0001
0000
0000
1000
0000
,
0001
0100
0001
0010
,
0001
0100
0010
1000
,
0100
0010
0100
1000
,
0010
0100
0001
1001
,
0000
0000
0000
1010
,
0000
1000
0001
0101
,
1000
0001
0010
0000
0100
0000
1000
0010
,
0010
1000
0001
0001
0010
0100
0000
0000
;

//--------------- dance-single - Pandemonium X ----------------
#NOTES:
     dance-single:
     Pandemonium X:
     Hard:
     15:
     0,0,0,0,0:
0000
0000
0000
0000
,
0000
0000
0000
0000
,
0000
0000
0000
0000
,
0000
0000
0000
0000
,
0000
0000
0000
0000
,
0001
1010
1000
0011
,
0001
0000
1010
0000
0001
0100
0010
1000
,
0001
0000
0000
0000
1000
0000
0100
0000
0010
0000
0001
0000
1000
0001
1000
0001
,
0000
0000
0000
0000
1001
0000
0000
0000
0001
0000
0000
0000
0100
0000
0000
0010
,
0000
0000
1000
0000
0001
0000
0000
0000
0010
0000
0000
0000
0100
0000
0000
0010
,
0000
0000
0001
0000
1000
0000
0000
0000
0010
0000
0000
0000
1000
0000
0000
0100
,
0000
0000
1000
0000
0010
0000
0000
0000
0100
0000
0000
0000
0001
0000
0000
0010
,
0000
0000
0100
0000
0010
0000
0000
0000
0100
0000
0000
0000
1000
0000
0000
0001
,
0000
0000
1000
0000
0010
0000
0000
0000
0100
0000
0000
0000
0001
0000
0000
0010
,
0000
0000
0001
0000
1000
0000
0000
0000
0010
0000
0000
0000
0100
0000
0000
0010
,
0000
1000
1100
0000
0110
0000
1100
0000
,
0000
0000
0000
0000
0100
0000
1000
0000
0010
0000
0100
0000
0001
0000
0000
0001
,
0000
0000
0001
0000
1000
0000
0010
0000
0100
0000
0010
0000
1000
0000
0000
1000
,
0000
0000
1000
0000
0010
0000
0100
0000
0001
0000
0010
0000
0100
0000
0000
0100
,
0000
0000
0100
0000
1000
0000
0100
0000
0010
0000
0100
0000
0010
0000
0000
0010
,
0000
0010
0100
0000
0000
0000
0000
0000
,
1000
0100
1000
0100
1000
0000
0000
0000
0000
0000
0000
0000
0101
0000
0000
0000
,
1000
0000
0001
0001
1000
1000
0010
0010
,
0100
0001
0100
0001
0000
0000
0000
0000
0000
0000
0000
0000
0000
0000
0000
0000
,
0000
0000
1000
0010
0100
0010
1000
0001
,
0010
0000
0100
0010
0001
0100
1000
0100
,
0010
0000
0100
0010
1000
0001
0010
0001
,
1000
0000
0001
0010
1000
0010
0001
0010
,
0100
0000
0100
1000
0010
1000
0100
0010
,
0001
0000
0001
0100
1000
0100
0010
1000
,
0001
0100
0001
0010
0001
0100
0010
1000
,
0100
0000
1000
0100
0001
0100
1000
0010
,
0100
0000
0010
0100
0010
1000
0100
0010
,
0001
1000
0001
0010
1000
0010
0001
0100
,
0010
1000
0001
0100
0001
0010
0100
0010
,
0001
1000
0001
0010
1000
0010
0001
0010
,
0100
1000
1001
0000
0001
0000
1000
0000
,
0010
1000
0001
0100
,
0001
0010
0100
1000
,
0010
0200
0000
0000
,
0300
1002
0000
0000
,
0000
0000
0023
0000
0000
0230
0000
0000
,
1300
0020
0000
0000
,
0000
0000
0230
0000
0000
0302
0000
0000
,
0013
0200
0000
0000
,
0000
0000
2300
0000
0000
3020
0000
0000
,
0130
0002
0000
0000
,
0000
2000
3003
0000
,
0000
0001
1000
0010
,
1000
0001
0010
0001
,
1000
0010
1000
0001
,
0010
1001
0001
1000
,
0100
1000
0101
1000
,
0101
1000
0011
1000
,
0011
0001
1010
0001
,
1010
0000
0000
0000
0001
1000
0010
1000
,
0001
0000
0000
0010
0000
0000
0100
0000
1000
0000
0010
0000
1000
0000
0100
0000
,
0010
0000
0000
0100
0000
0000
1000
0000
0001
0000
1000
0000
0100
0000
0010
0000
,
0100
0000
0000
1000
0000
0000
0010
0000
0100
0000
0001
0000
0010
0000
0100
0000
,
0010
0000
0000
0001
0000
0000
0100
0000
0010
0000
1000
0000
0010
0000
0100
0000
,
0001
0000
0000
1000
0000
0000
0100
0000
0010
0000
0100
0000
1000
0000
0001
0000
,
0100
0000
0000
0001
0000
0000
0010
0000
0100
0000
0010
0000
0001
0000
1000
0000
,
0100
0000
0000
1000
0000
0000
0010
0000
0100
0000
1000
0000
0100
0000
0001
0000
,
1000
0000
0000
0200
0310
0001
0010
0100
,
1000
0000
0000
1100
0000
0000
0100
0000
0010
0000
0001
0000
0100
0000
0010
0000
,
1000
0000
0000
1010
0000
0000
0010
0000
0100
0000
0001
0000
1000
0000
0001
0000
,
0100
0000
0000
0101
0000
0000
0001
0000
0100
0000
0001
0000
0010
0000
0100
0000
,
0110
0000
0000
0100
0000
0000
1100
0000
1001
0000
0000
0000
0000
0000
0000
0000
,
0000
0000
0001
0100
0001
0100
0001
0100
0001
0000
0000
0000
0000
0000
0000
0000
,
1100
0000
1001
0101
,
1010
0000
0000
0000
0001
1000
0001
1000
0000
0000
0000
0000
0000
0000
0000
0000
,
0000
0000
0000
0000
0001
0100
0010
0010
,
0100
0010
1000
1000
0100
0010
0001
0001
,
1000
0010
0001
0010
1000
0100
0010
0010
,
0100
1000
0001
0001
1000
0010
0100
0100
,
1000
0100
0001
0100
0010
0010
1000
0001
,
1000
1000
0100
0010
0001
0001
0010
0100
,
1000
0100
0001
0100
1000
0010
0100
0100
,
0010
1000
0001
0001
1000
0001
0100
0001
,
1001
1000
1001
0001
1001
0001
1000
0000
,
0001
1000
0010
0000
1000
0001
0100
0000
,
0010
0010
0100
0100
0010
1000
0100
0000
,
0010
0001
0100
0000
0010
0100
0001
0000
,
1000
1000
0001
0001
0000
0100
0000
0100
,
0000
0100
0000
0100
0000
0010
0000
0010
,
0000
1000
0000
1000
1000
0100
0010
0001
,
0010
0000
0100
0000
1000
0001
1000
0001
0000
0000
0000
0000
1000
0000
0010
0000
,
0100
0010
1000
0010
0100
0100
0001
0100
,
0010
0100
0001
0010
0001
0001
1000
0100
,
1000
0001
0100
0001
1000
1000
0001
1000
,
0010
1000
0001
0010
0001
0001
1001
0000
,
1000
0001
0100
1001
,
0001
0000
1010
0000
0110
0000
1001
0001
,
0100
0000
0010
0000
1000
0000
0100
0000
0010
0000
0001
0000
1000
0000
0001
0100
,
0001
0000
1000
0000
0001
0010
0001
0000
1000
0000
0100
0000
0000
0000
0000
0000
;

//--------------- dance-single - Pandemonium X ----------------
#NOTES:
     dance-single:
     Pandemonium X:
     Challenge:
     17:
     0,0,0,0,0:
0000
0000
0000
0000
,
0000
0000
0000
0000
,
0000
0000
0000
0000
,
0000
0000
0000
0000
,
0000
0000
0000
0000
,
0001
0000
0100
0000
0010
1000
0010
0000
1000
0000
0001
0000
0010
0001
0010
0000
,
0001
0000
1000
0000
0100
1000
0100
0000
1000
0000
1000
0000
0001
0000
0001
0000
,
0100
0000
0010
0000
0100
0010
0100
0010
1000
0001
1000
0001
1000
0100
0010
0001
,
0000
0000
0000
0000
1000
0000
0001
0000
0010
0000
0100
0000
1000
0000
0100
1000
,
0000
0100
0010
0000
0100
0000
1000
0000
0001
0000
0100
0000
0001
0000
0010
0001
,
0000
0010
0100
0000
0010
0000
0001
0000
0100
0000
0010
0000
1000
0000
0001
1000
,
0000
0010
0100
0000
0010
0000
1000
0000
0100
0000
0010
0000
0001
0000
0010
0001
,
0000
1000
0100
0000
1000
0000
0001
0000
0100
0000
0001
0000
0010
0000
0001
0100
,
0000
0010
1000
0000
0100
0000
0010
0000
0001
0000
0010
0000
0100
0000
1000
0100
,
0000
0010
0001
0000
1000
0000
0010
0000
0100
0000
0001
0000
0010
0000
0001
0100
,
0000
0010
1000
0000
1001
0000
0000
0000
0110
0000
0000
0000
1001
0000
0000
0000
,
0000
0000
0000
0000
0001
0000
0100
0000
0010
0000
1000
0000
0100
0000
0010
0100
,
0000
0100
1000
0000
0100
0000
1000
0000
0010
0000
0100
0000
0001
0000
0010
0100
,
0000
0100
0010
0000
0001
0000
1000
0000
0001
0000
0100
0000
0010
0000
0100
0001
,
0000
0001
0010
0000
0100
0000
1000
0000
0100
0000
1000
0000
0001
0000
0100
0010
,
0000
0010
1000
0000
0200
0000
0000
0000
0000
0000
0000
0000
0000
0000
0000
0000
,
0310
0001
0100
0001
1000
0000
0000
0000
0000
0000
0000
0000
0101
0000
0000
0000
,
1001
0000
1000
1000
0001
0001
0100
0100
,
0010
1000
0001
0010
0100
0000
0000
0000
0000
0000
0000
0000
0000
0000
0000
0000
,
0000
0000
0000
0000
1000
0000
0001
0000
0100
0000
0001
0000
0010
0100
0010
0000
,
0001
0000
0000
0000
1000
0000
0010
0000
0100
0000
0010
0000
1000
0001
1000
0000
,
0001
0000
0010
0000
0100
0000
0010
0000
0001
0000
1000
0000
0010
0100
0010
0000
,
0100
0000
0010
1000
0100
1000
0001
0100
,
0010
1000
0010
1000
0001
0000
1000
0000
0100
0000
0010
0000
0001
0100
0001
0000
,
0010
0000
0000
0000
0100
0000
0010
0000
0001
0000
1000
0000
0010
1000
0010
0000
,
0100
0000
0001
0000
1000
0000
0100
0000
0010
0000
0100
0000
1000
0010
1000
0000
,
0001
0000
0000
0000
0001
0000
1000
0000
0010
1000
0010
0000
0100
0001
0100
0000
,
0010
1000
0010
0000
1001
0000
1000
0100
1000
0000
0001
0000
0001
1000
0001
0000
,
1000
0000
0000
0000
1000
0000
0100
1000
0100
0000
1000
0000
0001
0100
0001
0000
,
0010
0000
0001
0000
1000
0000
0100
1000
0100
0000
0010
0000
0001
1000
0001
0000
,
1000
0000
0000
0000
0001
0000
0010
0100
0010
0000
0100
0000
1000
0001
1000
0000
,
0001
0100
0001
0000
1000
0000
0010
0000
,
1000
0001
0100
0001
,
1000
0100
0001
0100
,
1000
1001
0000
0000
,
0000
0002
0000
0000
,
0000
0000
0203
0000
0000
2300
0000
0000
,
3020
0032
0000
0000
,
0000
0000
0203
0000
0000
2300
0000
0000
,
3020
0032
0000
0000
,
0000
0000
0203
0000
0000
2300
0000
0000
,
3020
0002
0000
0000
,
0033
2200
0000
0000
,
3300
0000
0000
0000
1000
0000
0001
0100
0001
0000
1000
0000
0001
0100
0001
0000
,
1000
0000
0100
0000
0010
0000
0100
1000
0100
0000
0010
0000
0100
1000
0100
0000
,
0010
0000
0001
0000
0100
0000
0010
0100
0010
0000
1000
0000
0010
0100
0010
0000
,
0100
0000
0010
0000
1000
0000
0001
0010
0001
0000
1000
0000
0001
0010
0001
0000
,
0010
0100
1000
0010
0110
0100
0001
0010
,
0110
0100
1000
0010
0110
0100
0001
0010
,
0110
0100
1000
0010
0110
0100
0001
0010
,
0010
0100
1000
0001
0000
0000
0000
0000
1010
0000
0000
0000
0101
0000
0000
0000
,
0011
0000
0010
0100
0000
0010
0001
0000
1100
0000
0000
0000
0011
0000
0000
0000
,
0101
0000
0001
1000
0000
0010
1000
0000
1010
0000
0000
0000
1100
0000
0000
0000
,
0110
0000
0100
1000
0000
0001
0100
0000
0101
0000
0000
0000
0011
0000
0000
0000
,
1100
0000
0100
1000
0000
0001
0100
0000
0110
0000
0000
0000
0101
0000
0000
0000
,
0011
0000
0001
0010
0000
0100
1000
0000
1010
0000
0000
0000
0101
0000
0000
0000
,
0011
0000
0001
1000
0000
0010
1000
0000
0101
0000
0000
0000
0011
0000
0000
0000
,
1100
0000
0100
1000
0000
0100
0010
0000
0011
0000
0000
0000
0101
0000
0000
0000
,
0110
0000
0010
1000
0000
0001
0010
0000
1001
0000
0000
0000
0101
0000
0000
0000
,
0011
0000
0001
0010
0000
0010
0100
0000
1100
0000
0000
0000
1010
0000
0000
0000
,
0110
0000
0100
0010
0000
0010
1000
0000
1010
0000
0000
0000
0011
0000
0000
0000
,
1100
0000
0100
0010
0000
0010
0001
0000
0011
0000
0000
0000
1010
0000
0000
0000
,
0101
0000
0001
1000
0000
1000
0100
0000
0110
0000
0000
0000
0000
0000
0000
0000
,
0000
0000
0100
0010
0001
1000
0010
0100
0001
0000
0000
0000
0000
0000
0000
0000
,
1001
0000
0000
0000
0001
0001
0100
0100
,
0010
0000
0010
0000
1000
0010
0100
0001
0010
0000
0000
0000
0000
0000
0000
0000
,
0000
0000
0000
0000
0100
1000
0100
0010
,
0001
0100
0010
1000
0001
1000
0010
1000
,
0100
0100
0100
0100
0010
0001
1000
0100
,
1000
0010
0100
0001
1000
0100
0010
0001
,
1000
1000
0001
1000
0001
0100
0001
1000
,
0100
1000
0001
0100
0010
1000
0001
0010
,
0100
0100
0100
0100
0010
0001
1000
0100
,
1000
0010
0100
0001
0010
0100
1000
0100
,
0012
0000
0103
0000
2010
0000
3001
0000
1001
0000
0001
0000
1000
0010
1000
0010
,
1000
0000
0001
0000
0010
0100
0010
0100
0010
0000
0001
0000
0100
0001
0100
0000
,
0001
0000
0001
0000
0001
0000
0001
0000
1000
0000
0001
0000
1000
0100
1000
0100
,
1000
0000
0010
0000
0100
0001
0100
0001
0100
0000
0001
0000
0010
0100
0010
0000
,
0100
0000
0100
0000
0100
0000
0100
0000
0000
0000
1000
0100
0000
0000
0100
0010
,
0000
0000
0010
0001
0000
0000
0001
0010
0000
0000
0010
0100
0000
0000
0100
1000
,
0000
0000
1000
0001
0000
0000
0001
1000
0010
0000
0100
0000
0010
1000
0001
0100
,
0010
1000
0001
0010
0100
1000
0100
0010
0000
0000
0000
0000
0001
0000
1000
0010
,
0100
0000
0010
0000
1000
0001
0010
0000
0100
0000
0010
0000
0001
0000
1000
0001
,
0100
0000
0010
0000
0100
0010
1000
0000
0100
0000
0010
0000
0100
0000
1000
0001
,
0010
0000
0100
0000
0010
0001
1000
0000
0010
0000
0100
0000
0001
0000
1000
0100
,
0010
0000
0100
0000
1000
0001
0100
0000
0010
0000
1000
0000
0001
0000
0010
0100
,
1000
0000
0100
0000
0010
0001
0100
0000
0001
0000
1000
0000
0001
0000
1000
0010
,
0100
0000
0010
0000
1000
0001
0010
0000
0100
0000
1000
0000
0001
0000
0100
0000
,
1010
0000
0101
0000
0011
0000
0011
0000
0010
0000
0010
0000
0100
0010
0001
0100
,
0010
0100
0010
1000
0001
0010
0100
0010
0100
0010
0001
1000
0000
0000
0000
0000
;
