#TITLE:Danger & Danger;
#SUBTITLE:;
#ARTIST:Cranky;
#TITLETRANSLIT:;
#SUBTITLETRANSLIT:;
#ARTISTTRANSLIT:;
#GENRE:;
#CREDIT:;
#BANNER:banner.png;
#BACKGROUND:bg.png;
#LYRICSPATH:;
#CDTITLE:;
#MUSIC:Danger & Danger.ogg;
#OFFSET:-0.310000;
#SAMPLESTART:35.487946;
#SAMPLELENGTH:12.799999;
#SELECTABLE:YES;
#BPMS:0.000000=150.000000
;
#STOPS:
;
#BGCHANGES:;
#KEYSOUNDS:;
#ATTACKS:;

//---------------dance-single - FS XO FSDS- JA-----------------
#NOTES:
     dance-single:
     :
     Challenge:
     15:
     0.666077,0.749213,0.341502,0.355440,0.641186,669.000000,620.000000,49.000000,51.000000,31.000000,0.000000,0.666077,0.749213,0.341502,0.355440,0.641186,669.000000,620.000000,49.000000,51.000000,31.000000,0.000000:
0000
0000
0000
0000
,
0000
0000
0000
0000
,
0000
0000
0000
0000
,
0000
0000
0000
0000
,
0000
0000
0000
0000
,
0000
0000
0000
0000
0000
0000
0000
0000
0000
0000
0000
0000
0000
0000
0000
0000
0000
0000
0000
0000
0000
0001
1000
0001
,
2000
0000
0000
0000
3100
0000
0010
0001
0010
0000
0100
0000
1000
0000
0002
0000
,
0000
0000
0103
0000
0010
0000
1000
0000
0010
0000
0100
0000
0001
0000
1000
0100
,
2000
0000
0000
0000
3001
0000
0010
0001
0010
0000
0100
0000
1000
0000
0002
0000
,
0000
0000
1003
0000
0010
0000
0100
0000
0001
1000
0001
0000
0010
0000
0100
0000
,
1000
0000
0001
0100
0001
0000
0020
0000
0000
0000
0130
1000
0100
0000
0010
0000
,
0001
0000
1000
0100
1000
0000
0020
0000
0000
0000
0130
0001
0100
0000
0010
0000
,
1000
0000
0001
0010
0001
0000
1000
0010
1000
0000
0100
0000
0010
0000
1001
0000
,
0000
0000
1000
0000
0010
0000
0100
0000
1000
0000
0100
0001
0000
0100
0010
0000
,
1000
0000
0100
0000
1000
0010
0000
0100
1000
0000
0100
0000
0001
0000
1000
0000
,
1100
0000
0000
0001
0000
0000
0011
0000
0000
1000
0000
0000
0010
0000
0100
0000
,
0101
0000
0000
1000
0000
0000
1010
0000
0000
0001
0000
0000
0010
0000
0100
0000
,
1100
0000
0000
0000
0101
0000
1000
0010
0M00
0010
0001
0000
0010
0000
0100
0000
,
1000
0001
0000
0100
0010
0000
0100
1000
0000
0100
0001
0000
1000
0000
0010
0000
,
0101
0000
0000
1000
0000
0000
1010
0000
0000
0001
0000
0000
0010
0000
0100
0000
,
1100
0000
0000
0001
0000
0000
0011
0000
0000
1000
0000
0000
0010
0000
0100
0000
,
0101
0000
0000
0000
1010
0000
0001
0100
00M0
0100
0000
1000
0100
0000
0010
0000
,
0001
0000
0100
0000
0001
0010
0000
0100
0001
0000
0100
0000
1000
0000
0001
0000
,
0101
0000
0000
1000
0000
0000
1010
0000
0000
0001
0000
0000
0010
0000
0100
0000
,
1100
0000
0000
0001
0000
0000
0011
0000
0000
1000
0000
0000
0010
0000
0100
0000
,
0101
0000
0000
0000
1100
0000
0001
0010
0M00
0010
1000
0000
0010
0000
0100
0000
,
0001
1000
0000
0100
0010
0000
0100
0001
0000
0100
1000
0000
0001
0000
0010
0000
,
1100
0000
0000
0001
0000
0000
0011
0000
0000
1000
0000
0000
0010
0000
0100
0000
,
0101
0000
0000
1000
0000
0000
1010
0000
0000
0001
0000
0000
0010
0000
0100
0000
,
1100
0000
0000
0000
0011
0000
1000
0100
00M0
0100
0000
0001
0100
0000
0010
0000
,
2010
0000
0000
0000
3200
0000
0000
0300
,
0120
0000
0000
0000
0032
0000
0000
0003
,
2002
0000
0000
0000
0000
0000
0000
3003
,
0101
0000
0000
1100
0000
0000
2002
0000
0000
0000
0000
0000
3003
0000
0000
0000
,
1000
0000
0001
0000
0100
0000
0010
1000
0000
0010
1000
0000
0001
0000
1000
0100
,
1000
0000
0001
0100
0001
0000
0010
0001
0000
0010
0001
1000
0100
0000
1000
0001
,
0100
0000
0010
0000
1000
0000
0001
0100
0001
0100
0001
0000
1000
0000
0100
0010
,
0001
0000
0100
0000
0001
0000
1000
0100
1000
0100
1000
0000
0001
0010
0001
0000
,
1000
0010
1000
0000
0001
0100
00M0
0100
1000
0000
0100
0000
0010
0000
0001
0000
,
1000
0010
1000
0000
0001
0100
M000
0100
0010
0000
1000
0000
0010
0000
0001
0000
,
1000
0010
1000
0000
0001
0100
00M0
0100
1000
0000
0100
0000
0010
0000
0001
0000
,
1000
0100
1000
0000
0001
0100
M000
0100
0010
0000
1000
0000
0010
0000
0001
1000
,
0002
0000
0000
0000
0103
0000
0010
1000
0001
1000
0000
0000
0100
0000
0010
0000
,
0001
0100
0000
0001
1000
0000
0100
1000
0100
0010
0000
0001
1000
0000
0010
0000
,
1000
0000
0001
0010
0001
0010
0100
1000
0001
0000
0100
0000
0010
0000
0100
0001
,
1000
0000
0100
0010
0001
0010
0001
1000
0010
0000
0100
0000
0010
0000
0100
0000
,
0001
0010
0001
0000
1000
0100
00M0
0100
0001
0000
0100
0000
0010
0000
1000
0000
,
0001
0010
0001
0000
1000
0100
000M
0100
0010
0000
0001
0000
0010
0000
1000
0000
,
0001
0010
0001
0000
1000
0100
00M0
0100
0001
0000
0100
0000
0010
0000
1000
0000
,
0001
0100
0001
0000
1000
0100
000M
0100
0010
0000
0001
0000
0010
0000
1000
0000
,
0020
0000
0130
0001
2000
0000
3100
0010
,
0002
0000
0100
0000
0203
0000
0310
1000
,
0001
0100
00M0
0100
1000
0000
0001
0100
00M0
0100
1000
0000
0002
0000
0000
0000
,
1003
0010
0M00
0010
0001
0000
1000
0010
0M00
0010
0001
0000
1000
0000
0001
0000
,
0020
0000
0130
1000
0002
0000
0103
0010
,
2000
0000
0100
0000
3200
0000
0310
0001
,
1000
0100
00M0
0100
0001
0000
1000
0100
00M0
0100
0001
0000
2000
0000
0000
0000
,
3001
0010
0M00
0010
1000
0000
0001
0010
0M00
0010
1000
0000
0100
0000
0010
0001
,
2000
0000
0000
0000
3010
0000
0100
0001
2000
0000
0000
0000
3100
0000
0010
0001
,
2000
0000
0000
0000
0100
0000
0000
0000
3200
0000
0000
0000
0310
0000
0001
1000
,
0100
1000
0000
M100
0001
0000
010M
1000
0000
M100
0001
0000
1000
0000
0001
0100
,
0010
1000
0000
M010
0001
0000
001M
1000
0000
M010
0001
0000
0100
0000
0010
1000
,
0002
0000
0000
0000
0013
0000
0100
1000
0002
0000
0000
0000
0103
0000
0010
1000
,
0002
0000
0000
0000
0100
0000
0000
0000
0203
0000
0000
0000
0310
0000
1000
0001
,
0100
0001
0000
010M
1000
0000
M100
0001
0000
010M
1000
0000
0001
0000
0010
0100
,
1000
1000
0000
0001
0001
0000
0100
0100
0000
0000
0010
2000
0002
0000
3003
0000
,
1001
0000
1000
0000
0001
0010
0000
0100
0001
0000
0100
0000
1000
0000
0001
0000
,
0100
0000
0000
0010
0000
0000
0001
0000
0000
0010
0000
0000
1000
0000
0001
0000
,
0010
0000
0000
0100
0000
0000
0001
0000
0000
0100
0000
0000
1000
0000
0001
0000
,
0100
0000
0000
0010
0000
0000
0001
0000
0000
0010
0000
0000
0100
0000
0001
0000
,
1000
0000
0001
0100
0001
0000
0010
0000
0000
0100
1000
0000
0001
0000
0100
0000
,
0001
0000
1000
0100
1000
0000
0010
0000
0000
0100
0001
0000
1000
0000
0100
0000
,
1000
0000
0001
0100
0001
0000
0010
0000
0000
0100
1000
0000
0001
0000
0010
0000
,
0012
0000
0000
0000
1003
0000
0000
1100
0000
0101
0000
1000
0010
0000
0100
0000
,
0001
0000
0010
0000
0100
1000
0000
0100
0001
0000
0100
0000
0010
0000
0001
0000
,
0011
0000
0000
0010
0000
0000
2010
0000
0000
3002
0000
0000
0103
0000
1000
0000
,
1100
0000
0000
0100
0000
0000
0102
0000
0000
2003
0000
0000
3010
0000
0001
0000
,
0011
0000
0000
0000
1100
0000
0001
0010
0M00
0010
1000
0000
0010
0000
0100
0000
,
0001
1000
0000
0100
0010
0000
0100
0001
0000
0100
1000
0000
0001
0000
1000
0000
,
1010
0000
0000
0010
0000
0000
0012
0000
0000
2003
0000
0000
3100
0000
0001
0000
,
0101
0000
0000
0100
0000
0000
2100
0000
0000
3002
0000
0000
0013
0000
1000
0000
,
2001
0000
0000
0000
3001
0000
1000
0100
00M0
0100
0000
0001
0100
0000
0010
0000
,
2010
0000
0000
0000
3200
0000
0000
0300
,
0120
0000
0000
0000
0032
0000
0000
0003
,
2002
0000
0000
0000
,
0000
0000
0000
0000
,
3003
0000
0000
0000
;

//---------------dance-single - ----------------
#NOTES:
     dance-single:
     :
     Hard:
     14:
     0.600366,0.689276,0.195144,0.620278,0.487859,603.000000,575.000000,28.000000,89.000000,0.000000,0.000000,0.600366,0.689276,0.195144,0.620278,0.487859,603.000000,575.000000,28.000000,89.000000,0.000000,0.000000:
0000
0000
0000
0000
,
0000
0000
0000
0000
,
0000
0000
0000
0000
,
0000
0000
0000
0000
,
0000
0000
0000
0000
,
0000
0000
0000
0000
,
1002
0000
0000
0000
1003
0000
0001
0100
0001
0000
0010
0000
0100
0000
1000
0000
,
0000
0000
0001
0000
0100
0000
0010
0000
1000
0100
1000
0000
0001
0000
0010
0100
,
2000
0000
0000
0000
3001
0000
1000
0100
1000
0000
0010
0000
0100
0000
0001
0000
,
0000
0000
1000
0000
0100
0000
0010
0000
0001
0100
0001
0000
1000
0000
0010
0100
,
0001
1000
0100
0002
0000
0103
0010
0001
,
1000
0001
0100
2000
0000
3100
0010
1000
,
0001
0000
0010
0000
0100
0000
1000
0001
1000
0000
0010
0000
0100
0000
0110
0000
,
0000
0000
0001
0000
0010
0000
0100
0000
0001
0000
0100
0010
0000
0100
1000
0000
,
0001
0000
0010
0000
0100
1000
0000
1000
0010
0000
0100
0000
0001
0000
0020
0000
,
0001
0000
0000
0230
0000
0000
0001
0000
0000
2300
0000
0000
0010
0000
3020
0000
,
1000
0000
0000
0230
0000
0000
1000
0000
0000
0302
0000
0000
0010
0000
0013
0000
,
0011
0000
0000
0000
0011
0000
0000
1000
0010
0000
0001
0000
0010
0000
0100
0000
,
0001
1000
0000
1000
0010
0000
0100
0001
0000
0001
0010
0000
0100
0000
2000
0000
,
0001
0000
0000
3200
0000
0000
0001
0000
0000
0320
0000
0000
0001
0000
0032
0000
,
1000
0000
0000
0203
0000
0000
1000
0000
0000
0320
0000
0000
1000
0000
1030
0000
,
1010
0000
0000
0000
0011
0000
0000
1000
0000
1000
0000
0000
1100
0000
0001
0000
,
1000
0000
0010
0000
0100
0001
0000
0001
0010
0000
0100
0000
1000
0000
0020
0000
,
1000
0000
0000
0230
0000
0000
1000
0000
0000
0302
0000
0000
0010
0000
0023
0000
,
0001
0000
0000
0230
0000
0000
0001
0000
0000
2300
0000
0000
0010
0000
3010
0000
,
1010
0000
0000
0000
1010
0000
0000
0001
0010
0000
1000
0000
0010
0000
0100
0000
,
1000
0001
0000
0001
0010
0000
0100
1000
0000
1000
0010
0000
0100
0000
0002
0000
,
1000
0000
0000
0203
0000
0000
1000
0000
0000
0320
0000
0000
1000
0000
2030
0000
,
0001
0000
0000
3200
0000
0000
0001
0000
0000
0320
0000
0000
0001
0000
0031
0000
,
0011
0000
0000
0000
1010
0000
0000
0001
0000
0001
0000
0000
0101
0000
1000
0000
,
2001
0000
0200
3300
,
2002
3000
0200
0303
,
2002
0000
0000
3003
,
1010
0000
0000
0011
0000
0000
0210
0000
0000
0000
0000
0000
0000
0000
0000
0000
,
1300
0000
0100
0000
0010
0000
0001
0100
0001
0000
1000
0000
0010
0000
0100
0000
,
1000
0000
0100
0000
0001
0000
1000
0010
1000
0000
0100
0000
0010
0000
0001
0000
,
1000
0000
0100
0000
0001
0000
0100
0000
1000
0001
1000
0000
0010
0000
0100
0000
,
0001
0000
0010
0000
1000
0000
0010
0000
0001
0010
0100
0000
1000
0010
0100
0000
,
0001
1000
0001
0000
0010
0001
0000
0001
0100
0000
0010
0000
0100
0000
1000
0000
,
0100
0001
0100
0000
0001
1000
0000
1000
0100
0000
0001
0000
1000
0000
0010
0000
,
0001
1000
0001
0000
0100
0001
0000
0001
0010
0000
0100
0000
0010
0000
1000
0000
,
0010
0001
0010
0000
0001
1000
0000
1000
0010
0000
0001
0000
1000
0000
0100
0000
,
0002
0000
0000
0000
1003
0000
0100
0010
0100
0000
1000
0000
0001
0000
0100
0010
,
0100
0000
0001
0000
1000
0000
0100
0010
0100
0000
0001
0000
1000
0000
0010
0000
,
0001
0000
1000
0010
1000
0000
0001
0000
0010
0000
0100
0000
0001
0000
0100
0000
,
1000
0001
0100
1000
0001
0010
0100
0010
,
1000
0001
1000
0000
0010
1000
0000
1000
0100
0000
0010
0000
0100
0000
0001
0000
,
0100
1000
0100
0000
1000
0001
0000
0001
0100
0000
1000
0000
0001
0000
0010
0000
,
1000
0001
1000
0000
0100
1000
0000
1000
0010
0000
0100
0000
0010
0000
0001
0000
,
0010
1000
0010
0000
1000
0001
0000
0001
0010
0000
1000
0000
0001
0000
0100
0000
,
2000
0000
0000
0100
3002
0000
0000
0100
,
2003
0000
0100
0000
0100
0000
3100
0010
,
0001
1000
0000
0001
0100
0000
0001
1000
0000
0001
0100
0000
0010
0000
1000
0000
,
0001
0010
0000
0001
1000
0000
0001
0010
0000
0001
1000
0000
0010
0000
0100
0000
,
0002
0000
0000
0100
2003
0000
0000
0100
,
3002
0000
0100
0000
0100
0000
0103
0010
,
1000
0001
0000
1000
0100
0000
1000
0001
0000
1000
0100
0000
0010
0000
0001
0000
,
1000
0010
0000
1000
0001
0000
1000
0010
0000
1000
0001
0000
0010
0000
0100
0000
,
2000
0000
3002
0100
2003
0000
3002
0010
,
2003
0000
0000
0000
0010
0000
0000
0000
0010
0000
0000
0000
3010
0000
0100
0001
,
0100
0001
0000
1000
0010
0000
0100
0001
0000
1000
0010
0000
1000
0000
0100
1000
,
0100
1000
0000
0001
0010
0000
0100
1000
0000
0001
0010
0000
0100
0000
1000
0000
,
0002
0000
2003
0100
3002
0000
2003
0010
,
3002
0000
0000
0000
0010
0000
0000
0000
0010
0000
0000
0000
0013
0000
0100
1000
,
0100
1000
0000
0001
0010
0000
0100
1000
0000
0001
0010
0000
0100
0000
1000
0001
,
1000
0001
0000
1000
0001
0000
2000
0002
0000
0000
0000
0000
3003
0000
0000
0000
,
1000
0000
0010
0000
0100
0001
0000
0001
0010
0000
0100
0000
1000
0000
0002
0000
,
0100
0000
0000
0203
0000
0000
2300
0000
0000
3200
0000
0000
0301
0000
2000
0000
,
0100
0000
0000
3200
0000
0000
0302
0000
0000
0203
0000
0000
1300
0000
0002
0000
,
0100
0000
0000
0203
0000
0000
2300
0000
0000
3200
0000
0000
0301
0000
1000
0000
,
0100
0010
0100
0001
0100
0010
0001
1000
,
0010
0100
0001
0100
1000
0100
0010
1000
,
0001
0100
0010
0001
0010
1000
0001
0010
,
0220
0000
0000
0000
0330
0000
0000
1100
0000
0101
0000
1000
0001
0000
0100
0000
,
0001
0000
0010
0000
0100
1000
0000
1000
0010
0000
0100
0000
0001
0000
0020
0000
,
0001
0000
0000
0230
0000
0000
0001
0000
0000
0320
0000
0000
1030
0000
0020
0000
,
0001
0000
0000
0230
0000
0000
0001
0000
0000
0320
0000
0000
0031
0000
1000
0000
,
1001
0000
0000
0000
1001
0000
0000
0001
0010
0000
1000
0000
0010
0000
0100
0000
,
1000
0001
0000
0001
0010
0000
0100
1000
0000
1000
0010
0000
0100
0000
0020
0000
,
1000
0000
0000
0230
0000
0000
1000
0000
0000
0320
0000
0000
0031
0000
0020
0000
,
1000
0000
0000
0230
0000
0000
1000
0000
0000
0320
0000
0000
1030
0000
0001
0000
,
1001
0000
0000
0000
1001
0000
0000
1000
0000
1000
0000
0000
0100
0000
0010
0000
,
0022
0030
0200
0303
,
2020
0030
0200
3300
,
0220
0000
0000
0000
,
0000
0000
0000
0000
,
0330
0000
0000
0000
;

//---------------dance-single - ----------------
#NOTES:
     dance-single:
     :
     Medium:
     11:
     0.494829,0.599370,0.139388,0.299685,0.198628,497.000000,477.000000,20.000000,43.000000,0.000000,0.000000,0.494829,0.599370,0.139388,0.299685,0.198628,497.000000,477.000000,20.000000,43.000000,0.000000,0.000000:
// measure 0
0000
0000
0000
0000
,  // measure 1
0000
0000
0000
0000
,  // measure 2
0000
0000
0000
0000
,  // measure 3
0000
0000
0000
0000
,  // measure 4
0000
0000
0000
0000
,  // measure 5
0000
0000
0000
0000
,  // measure 6
1001
0000
0001
0100
0010
0100
1000
0100
,  // measure 7
0000
0001
1000
0001
0010
0100
1000
0000
,  // measure 8
1001
0000
1000
0100
0010
0100
0001
0100
,  // measure 9
0000
1000
0001
1000
0010
0100
0001
0000
,  // measure 10
1000
0100
1000
0020
0000
0130
0001
1000
,  // measure 11
0001
0100
0001
0020
0000
0130
1000
0001
,  // measure 12
1000
0100
1000
0020
0000
0130
0001
1001
,  // measure 13
0000
0000
0000
0000
0001
0000
0100
0000
1000
0000
0000
0100
0000
0000
0001
0000
,  // measure 14
1000
0100
0010
0000
1000
0010
0001
0010
,  // measure 15
0100
0000
0000
1000
0000
0000
0010
0000
0000
1000
0000
0000
0002
0000
0000
0000
,  // measure 16
0103
0000
0000
0001
0000
0000
0010
0000
0000
0001
0000
0000
2000
0000
0000
0000
,  // measure 17
3001
0000
0201
0000
0310
0001
0010
1000
,  // measure 18
0001
0000
0000
0100
0000
0000
0010
0000
0001
0000
0010
0000
1000
0000
0010
0000
,  // measure 19
0100
0000
0000
0001
0000
0000
0010
0000
0000
0001
0000
0000
2000
0000
0000
0000
,  // measure 20
3100
0000
0000
1000
0000
0000
0010
0000
0000
1000
0000
0000
0002
0000
0000
0000
,  // measure 21
1003
0000
1100
0000
0001
0100
1000
0100
,  // measure 22
0010
1000
0100
0010
1000
0010
0001
1000
,  // measure 23
0010
0000
0000
0100
0000
0000
1000
0000
0000
0100
0000
0000
0002
0000
0000
0000
,  // measure 24
0013
0000
0000
0100
0000
0000
0001
0000
0000
0100
0000
0000
2000
0000
0000
0000
,  // measure 25
3001
0000
0102
0000
0013
1000
0010
0001
,  // measure 26
1000
0001
0100
0010
0001
0010
1000
0001
,  // measure 27
0010
0000
0000
0100
0000
0000
0001
0000
0000
0100
0000
0000
2000
0000
0000
0000
,  // measure 28
3010
0000
0000
0100
0000
0000
1000
0000
0000
0100
0000
0000
0002
0000
0000
0000
,  // measure 29
1003
0000
2100
0000
3010
0001
0010
1000
,  // measure 30
0002
0000
0023
0000
,  // measure 31
0230
0000
2300
3000
,  // measure 32
2002
0000
3003
0000
,  // measure 33
1001
0000
0000
0110
0000
0000
1001
0000
0000
0000
0000
0000
0000
0000
0000
0000
,  // measure 34
1000
0001
0100
0000
1000
0100
0001
0000
,  // measure 35
1000
0100
0010
0100
0001
0100
1000
0000
,  // measure 36
0001
0100
0010
0000
0001
0010
1000
0000
,  // measure 37
0001
0010
0100
0010
1000
0001
0100
1000
,  // measure 38
0001
0100
0001
0100
0010
1000
0100
1000
,  // measure 39
0001
0010
0001
0010
0100
0001
0100
1000
,  // measure 40
0010
1000
0010
1000
0100
0010
0001
1000
,  // measure 41
0100
1000
0100
1000
0010
0001
0010
0100
,  // measure 42
0001
0000
1000
0100
0001
0000
1000
0010
,  // measure 43
0001
0000
1000
0000
0010
0000
0100
0000
0001
0000
0000
1000
0001
0000
0010
0000
,  // measure 44
0100
1000
0100
0010
1000
0010
0001
0000
,  // measure 45
1000
0010
0100
0010
0001
0010
0100
0001
,  // measure 46
1000
0100
1000
0100
0010
0001
0100
0001
,  // measure 47
1000
0010
1000
0010
0100
1000
0100
0001
,  // measure 48
0010
0001
0010
0001
0100
0010
1000
0001
,  // measure 49
0100
0001
0100
0001
0010
1000
0010
0100
,  // measure 50
2000
0000
0000
3001
0200
0000
0000
0310
,  // measure 51
2000
0000
0000
0000
3002
0000
0103
0001
,  // measure 52
1000
0100
1000
0010
1000
0100
1000
0010
,  // measure 53
0100
0001
0010
0001
0100
0001
0010
0100
,  // measure 54
2000
0000
0000
3001
0200
0000
0000
0310
,  // measure 55
2000
0000
0000
0000
3100
0000
0010
0001
,  // measure 56
0100
0001
0010
0001
0100
0001
0010
0100
,  // measure 57
1000
0010
1000
0100
1000
0010
0100
0001
,  // measure 58
0020
0000
0000
0130
2000
0000
0000
3010
,  // measure 59
2000
0000
0000
0000
3001
0000
0010
0001
,  // measure 60
1000
0100
0000
1000
0100
0000
1000
0100
0000
1000
0100
0000
0010
0000
0001
0000
,  // measure 61
1000
0010
0000
1000
0010
0000
1000
0010
0000
1000
0010
0000
0000
0000
0100
0000
,  // measure 62
0002
0000
0000
1003
0200
0000
0000
0310
,  // measure 63
0002
0000
0000
0000
0013
0000
0100
1000
,  // measure 64
0001
0100
0000
0001
0100
0000
0001
0100
0000
0001
0100
0000
0010
0000
1000
0000
,  // measure 65
0001
0010
0000
0001
0010
0000
0001
0010
0000
0000
0000
0000
0000
0000
0000
0000
,  // measure 66
2001
0000
3001
0100
0010
0100
0001
0000
,  // measure 67
1000
0000
0000
0100
0000
0000
0001
0000
0000
0100
0000
0000
1000
0000
0001
0000
,  // measure 68
0100
0000
0000
0010
0000
0000
0001
0000
0000
0010
0000
0000
0100
0000
0001
0000
,  // measure 69
0010
0000
0000
0100
0000
0000
0001
0000
0000
0100
0000
0000
1000
0000
1000
0000
,  // measure 70
0001
0000
0000
0100
0000
0000
1000
0000
0000
0100
0000
0000
0001
0000
1000
0000
,  // measure 71
0100
0000
0000
0010
0000
0000
1000
0000
0000
0010
0000
0000
0100
0000
1000
0000
,  // measure 72
0010
0000
0000
0100
0000
0000
1000
0000
0000
0100
0000
0000
0001
0000
1000
0000
,  // measure 73
2001
0000
0000
0000
0000
0000
0000
3100
0000
0010
0000
0000
0001
0000
1000
0000
,  // measure 74
0010
1000
0100
0010
1000
0010
0001
1000
,  // measure 75
0100
0000
0000
0001
0000
0000
0101
0000
0000
0100
0000
0000
0010
0000
0001
0000
,  // measure 76
0100
0000
0000
1000
0000
0000
1100
0000
0000
0100
0000
0000
0010
0000
1000
0000
,  // measure 77
0001
0000
1002
0000
0013
1000
0010
0100
,  // measure 78
1000
0001
0100
0010
0001
0010
1000
0001
,  // measure 79
0100
0000
0000
1000
0000
0000
1100
0000
0000
0100
0000
0000
0010
0000
1000
0000
,  // measure 80
0100
0000
0000
0001
0000
0000
0101
0000
0000
0100
0000
0000
0010
0000
0001
0000
,  // measure 81
1000
0000
2001
0000
3010
0001
0010
1000
,  // measure 82
0002
0000
0023
0000
,  // measure 83
0230
0000
2300
3000
,  // measure 84
2002
0000
0000
0000
,  // measure 85
0000
0000
0000
0000
,  // measure 86
3003
0000
0000
0000
;
