#VERSION:0.83;
#TITLE:Dance Till Dawn;
#SUBTITLE:;
#ARTIST:lixound;
#TITLETRANSLIT:;
#SUBTITLETRANSLIT:;
#ARTISTTRANSLIT:;
#GENRE:;
#ORIGIN:;
#CREDIT:;
#BANNER:banner.png;
#BACKGROUND:bg.png;
#PREVIEWVID:;
#JACKET:jacket.png;
#CDIMAGE:;
#DISCIMAGE:;
#LYRICSPATH:;
#CDTITLE:;
#MUSIC:Dance Till Dawn.ogg;
#OFFSET:0.937000;
#SAMPLESTART:36.220318;
#SAMPLELENGTH:12.387096;
#SELECTABLE:YES;
#BPMS:0.000=155.000;
#STOPS:;
#DELAYS:;
#WARPS:;
#TIMESIGNATURES:0.000=4=4;
#TICKCOUNTS:0.000=4;
#COMBOS:0.000=1;
#SPEEDS:0.000=1.000=0.000=0;
#SCROLLS:0.000=1.000;
#FAKES:;
#LABELS:0.000=Song Start;
#BGCHANGES:;
#KEYSOUNDS:;
#ATTACKS:
;

//---------------dance-single - DS FS XO----------------
#NOTEDATA:;
#CHARTNAME:;
#STEPSTYPE:dance-single;
#DESCRIPTION:DS FS XO;
#CHARTSTYLE:;
#DIFFICULTY:Challenge;
#METER:15;
#RADARVALUES:0.643672,0.874490,0.241526,0.582993,0.820355,541.000000,512.000000,29.000000,70.000000,14.000000,0.000000,2.000000,0.000000,0.000000,0.643672,0.874490,0.241526,0.582993,0.820355,541.000000,512.000000,29.000000,70.000000,14.000000,0.000000,2.000000,0.000000,0.000000;
#CREDIT:Kingly;
#NOTES:
// measure 0
0000
0000
0000
0000
,  // measure 1
0000
0000
0000
0000
,  // measure 2
0000
0000
0000
0000
,  // measure 3
0000
0000
0000
0000
,  // measure 4
0000
0000
0000
0000
,  // measure 5
2000
0010
0000
3002
0100
0000
2003
0010
0000
3001
0100
0000
1000
0000
0100
0000
,  // measure 6
0002
0010
0000
2003
0100
0000
3002
0010
0000
1003
0100
0000
0001
0000
0100
0000
,  // measure 7
2000
0010
0000
3001
0100
0000
1010
0000
0000
0001
0010
0000
0100
1000
0100
1000
,  // measure 8
0002
0010
0000
1003
0100
0000
0010
0000
0001
1000
0001
1000
0010
0000
0100
0000
,  // measure 9
0101
0000
1100
0000
0201
0000
0310
1000
,  // measure 10
1020
0000
0000
0000
0000
0000
0130
0000
0000
0001
0000
0000
1000
0000
0100
00M0
0100
0000
0001
0000
0100
00M0
0100
0000
,  // measure 11
1000
0000
0101
0000
1200
0000
0310
0001
,  // measure 12
0021
0000
0000
0130
010M
0100
2000
0000
0000
3001
0000
0000
,  // measure 13
1100
0000
0101
0000
1200
0000
0310
0001
,  // measure 14
0021
0000
0000
0000
0000
0000
0130
0000
0000
1000
0000
0000
0001
0000
0100
00M0
0100
0000
1000
0000
0100
00M0
0100
0000
,  // measure 15
0001
0000
0000
0000
1100
0000
0000
0000
0101
0000
0000
0000
1001
0000
1000
0100
,  // measure 16
0020
0000
0000
0032
0000
0000
2003
0000
0000
3010
0100
0010
0100
0000
0001
0000
,  // measure 17
2000
0010
0000
3002
0100
0000
2003
0010
0000
3001
0100
0000
1000
0000
0100
0000
,  // measure 18
0002
0010
0000
2003
0100
0000
3002
0010
0000
1003
0100
0000
0001
0000
0100
0000
,  // measure 19
2000
0010
0000
3002
0100
0000
2003
0010
0000
3001
0100
0000
1000
0000
0100
0000
,  // measure 20
0101
0000
1000
0100
0000
1000
0010
0M00
0010
0001
0000
1000
,  // measure 21
0002
0010
0000
2003
0100
0000
3002
0010
0000
1003
0100
0000
0001
0000
0100
0000
,  // measure 22
2000
0010
0000
3001
0100
0000
0010
0000
1010
0000
0000
0000
0101
0000
0000
0000
,  // measure 23
1000
0000
0000
0001
0010
0001
0010
0000
0000
0100
1000
0100
1000
0000
0000
0001
0000
0000
0100
0000
0000
0010
0000
0000
,  // measure 24
2000
0000
0000
0000
,  // measure 25
3001
0000
1000
0010
0000
1000
0100
0010
0000
0001
0000
0000
1000
0000
0010
0000
,  // measure 26
0100
0001
1000
0100
00M0
0100
0001
0100
0000
0010
0000
0000
0001
0000
0010
0000
,  // measure 27
1000
0000
0001
0100
0000
0001
0010
0000
0100
1000
0000
0001
0100
0000
0010
0000
,  // measure 28
2000
0000
0000
3200
0000
0000
0302
0000
0000
0203
0000
0000
0320
0000
0032
0000
,  // measure 29
1003
0000
0001
0010
0000
0001
0100
0010
0000
1000
0000
0000
0001
0000
0010
0000
,  // measure 30
0100
1000
0001
0100
00M0
0100
1000
0100
0000
0010
0000
0000
1000
0000
0010
0000
,  // measure 31
0001
0000
1000
0100
0000
1000
0010
0000
0100
0001
0000
1000
0100
0000
0010
0000
,  // measure 32
0001
0000
0000
0000
0000
0000
1000
0000
0100
0000
0000
00M0
0000
0000
0100
0000
0001
0000
0000
0000
0001
0000
0000
0000
1000
0000
0010
0000
0100
0000
0001
0000
,  // measure 33
1000
0000
0001
0010
0000
0001
0100
0010
0000
1000
0000
0000
0001
0000
0010
0000
,  // measure 34
0100
1000
0001
0100
00M0
0100
1000
0100
0000
0010
0000
0000
1000
0000
0010
0000
,  // measure 35
0001
0000
1000
0100
0000
1000
0010
0000
0100
0001
0000
1000
0100
0000
0010
0000
,  // measure 36
0002
0000
0000
0203
0000
0000
2300
0000
0000
3200
0000
0000
0320
0000
1030
0000
,  // measure 37
2010
3001
0012
1003
,  // measure 38
2100
0000
0000
3001
0100
0000
0101
0000
1000
0010
1000
0010
0100
0001
0010
0001
,  // measure 39
2000
0010
0000
3001
0100
0000
0010
0000
1000
0000
1000
0000
0001
0010
0001
0010
,  // measure 40
0100
1000
0001
0100
0010
1000
0100
1000
0001
0010
0100
4000
0004
0000
3003
0000
,  // measure 41
1002
0000
0000
0000
,  // measure 42
0203
0000
0000
0000
,  // measure 43
0320
0000
0000
0000
,  // measure 44
2030
0000
0000
0000
,  // measure 45
3002
0000
0000
0000
,  // measure 46
0023
0000
0000
0000
,  // measure 47
0230
0000
0000
0000
,  // measure 48
2300
0000
0000
0000
0000
0000
0000
3000
,  // measure 49
1002
0000
0000
0000
0000
0000
0010
0010
,  // measure 50
0020
0030
0020
0000
0000
0000
0033
0000
,  // measure 51
2001
0000
0000
0000
0000
0000
0000
0010
,  // measure 52
0020
0030
0020
0030
0020
0000
3030
0000
,  // measure 53
0101
0000
0000
0000
1100
0000
0001
0010
,  // measure 54
0012
1003
2010
3001
,  // measure 55
1000
0000
0000
0001
0100
0001
0100
0000
0000
0010
1000
0010
1000
0000
0000
0001
0000
0000
0010
0000
0000
0100
0000
0000
,  // measure 56
2000
0000
0000
0000
0000
0000
0000
0000
3001
0100
0001
0000
1000
0100
0010
0001
,  // measure 57
1000
0100
1000
0010
0000
0100
0001
0010
0000
0001
0000
1000
0010
0000
0100
0000
,  // measure 58
0001
1000
0001
0100
00M0
0100
1000
0100
0010
0000
0001
1000
0010
0000
1000
0000
,  // measure 59
0001
0100
0001
0010
0000
0100
1000
0010
0000
1000
0000
0001
0010
0000
0100
0000
,  // measure 60
1000
0000
1000
0000
0001
0000
0001
0000
0100
0010
0100
0010
1000
0000
0001
0000
,  // measure 61
0010
0M00
0010
1000
0000
0001
0010
0000
0100
0010
0000
0100
0001
0000
0100
1000
,  // measure 62
0000
0100
0010
0000
0001
1000
0000
0010
1000
0000
0010
0100
0000
0001
0100
0000
,  // measure 63
1000
0000
0100
0010
0000
1000
0010
0M00
0010
0001
0000
1000
0100
0000
0010
0001
,  // measure 64
0000
1000
0010
0000
0100
0001
0000
0010
0001
0000
0001
0000
1000
0000
1000
0000
,  // measure 65
0200
0000
0000
0000
,  // measure 66
0320
0000
0000
0000
,  // measure 67
0032
0000
0000
0000
,  // measure 68
2003
0000
0000
0000
0000
0000
0000
0000
0000
0000
0000
0000
3001
0000
0001
1000
,  // measure 69
0010
0M00
0010
0001
0000
1000
0010
0000
0100
0010
0000
0100
1000
0000
0100
0001
,  // measure 70
0000
0100
0010
0000
1000
0001
0000
0010
0001
0000
0010
0100
0000
1000
0100
0000
,  // measure 71
1000
0000
0001
0010
0000
0001
0100
0010
0000
1000
0000
0000
0001
0010
0001
0010
,  // measure 72
0100
0000
0000
0000
0000
0000
1000
0000
0001
0000
1000
0000
0001
0000
0000
0000
0000
0000
0100
0000
0000
0000
0000
0000
0010
0000
0000
1000
0000
0000
0010
0000
0000
1000
0000
0000
0001
0000
0000
0000
0000
0000
0010
0000
0000
0000
0000
0000
,  // measure 73
0200
0000
0000
0000
,  // measure 74
1300
0100
0010
0001
1000
0010
1000
0001
0100
0001
0010
0001
1000
0100
1000
0010
,  // measure 75
0100
0000
0000
0000
;

//---------------dance-single - ----------------
#NOTEDATA:;
#CHARTNAME:;
#STEPSTYPE:dance-single;
#DESCRIPTION:;
#CHARTSTYLE:;
#DIFFICULTY:Hard;
#METER:13;
#RADARVALUES:0.562767,0.718331,0.199883,0.349796,0.537187,473.000000,449.000000,24.000000,42.000000,1.000000,0.000000,0.000000,0.000000,0.000000,0.562767,0.718331,0.199883,0.349796,0.537187,473.000000,449.000000,24.000000,42.000000,1.000000,0.000000,0.000000,0.000000,0.000000;
#CREDIT:Kingly;
#NOTES:
0000
0000
0000
0000
,
0000
0000
0000
0000
,
0000
0000
0000
0000
,
0000
0000
0000
0000
,
0000
0000
0000
0000
,
1000
0100
0000
1000
0100
0000
1000
0100
0000
1000
0100
0000
0020
0000
0000
0000
,
0031
0100
0000
0001
0100
0000
0001
0100
0000
0001
0100
0000
0020
0000
0000
0000
,
1030
0001
0000
1000
0001
0000
0010
0001
0000
1000
0010
0000
0100
0001
0100
0000
,
0010
1000
0000
0001
0010
0000
0100
0000
0010
0000
0001
0000
1000
0000
0000
0000
,
1001
0000
0110
0000
1001
0000
1000
0100
,
1000
0000
0000
0000
0000
0000
0001
0000
0000
0100
0000
0000
0001
0000
1000
0000
0100
0000
0010
0000
0001
0000
1000
0000
,
0001
0000
0110
0000
1001
0000
0001
0100
,
0001
0000
0000
1000
0100
0010
0002
0000
0000
1003
0000
0000
,
1001
0000
0110
0000
1001
0000
0001
0100
,
0001
0000
0000
0000
0000
0000
1000
0000
0000
0100
0000
0000
1000
0000
0001
0000
0100
0000
0010
0000
1000
0000
0001
0000
,
1000
1010
0101
1100
,
0021
0000
0000
0230
0000
0000
2300
0000
0000
3002
0000
0000
0103
0000
0010
0000
,
1000
0001
0000
1000
0100
0000
1000
0001
0000
1000
0100
0000
0020
0000
0000
0000
,
0031
1000
0000
0001
0100
0000
0001
1000
0000
0001
0100
0000
0020
0000
0000
0000
,
1030
0100
0000
1000
0001
0000
1000
0100
0000
1000
0001
0000
0200
0000
0000
0000
,
0310
0000
0010
1000
0000
1000
0001
0000
0001
0010
0000
0010
,
0100
1000
0000
0100
0010
0000
0100
1000
0000
0100
0010
0000
0002
0000
0000
0000
,
0103
0001
0000
0100
0010
0000
1000
0000
1001
0000
0000
0000
0110
0000
0000
0000
,
1000
0001
0000
1000
0001
0000
0010
0000
0100
0000
1000
0000
0001
0000
0100
0000
,
0020
0000
0000
0000
,
1030
0000
0001
0100
0000
0001
0100
0000
0010
0000
0100
0000
0001
0000
1000
0000
,
0001
0000
0010
0100
0000
0100
0010
0000
0001
0000
1000
0000
0010
0000
0100
0000
,
0001
0000
1000
0100
0000
1000
0100
0000
0010
0000
0100
0000
1000
0000
0001
0000
,
0200
0000
0000
0320
0000
0000
0032
0000
0000
0023
0000
0000
2030
0000
0000
0000
,
3001
0000
1000
0100
0000
1000
0100
0000
0010
0000
0100
0000
1000
0000
0001
0000
,
1000
0000
0010
0100
0000
0100
0010
0000
1000
0000
0001
0000
0010
0000
0100
0000
,
1000
0000
0001
0100
0000
0001
0100
0000
0010
0000
0100
0000
0001
0000
1000
0000
,
0200
0000
0320
0000
0031
0001
1000
1000
,
0001
0000
1000
0100
0000
1000
0100
0000
0010
0000
0100
0000
1000
0000
0001
0000
,
1000
0000
0010
0100
0000
0100
0010
0000
1000
0000
0001
0000
0010
0000
0100
0000
,
1000
0000
0001
0100
0000
0001
0100
0000
0010
0000
0100
0000
0001
0000
1000
0000
,
0200
0000
0000
0320
0000
0000
2030
0000
0000
3020
0000
0000
0031
0000
0000
0000
,
1002
0103
2001
3100
,
1002
0000
0000
0000
0103
0000
0010
0000
1000
0001
1000
0000
0001
1000
0001
0000
,
0010
0100
0000
0010
0100
0000
1000
0000
0100
0000
0010
0000
0001
1000
0001
0000
,
0100
0000
0010
0000
1000
0000
0100
0000
0010
0000
0001
0000
1000
0010
1000
0010
,
0200
0000
0000
0000
,
0302
0000
0000
0000
,
2003
0000
0000
0000
,
3200
0000
0000
0000
,
0320
0000
0000
0000
,
0032
0000
0000
0000
,
0203
0000
0000
0000
,
0020
0000
0000
0330
,
1001
0000
0000
0000
0000
0000
0001
0100
,
0010
0110
0000
0000
,
1001
0000
0000
0000
0000
0000
0000
1000
,
0100
0010
0100
0000
,
1001
0000
0110
0000
,
1001
0100
1001
0000
,
1000
0000
0001
0100
0001
0000
1000
0100
1000
0000
0001
0000
0100
0000
0010
0000
,
2000
0000
0000
0000
,
3001
0000
0010
0100
0000
0010
0001
0000
1000
0000
0010
0000
1000
0000
0100
0000
,
0010
0000
0001
1000
0000
1000
0010
0000
0100
0000
0010
0000
1000
0000
0100
0000
,
1000
0000
0010
0100
0000
0010
1000
0000
0001
0000
0010
0000
0001
0000
1000
0000
,
0010
0000
0010
0000
0100
0000
0100
0000
0001
1000
0001
1000
0001
0000
0010
0000
,
0100
0000
1000
0100
0000
1000
0100
0000
0010
0001
0000
0010
0001
0000
1000
0010
,
0000
1000
0010
0000
0100
0001
0000
0100
0001
0000
0010
0100
0000
0010
0100
0000
,
1000
0000
0001
0100
0000
0001
1000
0000
0100
1000
0000
0010
1000
0000
0001
0010
,
0000
0001
1000
0000
0100
1000
0000
0100
0010
0000
0001
0000
0001
0000
1000
0000
,
2000
0000
0000
0000
,
3020
0000
0000
0000
,
0230
0000
0000
0000
,
0302
0000
0000
0000
0000
0000
0000
0000
0000
0000
0000
0000
0013
0000
0001
1000
,
0001
0100
0000
0001
0010
0000
0001
0100
0000
0001
0010
0000
0200
0000
0000
0000
,
1300
0010
0000
1000
0100
0000
1000
0010
0000
1000
0100
0000
0020
0000
0000
0000
,
0031
1000
0000
0010
0100
0000
0001
1000
0000
0100
0010
0000
0001
0000
0001
0000
,
1000
0100
00M0
0100
0001
0000
0100
0000
0010
1000
0010
1000
0001
0000
0010
0000
,
0002
0000
0000
0000
,
0103
0010
0100
0000
0001
0000
1000
0000
0100
0010
0100
0000
1000
0001
1000
0001
,
1000
0000
0000
0000
;

//---------------dance-single - ----------------
#NOTEDATA:;
#CHARTNAME:;
#STEPSTYPE:dance-single;
#DESCRIPTION:;
#CHARTSTYLE:;
#DIFFICULTY:Medium;
#METER:9;
#RADARVALUES:0.397387,0.499709,0.133256,0.424752,0.170734,334.000000,318.000000,16.000000,51.000000,0.000000,0.000000,0.000000,0.000000,0.000000,0.397387,0.499709,0.133256,0.424752,0.170734,334.000000,318.000000,16.000000,51.000000,0.000000,0.000000,0.000000,0.000000,0.000000;
#CREDIT:Kingly;
#NOTES:
0000
0000
0000
0000
,
0000
0000
0000
0000
,
0000
0000
0000
0000
,
0000
0000
0000
0000
,
0000
0000
0000
0000
,
1001
0000
0001
0100
0000
0001
1000
0000
,
1001
0000
1000
0100
0000
1000
0001
0000
,
0101
0000
0100
0010
0000
0010
1000
0000
,
1001
0000
0001
1000
0001
1000
0001
0000
,
0020
0000
0230
0000
2300
0000
3001
0100
,
0002
0000
1003
0010
2000
0000
3200
0000
,
0320
0000
0230
0000
2300
0000
3001
0100
,
0001
0020
0230
2300
,
3020
0000
0230
0000
0302
0000
1003
0100
,
1000
0000
0001
0010
0002
0000
0203
0000
,
0320
0000
0230
0000
0302
0000
1003
0100
,
0010
0000
0000
0001
0000
0000
0010
0000
0000
0100
0000
0000
1000
0000
0000
0000
,
1001
0000
1000
0100
0000
1000
0001
0000
,
1001
0000
0001
0100
0000
0001
1000
0000
,
1100
0000
0100
0010
0000
0010
0001
0000
,
1001
1010
0110
0101
,
1001
0000
0001
0010
0000
0001
1000
0000
,
1001
0000
1000
0010
0200
0000
0302
0000
,
1003
0100
1000
0100
0010
0001
0010
0001
,
2000
0000
0000
0000
,
3010
0000
0000
0100
0000
0000
0001
0000
0000
0100
0000
0000
0010
0000
1000
0000
,
0001
0000
0010
0000
0001
0000
0000
0100
0000
0000
0001
0000
1000
0000
0100
0000
,
0010
0000
0000
0100
0000
0000
1000
0000
0000
0100
0000
0000
0010
0000
0001
0000
,
1000
0000
0000
0010
0000
0000
0001
0000
0000
0010
0000
0000
1000
0000
0001
0000
,
0010
0000
0000
0100
0000
0000
1000
0000
0000
0100
0000
0000
0010
0000
0001
0000
,
1000
0000
0010
0000
1000
0000
0000
0100
0000
0000
1000
0000
0001
0000
0100
0000
,
0010
0000
0000
0100
0000
0000
0001
0000
0000
0100
0000
0000
0010
0000
1000
0000
,
0001
0010
0001
0010
0100
1000
0100
1000
,
0010
0000
0000
0100
0000
0000
0001
0000
0000
0100
0000
0000
0010
0000
1000
0000
,
0001
0000
0010
0000
0001
0000
0000
0100
0000
0000
0001
0000
1000
0000
0100
0000
,
0010
0000
0000
0100
0000
0000
1000
0000
0000
0100
0000
0000
0010
0000
0001
0000
,
1000
0000
0000
0010
0000
0000
0001
0000
0000
0010
0000
0000
1000
0000
0001
0000
,
2001
3100
1002
0103
,
1001
0000
1000
0100
0010
0001
0010
0001
,
1000
0010
1000
0010
0100
0001
2000
0000
,
3100
0010
0001
0010
0100
1000
0020
0000
,
0230
0000
0000
0000
,
0302
0000
0000
0000
,
2003
0000
0000
0000
,
3200
0000
0000
0000
,
0320
0000
0000
0000
,
0032
0000
0000
0000
,
2003
0000
0000
0000
,
3020
0000
0000
0000
,
0230
0000
0000
0000
0000
0000
0301
1000
,
0001
2000
0000
0000
,
3200
0000
0000
0000
0000
0000
0000
1300
,
0001
1000
0002
0000
,
0203
0000
0320
0000
,
2030
0000
3002
0000
,
0013
0100
1000
0100
0010
0001
0010
0001
,
2000
0000
0000
0000
,
3001
0000
0000
0100
0000
0000
0010
0000
0000
0100
0000
0000
0002
0000
0000
0000
,
1003
0000
0100
0000
1000
0000
0000
0010
0000
0000
0100
0000
0001
0000
1000
0000
,
0001
0000
0000
0010
0000
0000
0100
0000
0000
0010
0000
0000
0002
0000
0000
0000
,
1003
0010
1000
0010
0100
0001
0010
0100
,
1000
0000
0000
0100
0000
0000
0010
0000
0000
0100
0000
0000
0001
0000
0000
0100
,
0000
0000
0010
0000
0000
0001
0000
0000
1000
0000
0000
0010
0000
0000
0100
0000
,
1000
0000
0000
0100
0000
0000
0001
0000
0000
1000
0000
0000
0100
0000
0000
0010
,
0000
0000
0001
0000
0000
0010
0000
0000
0100
0000
0000
1000
0000
0000
0001
0000
,
0200
0000
0000
0000
,
0320
0000
0000
0000
,
2030
0000
0000
0000
,
3002
0000
0000
0000
,
0013
0000
0000
0100
0000
0000
1000
0000
0000
0100
0000
0000
0001
0000
0000
0100
,
0000
0000
0010
0000
0000
0001
0000
0000
1000
0000
0000
0010
0000
0000
0100
0000
,
0001
1000
0001
0010
0000
0100
1000
0100
,
0010
0001
1000
0001
1000
0010
0100
0001
,
2000
0000
0000
0000
,
3100
0010
0100
0010
0001
1000
0001
1000
,
0001
0000
0000
0000
;
