#VERSION:0.83;
#TITLE:DENIZEN;
#SUBTITLE:;
#ARTIST:ZST "CYLOUD";
#TITLETRANSLIT:;
#SUBTITLETRANSLIT:;
#ARTISTTRANSLIT:;
#GENRE:;
#ORIGIN:;
#CREDIT:;
#BANNER:DENIZEN.png;
#BACKGROUND:DENIZEN-bg.png;
#PREVIEWVID:;
#JACKET:DENIZEN-jacket.png;
#CDIMAGE:;
#DISCIMAGE:;
#LYRICSPATH:;
#CDTITLE:;
#MUSIC:DENIZEN.ogg;
#OFFSET:-1.868475;
#SAMPLESTART:31.391024;
#SAMPLELENGTH:15.000000;
#SELECTABLE:YES;
#BPMS:0.000=130.000;
#STOPS:;
#DELAYS:;
#WARPS:;
#TIMESIGNATURES:0.000=4=4;
#TICKCOUNTS:0.000=4;
#COMBOS:0.000=1;
#SPEEDS:0.000=1.000=0.000=0;
#SCROLLS:0.000=1.000;
#FAKES:;
#LABELS:0.000=Song Start;
#BGCHANGES:;
#KEYSOUNDS:;
#ATTACKS:
;

//---------------dance-single - ----------------
#NOTEDATA:;
#CHARTNAME:;
#STEPSTYPE:dance-single;
#DESCRIPTION:;
#CHARTSTYLE:;
#DIFFICULTY:Hard;
#METER:13;
#RADARVALUES:0.539109,0.571662,0.399763,0.239858,0.383773,472.000000,422.000000,50.000000,30.000000,0.000000,0.000000,0.000000,0.000000,0.000000,0.539109,0.571662,0.399763,0.239858,0.383773,472.000000,422.000000,50.000000,30.000000,0.000000,0.000000,0.000000,0.000000,0.000000;
#CREDIT:;
#NOTES:
0000
0000
0000
0000
,
0000
0000
0000
0000
,
0000
0000
0000
0000
,
0000
0000
0000
0000
,
2001
0100
0001
0100
,
0010
0000
0000
0000
0100
0000
0000
0000
3001
0000
0000
0001
0100
0000
0001
0000
,
1002
0100
1000
0100
,
0010
1000
0103
0110
,
0010
1000
0100
0000
0100
1000
0001
0000
,
0010
0001
0100
0000
0100
0001
1000
0000
,
0010
1000
0100
0000
0010
0001
0100
0001
,
0010
1100
0101
0110
,
0010
0000
1000
0000
0001
0000
0010
0000
0100
0000
0000
1000
0100
0000
0000
0100
,
0010
0000
0000
0010
0001
0000
0000
0001
0100
0000
0000
0100
0010
0000
0000
0010
,
1000
0000
0010
0000
0100
0000
0001
0000
0010
0000
0100
0000
1000
0001
1000
0002
,
0000
0000
0000
0003
,
1000
0000
0000
1000
0000
0000
0100
0000
0000
0100
0000
0000
0001
0000
0000
0001
,
0000
0000
0100
0000
0000
0100
0000
0000
2000
0000
3002
0000
0203
0000
0320
0000
,
1030
0000
0000
1000
0010
0000
0100
0000
0001
0100
0000
0000
1001
0000
0000
0001
,
0010
0000
0100
0000
1000
0100
0000
0000
0010
0000
0000
0001
0000
0100
0010
0000
,
1000
0000
0000
1000
0001
0000
0100
0000
0010
1000
0000
0000
1001
0000
0000
1000
,
0100
0000
0010
0000
0001
0010
0000
0000
0100
0000
0000
1000
0000
0000
0110
0000
,
0001
0000
0000
0001
0100
0000
0010
0000
1000
0010
0000
0000
0100
0000
0000
0001
,
2000
0000
3200
0000
0310
0001
0000
0010
0200
0000
0300
1000
0100
0010
0001
1000
,
0001
0100
1000
0100
0001
0100
0110
1000
,
0001
0010
1000
0010
0002
0023
0230
2300
,
3010
0100
0001
0100
0010
1000
1001
0001
,
0010
0000
0100
0000
1000
0000
0100
0000
0010
0000
0100
1000
0001
0000
1000
0001
,
0100
0010
1000
0010
0100
0001
0011
0010
,
0100
0010
0001
0010
0100
1000
1010
0010
,
1000
0000
0000
1100
0000
0000
0001
0000
0000
0011
0000
0000
0001
0000
0000
0101
,
0000
0000
1000
0000
0000
1010
0000
0000
0020
0000
0000
0200
0000
0000
0330
0000
,
1001
1001
0101
0101
,
0011
0000
0000
0000
0011
0000
0000
0000
0110
0000
0000
0010
0100
0000
1000
0000
,
1001
1001
1100
1100
,
1010
0000
0000
0000
1010
0000
0000
0010
0100
0000
0100
0000
0001
0000
1000
0000
,
1100
1001
0011
1001
,
0101
0000
0000
0000
0110
0000
0000
0000
1010
0000
0000
1000
0010
0000
0100
0000
,
0101
1001
1010
1001
,
1100
0000
0000
0000
0011
0000
0000
0010
0100
0000
1000
0000
0001
0010
0001
0010
,
0100
1000
0100
1000
0001
0100
0001
0100
,
0010
1000
0010
1000
0001
0010
2000
0000
,
3010
0001
0010
0001
1000
0010
1000
0010
,
0100
0001
0100
0001
1000
0100
0002
0000
,
0103
0100
1000
1000
0001
0001
0201
0000
,
0310
0010
1000
1000
0001
0001
0021
0000
,
0130
1000
0100
0010
0001
2000
0000
0010
,
3001
0110
1001
0110
,
1000
0000
1000
0000
0001
0100
0001
0000
0001
0000
1000
0100
,
1000
0000
1000
0000
0100
0010
0001
0000
0010
0200
0000
0000
,
1300
0000
1000
0010
0000
0010
0100
0000
0100
0001
0000
1000
,
0001
0000
0001
0010
0000
0010
0100
0000
0100
1000
0100
0010
,
0001
0000
1000
0001
0000
0100
0001
0000
0001
0010
0000
0100
,
1000
0000
0001
1000
0000
0010
1000
0000
1000
0000
0001
0100
,
0010
0000
0010
1000
0000
0001
0010
0000
0010
0001
0000
1000
,
0100
0000
0000
0000
0000
0000
0000
0000
0010
0000
0000
0000
0100
0000
0000
0000
0000
0000
0000
0000
0010
0000
0000
0000
0002
0000
0000
0000
0000
0000
0003
0000
0000
2000
0000
0000
0000
0000
0000
3000
0000
0000
0002
0000
0000
0000
0000
0000
,
0103
0000
0000
0100
0001
0000
0000
1000
0010
0000
0100
0000
0110
0000
1000
0000
,
0100
0000
0000
0100
1000
0000
0000
1000
0001
0000
0001
0000
2000
0000
3200
0000
,
0310
0000
0000
0010
0001
0000
0000
1000
0100
0000
0010
0000
0110
0000
0001
0000
,
0100
0000
0000
0100
0001
0000
0000
0001
1000
0000
1000
0000
0002
0000
0023
0000
,
0130
0000
1000
0000
0001
0000
1000
0000
0100
0000
1000
0000
0001
0000
0010
0001
,
0100
0000
0001
0000
1000
0000
0001
0000
0100
0000
0001
0000
0010
0000
0010
0100
,
1000
0000
0000
0100
0010
0000
0010
0001
1000
0000
0000
0010
0100
0000
0100
0010
,
1000
0000
1000
0000
0001
0000
0001
0000
0010
0001
0010
0001
1000
0000
0100
0000
,
0002
0000
0000
0000
,
0003
0000
0000
0000
;

//---------------dance-single - ----------------
#NOTEDATA:;
#CHARTNAME:;
#STEPSTYPE:dance-single;
#DESCRIPTION:;
#CHARTSTYLE:;
#DIFFICULTY:Challenge;
#METER:15;
#RADARVALUES:0.692162,0.805523,0.375778,0.231863,0.875482,606.000000,559.000000,47.000000,29.000000,0.000000,0.000000,0.000000,0.000000,0.000000,0.692162,0.805523,0.375778,0.231863,0.875482,606.000000,559.000000,47.000000,29.000000,0.000000,0.000000,0.000000,0.000000,0.000000;
#CREDIT:;
#NOTES:
// measure 0
0000
0000
0000
0000
,  // measure 1
0000
0000
0000
0000
,  // measure 2
0000
0000
0000
0000
,  // measure 3
0000
0000
0000
0000
,  // measure 4
2001
0000
0000
0001
0000
0000
0100
0000
0000
0100
0000
0000
0010
0000
0000
0010
,  // measure 5
0000
0000
0001
0000
0000
0001
0000
0000
3100
0000
0000
0100
1000
0000
0001
0000
,  // measure 6
1002
0000
0000
1000
0000
0000
0010
0000
0000
0100
0000
0000
0010
0000
0000
0010
,  // measure 7
0000
0000
0100
0000
0000
0010
0000
0000
1003
0000
0000
1000
0100
1000
0001
1000
,  // measure 8
0010
0000
1000
0000
1000
0001
0000
0100
0000
0100
0000
0010
0000
0010
1000
0000
,  // measure 9
0100
0000
0010
0000
0010
0100
0000
1000
0000
1000
0000
0001
0000
0001
0010
0000
,  // measure 10
0010
0000
0001
0000
0001
1000
0000
0100
0000
0100
0000
0010
0000
0010
0001
0000
,  // measure 11
0100
0000
0010
0000
0010
0100
0000
0001
0000
0001
0100
0000
0010
0000
1000
0000
,  // measure 12
0010
0000
1000
0000
0001
0010
0000
0010
0100
1000
0000
0100
1000
0001
0000
1000
,  // measure 13
0001
0100
0000
0001
0100
0010
0000
0100
0010
1000
0000
0010
1000
0001
0000
0001
,  // measure 14
0010
0000
0100
0000
1000
0000
0001
0000
0100
0000
0010
0000
0100
0001
1000
0020
,  // measure 15
0000
0000
0000
0030
,  // measure 16
1000
0000
0000
1000
0010
0000
1000
0000
0000
1000
0000
0000
1100
0000
0000
0100
,  // measure 17
0010
0000
0001
0000
1000
0001
0000
0001
0020
0000
0032
0000
2003
0000
3200
0000
,  // measure 18
0310
0000
0010
0001
0100
0000
0100
0001
0010
0000
0010
0000
1001
0000
1000
0000
,  // measure 19
0010
0000
0010
1000
0100
0000
0100
1000
0010
0000
0010
0100
0010
0000
0010
0000
,  // measure 20
1000
0000
1000
0100
0010
0000
0001
0010
0200
0300
0000
0100
1000
0001
1000
0000
,  // measure 21
0001
0000
0001
0100
0010
0000
1000
0010
0100
0000
0100
0000
1001
0000
1000
0000
,  // measure 22
0100
0000
0100
1000
0001
0000
0001
0100
0010
0000
0010
0100
0010
1000
0001
0000
,  // measure 23
2000
0000
3200
0000
1300
0002
0000
1003
0200
0300
1000
0001
1000
0100
0010
0001
,  // measure 24
0010
0000
0100
1000
0010
0000
0100
0001
0010
0000
0010
0000
1001
0000
0001
0000
,  // measure 25
0100
0000
0010
1000
0100
0000
0010
0001
0200
0000
0302
0000
2003
0000
3200
0000
,  // measure 26
0310
0000
0001
0010
0001
0000
1000
0010
1000
0000
1000
0000
0010
0000
0100
0000
,  // measure 27
0001
0000
1000
0100
1000
0000
0001
0100
0001
0000
1000
0000
0010
0000
0100
0000
,  // measure 28
0010
0000
1000
0100
1000
0000
0100
0010
0002
0003
0000
0001
0010
0100
1000
0000
,  // measure 29
0001
0000
0100
0010
0100
0000
0010
1000
0001
0000
0100
0000
1001
0000
1000
0000
,  // measure 30
0100
0000
0100
1000
0010
0000
1000
0001
0010
0000
0010
0001
0100
0000
0001
1000
,  // measure 31
0100
0000
1000
0000
0000
1100
0000
0000
1001
0000
0000
0012
0000
0000
0000
0000
,  // measure 32
1003
0000
0000
1000
0001
0000
1000
0000
0001
0100
0000
0000
0101
0000
0000
0100
,  // measure 33
0001
0000
0010
0000
0001
0010
0000
0000
0011
0000
0000
0001
1000
0000
0001
0000
,  // measure 34
1001
0000
0000
0001
1000
0000
0001
0000
1000
0100
0000
0000
1100
0000
0000
0100
,  // measure 35
1000
0000
0010
0000
1000
0010
0000
0010
0100
0000
0100
0000
0001
0000
1000
0000
,  // measure 36
1100
0000
0000
1000
0100
0000
1000
0000
0100
0010
0000
0000
0110
0000
0000
0010
,  // measure 37
0100
0000
0001
0000
0100
0001
0000
0000
0110
0000
0000
0100
0010
0000
0001
0000
,  // measure 38
0101
0000
0000
0001
0100
0000
0001
0000
0100
0010
0000
0000
0110
0000
0000
0010
,  // measure 39
0100
0000
1000
0000
0100
1000
0000
0100
0010
0000
1000
0000
0001
1000
0001
1000
,  // measure 40
0100
0000
1000
0000
0100
0010
0000
0011
0000
1100
0000
0011
0000
0010
0001
0000
,  // measure 41
0100
0000
0001
0000
0100
0010
0000
1010
0000
0101
0000
1010
0000
1000
0001
0000
,  // measure 42
0010
0000
0001
0000
0010
0100
0000
1100
0000
0101
0000
1100
0000
0100
1000
0000
,  // measure 43
0010
0000
1000
0000
0010
0100
0000
0101
0000
0100
0010
0000
1010
0000
0001
0000
,  // measure 44
0100
0001
0100
0001
1000
0001
1000
0001
0010
0100
0010
0100
2000
0000
0000
3000
,  // measure 45
0010
1000
0010
1000
0001
1000
0001
1000
0100
0010
0100
0010
0002
0000
0000
0003
,  // measure 46
1000
0001
0100
0010
0100
0001
1000
0100
0010
0100
1000
0001
0100
0010
1000
0001
,  // measure 47
0020
0100
1000
0031
,  // measure 48
1000
0000
1100
0000
0100
0010
0001
0000
0101
0000
0100
0010
,  // measure 49
1000
0000
1100
0000
0100
0010
1000
0000
0010
0001
1000
0001
,  // measure 50
0100
0000
0100
0001
1000
0010
0100
0000
0100
0001
0010
0100
,  // measure 51
1000
0000
0100
0010
0100
1000
0001
0000
0100
0010
0000
1000
,  // measure 52
0100
0000
0011
0000
0010
0100
1000
0000
1010
0000
0010
0100
,  // measure 53
0001
0000
0110
0000
1000
0001
0010
0000
1100
0000
1001
0000
,  // measure 54
0102
0000
1003
0000
1000
0100
2100
0000
3001
0000
0001
0100
,  // measure 55
0210
0000
0000
0000
0000
0000
0000
0000
0001
0300
0000
0000
0000
0000
0000
0000
0001
0000
0000
0000
1000
0000
0000
0000
0200
0000
0000
0300
0000
0000
0000
0000
0000
0200
0000
0000
0300
0000
0000
0000
0000
0000
0100
0000
0000
0100
0000
0000
,  // measure 56
1000
0000
0100
0010
0001
0000
0010
0100
0010
0000
0010
0000
1001
0000
1000
0000
,  // measure 57
0001
0000
0100
0010
1000
0000
0010
0100
0010
0000
2000
0000
0001
0000
0100
0000
,  // measure 58
3100
0000
0010
0001
1000
0000
1000
0010
0100
0000
0100
0000
1001
0000
0001
1000
,  // measure 59
0010
0000
0100
0001
1000
0000
1000
0100
0010
0000
0002
0000
0100
0000
1000
0000
,  // measure 60
1003
0000
0100
0000
1100
0000
0100
0000
0010
0000
0100
0000
1100
0000
0100
1000
,  // measure 61
0001
0000
0100
0000
0101
0000
0100
0000
0010
0000
0100
0000
0101
0001
0100
0001
,  // measure 62
1000
0000
0100
1000
0001
0000
0100
0010
1000
0000
0100
0010
0001
0100
0001
1000
,  // measure 63
0100
0010
0001
1000
0010
0100
0010
1000
0001
0010
0100
1000
0010
0000
0002
0000
,  // measure 64
0000
0000
0000
0000
,  // measure 65
0003
0000
0000
0000
;

//---------------dance-single - ----------------
#NOTEDATA:;
#CHARTNAME:;
#STEPSTYPE:dance-single;
#DESCRIPTION:;
#CHARTSTYLE:;
#DIFFICULTY:Medium;
#METER:10;
#RADARVALUES:0.371209,0.389769,0.143915,0.143915,0.195884,325.000000,307.000000,18.000000,18.000000,0.000000,0.000000,0.000000,0.000000,0.000000,0.371209,0.389769,0.143915,0.143915,0.195884,325.000000,307.000000,18.000000,18.000000,0.000000,0.000000,0.000000,0.000000,0.000000;
#CREDIT:;
#NOTES:
0000
0000
0000
0000
,
0000
0000
0000
0000
,
0000
0000
0000
0000
,
0000
0000
0000
0000
,
1000
0100
0010
0001
,
0010
0100
1000
1000
,
0001
0100
0010
1000
,
0010
0100
0001
1001
,
1000
0000
0100
0000
1000
0100
0010
0000
,
0001
0000
0100
0000
0001
0100
0010
0000
,
1000
0000
0100
0000
1000
0100
0010
0000
,
0001
0010
1000
0010
,
0001
0100
0010
0010
,
1000
1000
0100
0100
,
0010
0000
0010
0000
0100
0100
1000
0002
,
0000
0000
0000
0003
,
0001
0000
0000
0001
0000
0000
0100
0000
0000
0100
0000
0000
1000
0000
0000
1000
,
0000
0000
0100
0000
0000
0100
0000
0000
0010
0000
0000
1000
0000
0000
0001
0000
,
1000
0000
0000
1000
0000
0000
0100
0000
0000
0100
0000
0000
0001
0000
0000
0001
,
0000
0000
0100
0000
0000
0100
0000
0000
1000
0000
0000
1000
0000
0001
0100
0000
,
0001
0000
0000
0001
0000
0000
0010
0000
0000
0010
0000
0000
1000
0000
0000
1000
,
0000
0000
0010
0000
0000
0010
0000
0000
0100
0000
0000
1000
0000
0000
0001
0000
,
1000
0000
0000
1000
0000
0000
0010
0000
0000
0010
0000
0000
0100
0000
0000
0100
,
0001
0010
0200
0000
1300
0010
0200
0000
,
0301
0000
0000
0100
0000
0000
0001
0000
0000
0001
0000
0000
1000
0000
0000
0100
,
0000
0000
1000
0000
0000
1000
0000
0000
0010
0000
0000
1000
0000
0000
0001
0000
,
0010
0000
0000
0100
0000
0000
1000
0000
0000
1000
0000
0000
0010
0000
0000
0100
,
0000
0000
0001
0000
0000
0001
0000
0000
0100
0000
0000
0100
0000
0010
0100
0000
,
0001
0000
0000
1000
0000
0000
0100
0000
0000
0010
0000
0000
0001
0000
0000
1000
,
0000
0000
0100
0000
0000
0010
0000
0000
0001
0000
0000
1000
0000
0000
0100
0000
,
1000
0000
0000
0001
0000
0000
0100
0000
0000
0010
0000
0000
1000
0000
0000
0001
,
0000
0000
0100
0000
0000
0010
0000
0000
2000
0000
0000
3002
0000
0000
0003
0000
,
1000
0100
0010
0001
,
0010
0100
1000
1000
,
0001
0100
0010
1000
,
0010
0000
0000
0000
0100
0000
0000
0000
0001
0000
0000
1000
0000
0000
0001
0000
,
1000
0001
0010
0100
,
0010
0001
1000
1000
,
0001
1000
0010
0100
,
0010
0000
1000
0000
0001
1000
0002
0000
,
0013
0110
0100
0110
,
0010
0000
0110
0000
1000
0001
2000
0000
,
3010
0110
0100
0110
,
0010
0000
0110
0000
1000
0001
2000
0000
,
3100
1000
0100
1000
0100
1000
0020
0000
,
0130
0001
0100
0001
0100
0001
0020
0000
,
0130
1000
0001
0100
0010
1000
0000
1000
,
0001
0101
1001
1100
,
1000
1000
0001
0001
,
1000
0000
0000
0001
0000
0000
1000
0000
0010
0200
0000
0000
,
0301
0101
1000
1100
,
0001
0000
0000
0101
0000
0000
1000
0000
1000
0100
0000
0100
,
0010
0011
1000
1010
,
0001
0000
0000
0011
0000
0000
1000
0000
1000
0010
0000
0010
,
0100
0101
1000
1100
,
0100
0000
0000
0000
0000
0000
0000
0000
0100
0000
0000
0000
1000
0000
0000
0000
0000
0000
0000
0000
1000
0000
0000
0000
0001
0000
0000
0000
0000
0000
0000
0000
0000
0001
0000
0000
0000
0000
0000
0000
0000
0000
0001
0000
0000
0000
0000
0000
,
1000
0100
0010
0000
0010
0001
1000
0000
,
0001
0100
0010
0000
0010
1000
0002
2003
,
3100
0010
0001
0000
0001
1000
0100
0000
,
1000
0001
0100
0000
0100
0010
2000
3002
,
0013
0100
0010
0000
0001
1000
0001
0000
,
0100
0010
0100
0000
0010
1000
0002
0203
,
0310
1000
0001
0000
0010
0001
1000
0000
,
0100
0000
0100
0000
1000
0100
0010
0002
,
0000
0000
0000
0000
,
0003
0000
0000
0000
;

//---------------dance-single - ----------------
#NOTEDATA:;
#CHARTNAME:;
#STEPSTYPE:dance-single;
#DESCRIPTION:;
#CHARTSTYLE:;
#DIFFICULTY:Easy;
#METER:6;
#RADARVALUES:0.251280,0.281433,0.071957,0.095943,0.000000,220.000000,211.000000,9.000000,12.000000,0.000000,0.000000,0.000000,0.000000,0.000000,0.251280,0.281433,0.071957,0.095943,0.000000,220.000000,211.000000,9.000000,12.000000,0.000000,0.000000,0.000000,0.000000,0.000000;
#CREDIT:;
#NOTES:
0000
0000
0000
0000
,
0000
0000
0000
0000
,
0000
0000
0000
0000
,
0000
0000
0000
0000
,
1000
0100
0000
0100
,
0000
1000
0000
1000
,
0001
0100
0000
0100
,
0010
0010
0020
0030
,
0000
0101
0000
1001
,
0000
1100
0000
1001
,
0000
0101
0000
1001
,
1000
0100
0010
0001
,
1000
1000
0010
0100
,
0001
1000
0100
0010
,
0001
0100
0010
2000
,
0000
0000
0000
3000
,
0001
0001
0100
0100
,
0001
0001
2000
3002
,
1003
1000
0100
0100
,
1000
1000
0010
0100
,
0001
0001
0100
0100
,
0001
0001
0100
0010
,
1000
1000
0100
0100
,
1000
0110
0001
0110
,
1000
1000
0010
0010
,
0100
0100
0001
1000
,
0001
0001
0010
0010
,
0100
0100
1000
0001
,
1000
1000
0100
0100
,
0010
0010
0001
1000
,
0001
0001
0100
0100
,
0100
0100
0200
0300
,
0001
0100
0000
0100
,
0000
0100
0000
0001
,
1000
0100
0000
0100
,
0010
0010
0020
0030
,
1000
0010
0000
0010
,
0000
0010
0000
1000
,
0001
0010
0000
0010
,
0100
0100
0200
0300
,
1000
0100
1000
0100
,
1000
0100
0010
0001
,
0100
0001
0100
0001
,
0100
0001
1000
0010
,
0010
0010
0020
0030
,
0100
0100
0200
0300
,
0001
1000
0001
0010
,
0100
0100
0100
0100
,
1000
0100
0000
0100
,
1000
0001
0200
0320
,
1030
1000
0001
0001
,
0100
0100
0010
0010
,
1000
1000
0001
0001
,
0010
0010
0100
0100
,
1000
0001
0100
0010
,
1000
0100
0020
0030
,
0001
0010
0100
1000
,
0100
0010
0001
0001
,
1000
0010
0100
0001
,
0100
0010
1000
1000
,
0001
0010
1000
0010
,
0001
0010
0100
0100
,
1000
0010
0001
0010
,
1000
0010
0100
0001
,
1001
0000
0000
0000
;

//---------------dance-single - ----------------
#NOTEDATA:;
#CHARTNAME:;
#STEPSTYPE:dance-single;
#DESCRIPTION:;
#CHARTSTYLE:;
#DIFFICULTY:Beginner;
#METER:2;
#RADARVALUES:0.122213,0.230264,0.015991,0.000000,0.000000,107.000000,105.000000,2.000000,0.000000,0.000000,0.000000,0.000000,0.000000,0.000000,0.122213,0.230264,0.015991,0.000000,0.000000,107.000000,105.000000,2.000000,0.000000,0.000000,0.000000,0.000000,0.000000,0.000000;
#CREDIT:;
#NOTES:
0000
0000
0000
0000
,
0000
0000
0000
0000
,
0000
0000
0000
0000
,
0000
0000
0000
0000
,
1000
0000
0000
0000
,
0001
0000
0000
0000
,
0100
0000
0000
0000
,
0010
0000
0010
0010
,
0000
1000
0000
1000
,
0000
0001
0000
0001
,
0000
1000
0000
1000
,
0001
0000
0001
0000
,
1000
0000
1000
0000
,
0100
0000
0010
0000
,
0001
0000
0001
0001
,
0000
0000
0000
0000
,
1000
0000
0000
0000
,
1000
0000
0001
0000
,
0100
0000
0000
0000
,
0100
0000
0001
0000
,
0010
0000
0000
0000
,
0010
0000
0001
0000
,
1000
0000
0000
0000
,
0001
0000
1000
0000
,
0001
0000
0000
0000
,
0001
0000
1000
0000
,
0010
0000
0000
0000
,
0010
0000
1000
0000
,
0100
0000
0000
0000
,
0100
0000
1000
0000
,
0001
0000
0000
0000
,
0001
0000
1000
0000
,
1001
0000
0000
0000
,
1000
0000
1000
0000
,
0001
0000
0000
0000
,
0010
0000
0010
0000
,
0100
0000
0000
0000
,
1000
0000
1000
0000
,
0001
0000
0000
0000
,
0100
0000
0100
0000
,
0010
0000
0000
0000
,
0100
0000
0100
0000
,
0010
0000
0000
0000
,
0100
0000
0100
0000
,
0010
0010
0010
0000
,
0010
0010
0010
0000
,
1000
0001
1000
0001
,
1001
0000
0000
0000
,
0001
0000
0100
0000
,
0010
0000
1000
0000
,
0100
0000
0100
0000
,
0010
0000
0010
0000
,
1000
0000
1000
0000
,
0001
0000
0001
0000
,
0100
0000
0100
0000
,
0010
0010
0010
0000
,
1000
0000
0000
0000
,
0100
0000
1000
0000
,
0001
0000
0000
0000
,
0100
0000
0001
0000
,
1000
0000
0000
0000
,
0010
0000
1000
0000
,
0001
0000
0000
0000
,
0010
0000
0001
0100
,
1000
0000
0000
0000
;
