#TITLE:Chromosphere;
#SUBTITLE:;
#ARTIST:Farius;
#TITLETRANSLIT:;
#SUBTITLETRANSLIT:;
#ARTISTTRANSLIT:;
#GENRE:Progressive Trance;
#CREDIT:darkanine;
#MUSIC:Chromosphere.ogg;
#BANNER:Chromosphere.png;
#BACKGROUND:Chromosphere-bg.png;
#CDTITLE:cdtitle.png;
#SAMPLESTART:30.000;
#SAMPLELENGTH:15.000;
#SELECTABLE:YES;
#OFFSET:0.000;
#BPMS:0.000=128.000;
#STOPS:;
#BGCHANGES:;
#FGCHANGES:;

//--------------- dance-single - ----------------
#NOTES:
     dance-single:
     :
     Challenge:
     11:
     0,0,0,0,0:
0000
0000
0000
0000
,
0000
0000
0000
0000
,
0000
0000
0000
0000
,
0000
0000
0000
0000
,
0001
1000
0001
0000
0010
0001
1000
0000
,
0100
1000
0001
0000
0100
0001
1000
0000
,
0010
0100
0010
0000
1000
0100
0010
0000
,
0002
0000
0000
0000
1000
0000
0000
0000
0103
0000
0000
0000
0001
1000
0001
1000
,
0100
0000
0110
0000
0001
0010
0100
0000
,
1000
0000
0110
0000
0001
0100
0010
0000
,
1000
0000
0101
0000
1000
0100
0010
0000
,
0001
0000
1100
0000
0001
0100
0010
0000
,
1000
0010
0100
0000
0001
0010
0100
0000
,
1000
0001
0100
0000
0010
1000
0100
0000
,
0010
0001
1000
0001
0100
0010
2000
0000
,
0100
0000
0000
0000
3001
0000
0000
0000
1000
0001
0000
0100
0002
0000
0000
0000
,
0103
0000
1010
0000
0010
1000
0100
0000
,
0010
0000
0011
0000
0010
0001
0100
0000
,
0010
1000
0100
1000
0010
1000
0001
0000
,
0010
0001
0100
0000
0100
0001
1000
0000
,
0010
0000
0110
0000
1000
0100
0001
0000
,
0010
0000
0110
0000
0001
0100
1000
0000
,
0100
0010
1000
0010
0001
0010
0100
0000
,
0020
0000
0000
0000
0130
0000
0000
0000
0001
1000
0000
0001
0100
0000
0000
0000
,
0020
0000
0000
0000
2030
0000
0000
3200
,
0000
0000
0000
0000
0000
2300
0000
0000
,
3002
0000
0000
0000
0000
0203
0000
0320
,
0000
0100
0000
1000
,
2030
0000
0010
0000
3002
0000
1003
0200
,
0000
0000
0010
0000
0000
0310
0002
0000
,
2003
0100
0000
0010
,
0000
0100
3000
1001
,
1000
0000
0000
0000
0100
0000
0000
1000
0000
0001
0000
0100
0000
0000
0001
0000
,
0000
0000
1000
0000
0001
0000
0100
0001
0000
0010
0000
0001
0000
0000
1000
0000
,
0000
0000
0001
0000
0010
0000
0001
1000
0000
0010
0000
1000
0000
0000
0100
0000
,
0000
0000
1000
0000
0100
0000
1000
0001
0000
0010
0000
0100
0000
0000
1000
0000
,
0010
0000
0100
0000
0001
0000
0100
0010
0000
0100
0000
0010
1000
0000
0001
0000
,
0100
0000
0001
0000
1000
0000
0100
0010
0000
0100
0000
0010
0001
0000
1000
0000
,
0001
0000
0100
0000
0010
0000
0100
0010
0000
0001
0000
0010
0000
0000
1000
0000
,
0100
0000
0000
0000
0100
0000
0000
0000
0001
0100
0000
2000
0001
0000
3001
0000
,
0000
0000
1001
0000
0001
0100
0010
0000
,
1000
0001
0010
0001
0100
0010
1000
0000
,
1000
0010
0001
0000
0001
0010
1000
0000
,
1000
0100
0010
0001
0010
0100
1000
0000
,
0001
0000
1100
0000
0010
0001
0100
0000
,
0001
0000
1010
0000
0100
0001
0010
0000
,
0001
0010
1000
0000
1000
0010
0001
0000
,
0100
0010
0001
0010
1000
0100
0010
0000
,
0020
0000
0130
1000
0020
0000
0130
0002
,
1000
0000
0103
0000
0001
0020
1000
0000
,
0230
0000
1300
0000
0100
0010
0110
0000
,
1000
0010
0001
0100
1000
0000
0110
0000
,
2000
0000
0010
0000
3100
1000
0001
0100
,
0002
0000
1000
0000
0013
0001
2000
0000
,
3200
0000
0010
0000
0301
0100
1000
0010
,
0100
0000
0000
0000
1001
0000
0001
0000
1000
0010
0000
1000
0001
0000
0001
0000
,
0200
0000
0000
0000
0001
0000
0000
0001
0000
0000
0000
0010
0000
0000
0302
0000
,
0000
0000
0000
0000
0010
0000
0000
0010
0000
0000
0000
0100
0000
0000
2003
0000
,
0000
0000
0000
0000
0001
0000
0000
0001
0000
0000
0000
0010
0000
0000
3200
0000
,
0000
0000
0000
0000
0010
0000
0000
0010
0000
0000
0000
0001
0000
0000
0320
0000
,
0000
0000
0000
0000
0001
0000
0000
0001
0000
0000
0000
0100
0000
0000
0032
0000
,
0000
0000
0000
0000
0100
0000
0000
0100
0000
0000
0000
0010
0000
0000
2003
0000
,
0000
0000
0000
0000
0010
0000
0000
0010
0000
0000
0000
0001
0000
0000
3020
0000
,
0000
0000
0000
0000
0001
0000
0000
0001
0000
0000
0000
0130
0000
0000
0010
0000
;
