#VERSION:0.83;
#TITLE:Cha Cha Cha;
#SUBTITLE:;
#ARTIST:Käärijä;
#TITLETRANSLIT:;
#SUBTITLETRANSLIT:;
#ARTISTTRANSLIT:Kaarija;
#GENRE:;
#ORIGIN:;
#CREDIT:;
#BANNER:bn.png;
#BACKGROUND:bg.png;
#PREVIEWVID:;
#JACKET:jacket.png;
#CDIMAGE:;
#DISCIMAGE:;
#LYRICSPATH:;
#CDTITLE:;
#MUSIC:Cha Cha Cha.ogg;
#OFFSET:-0.001000;
#SAMPLESTART:31.000000;
#SAMPLELENGTH:12.000000;
#SELECTABLE:YES;
#BPMS:0.000=155.000,
80.000=77.500,
84.000=155.000,
132.000=77.500,
134.000=155.000,
170.000=77.500,
186.000=155.000;
#STOPS:;
#DELAYS:;
#WARPS:;
#TIMESIGNATURES:0.000=4=4;
#TICKCOUNTS:0.000=4;
#COMBOS:0.000=1;
#SPEEDS:0.000=1.000=0.000=0;
#SCROLLS:0.000=1.000;
#FAKES:;
#LABELS:0.000=Song Start;
#BGCHANGES:0.500=Cha Cha Cha.mp4=1.000=0=0=0=StretchNoLoop====,
99999=-nosongbg-=1.000=0=0=0 // don't automatically add -songbackground-
;
#KEYSOUNDS:;
#ATTACKS:
;

//---------------dance-single - ----------------
#NOTEDATA:;
#CHARTNAME:;
#STEPSTYPE:dance-single;
#DESCRIPTION:;
#CHARTSTYLE:;
#DIFFICULTY:Hard;
#METER:13;
#RADARVALUES:0.524218,0.632296,0.611588,0.363856,0.085158,474.000000,395.000000,79.000000,47.000000,0.000000,0.000000,0.000000,0.000000,0.000000,0.524218,0.632296,0.611588,0.363856,0.085158,474.000000,395.000000,79.000000,47.000000,0.000000,0.000000,0.000000,0.000000,0.000000;
#CREDIT:;
#NOTES:
0000
0000
0000
0000
,
0000
0000
0000
0000
,
0000
0000
0000
0000
,
0000
0000
0000
0000
,
0000
0000
1000
0001
0100
0001
0010
0100
,
1000
0001
1000
0100
0010
0001
0100
0010
,
1000
0000
0000
1100
0000
0100
0000
0010
,
0100
0110
2002
0000
,
0000
3003
1000
0100
1000
0010
0100
0001
,
0010
0100
1000
0010
0000
1000
0100
0010
,
0001
0000
0000
0011
0000
0010
0000
0100
,
0010
0110
1002
0100
,
1003
0001
1000
0010
0100
0001
1000
0200
,
0000
0310
0001
0200
0000
1300
0001
0010
,
1000
0000
0000
1010
0000
0010
0000
0100
,
0010
0000
0110
0000
1001
0000
1000
0002
,
0000
1003
0010
0100
0001
0010
0001
0200
,
0000
0310
1000
0020
0000
0031
1000
0100
,
0001
0000
0000
0101
0000
0100
0000
0010
,
0100
0110
2002
0000
,
3003
0000
1000
0001
0100
0010
1000
0001
0100
0001
1000
0010
1000
0001
1000
0010
,
2000
0000
3000
1001
0000
0102
0000
1003
,
0001
0000
0011
0000
1100
0000
1000
0010
,
1000
0001
0010
0100
0010
0001
1000
0010
,
0100
0001
1000
0100
0010
0001
0100
0001
,
2000
0000
3000
1001
0000
0012
0000
1003
,
0001
0000
0101
0000
1010
0000
1000
0100
,
1000
0100
0010
0001
0100
0010
1000
0001
,
0100
0010
0100
0001
1000
0100
1000
0001
,
2000
0000
3000
1001
0000
0102
0000
1003
,
0001
0000
0011
0000
1100
0000
1000
0010
,
1000
0000
0001
1000
0001
0000
0010
0000
0001
0000
0100
0000
0001
0000
1000
0001
,
1000
0100
0010
0001
0100
0010
0100
0001
,
2000
0000
0000
0000
3000
0001
0010
0001
,
1100
0011
2100
3010
,
1000
0000
0100
1000
0001
0000
0101
0000
,
1010
0000
1000
0001
0100
0000
0110
0000
,
1001
0000
1000
0001
1200
0000
0310
0000
,
0120
0031
1000
1010
,
0101
0000
0010
0001
1000
0000
1010
0000
,
0101
0000
0001
1000
0010
0000
0110
0000
,
1001
0000
0001
1000
0021
0000
0130
0000
,
0210
0000
0000
0000
1300
0000
0000
0000
0001
1000
0001
1000
0001
0100
0001
0100
,
0001
0000
0100
0000
1000
0000
0100
0000
0002
0000
0013
0001
2000
0000
3001
0010
,
1000
0000
0010
0000
0002
0000
0000
0000
2000
0000
0000
0000
3003
1000
0001
1000
,
0100
0000
0010
0000
0001
0100
0001
1000
0001
0000
0100
0010
0100
0000
0001
1000
,
0001
0000
1000
0100
1000
0000
0001
0000
1000
0000
0000
0000
0100
0000
0000
0000
,
0010
0001
1000
0010
,
1000
0000
0001
0000
1000
0000
0010
0100
,
0020
0000
1030
0010
2000
0000
3001
0010
,
2000
3020
0032
1000
,
1003
0101
1020
1000
,
1030
0001
1000
0001
0010
0000
0011
0000
,
1100
0000
1000
0010
0100
0000
0101
0000
,
0001
2000
0000
3000
2002
0000
0000
0000
,
0000
3000
0203
0000
0300
0001
0100
0001
,
0100
0000
0101
0000
1001
0000
1000
0100
,
0001
0000
0100
1000
0001
0000
0101
0000
,
1001
0000
1000
0100
1000
0000
1100
0000
,
1001
0000
0001
0100
0001
0000
0201
0000
,
0310
0000
0110
0000
1001
0000
0001
0010
,
1000
0000
0010
0001
1000
0000
1010
0000
,
1001
0000
0001
0010
0001
0000
0011
0000
,
1001
0000
1000
0010
1000
0000
1020
0000
,
0130
0000
0110
0000
1001
0000
1000
0001
,
0100
0000
0001
0010
0100
0000
0110
0000
,
1001
0000
1000
0001
2000
0000
3000
1001
,
0000
0102
0000
1003
0001
0000
0011
0000
,
2100
0000
3001
0000
1000
0100
0001
0100
,
2000
0000
3001
0100
0001
0000
0101
0000
,
1001
0000
1000
0001
2000
0000
3000
1001
,
0000
0012
0000
1003
0001
0000
0101
0000
,
1010
0000
1000
0100
2000
0000
3000
1001
,
0000
0102
0000
1003
0001
0000
0011
0000
,
2100
3001
0000
0000
;

//---------------dance-single - ----------------
#NOTEDATA:;
#CHARTNAME:;
#STEPSTYPE:dance-single;
#DESCRIPTION:;
#CHARTSTYLE:;
#DIFFICULTY:Beginner;
#METER:2;
#RADARVALUES:0.094005,0.143220,0.007742,0.061933,0.000000,85.000000,84.000000,1.000000,8.000000,0.000000,0.000000,0.000000,0.000000,0.000000,0.094005,0.143220,0.007742,0.061933,0.000000,85.000000,84.000000,1.000000,8.000000,0.000000,0.000000,0.000000,0.000000,0.000000;
#CREDIT:;
#NOTES:
0000
0000
0000
0000
,
0000
0000
0000
0000
,
0000
0000
0000
0000
,
0000
0000
0000
0000
,
0001
0000
0000
0000
,
0000
0000
0000
0000
,
1000
0000
0000
0000
,
0000
0000
0000
0000
,
0001
0000
0000
0000
,
0000
0000
0000
0000
,
1000
0000
0000
0000
,
0000
0000
0000
0000
,
0001
0000
0000
0000
,
0000
0000
0000
0000
,
1000
0000
0000
0000
,
0000
0000
0000
0000
,
0001
0000
0000
0000
,
1000
0000
0000
0000
,
0001
0000
0000
0000
,
1000
0000
0000
0000
,
0010
0000
1000
0000
,
0010
0000
0100
0000
,
0010
0000
0100
0000
,
0001
0000
0000
0000
,
1000
0000
0000
0000
,
0010
0000
0100
0000
,
0010
0000
0100
0000
,
0001
0000
0000
0000
,
0010
0000
0000
0000
,
0001
0000
1000
0000
,
0001
0000
1000
0000
,
0001
0000
0000
0000
,
1000
0000
0000
0000
,
0002
0000
0003
0000
,
0000
0000
1000
0000
,
0000
0000
0001
0000
,
0000
0000
1000
0000
,
0000
0000
0001
0000
,
0000
0000
0100
0000
,
0000
0000
0001
0000
,
0000
0000
1000
0000
,
0000
0000
0001
0000
,
0000
0000
2000
0000
,
3000
0000
0002
0000
,
0003
0000
2000
0000
,
3000
0000
0010
0000
,
0100
0000
0001
0000
,
0000
0000
1000
0000
,
1000
0000
0010
0000
,
0010
0000
0100
0000
,
0100
0000
0002
0000
,
0003
0000
2000
0000
,
3000
0000
0002
0000
,
0003
0000
1000
0000
,
0001
0000
2000
0000
,
3000
0000
0010
0000
,
0100
0000
0001
0000
,
0000
0000
1000
0000
,
1000
0000
0010
0000
,
0000
0000
0100
0000
,
0100
0000
0001
0000
,
0000
0000
1000
0000
,
1000
0000
0100
0000
,
0000
0000
0010
0000
,
0000
0000
0001
0000
,
0000
0000
1000
0000
,
1000
0000
0001
0000
,
0000
0000
1000
0000
,
0000
0000
0001
0000
,
0000
0000
1000
0000
,
1000
0000
0010
0000
,
0100
0000
0001
0000
,
1000
0000
0001
0000
,
0000
0000
0000
0000
,
1001
0000
0000
0000
;

//---------------dance-single - ----------------
#NOTEDATA:;
#CHARTNAME:;
#STEPSTYPE:dance-single;
#DESCRIPTION:;
#CHARTSTYLE:;
#DIFFICULTY:Easy;
#METER:6;
#RADARVALUES:0.180269,0.257796,0.007742,0.239990,0.000000,163.000000,162.000000,1.000000,31.000000,0.000000,0.000000,0.000000,0.000000,0.000000,0.180269,0.257796,0.007742,0.239990,0.000000,163.000000,162.000000,1.000000,31.000000,0.000000,0.000000,0.000000,0.000000,0.000000;
#CREDIT:;
#NOTES:
0000
0000
0000
0000
,
0000
0000
0000
0000
,
0000
0000
0000
0000
,
0000
0000
0000
0000
,
0001
0100
0001
0010
,
0001
1000
0001
1000
,
0020
0000
0230
0000
,
0320
0000
0230
0000
,
0300
0001
1000
0100
,
0010
0100
1000
0001
,
2000
0000
3002
0000
,
2003
0000
3002
0000
,
1003
0000
0001
0000
,
1000
0100
0010
0001
,
2000
0000
3002
0000
,
2003
0000
3002
0000
,
0003
1000
0010
0100
,
0000
0001
0010
0100
,
2000
0000
3200
0000
,
0320
0000
0032
0000
,
2003
0000
3001
0100
,
0001
0000
1000
0000
,
0010
0100
0010
0000
,
2000
0000
3002
0000
,
1003
0000
0001
0000
,
0010
0000
0100
0000
,
0010
0100
0010
0000
,
0002
0000
2003
0000
,
3002
0000
1003
0000
,
0001
0000
1000
0000
,
0010
0100
0010
0000
,
2000
0000
3002
0000
,
1003
0000
0001
0000
,
2002
0000
3003
0000
,
1000
0100
0020
0000
,
0000
0030
0100
0010
,
0100
0000
1000
0000
,
0001
0000
1000
0000
,
0001
0000
2000
0000
,
0000
3000
0010
0100
,
0010
0000
1000
0000
,
0010
0000
0100
0000
,
0001
0000
1000
0000
,
0010
0000
1000
0000
,
0010
0000
1000
0000
,
1000
0000
0001
0000
,
0001
0000
1000
0000
,
0001
0000
0100
0010
,
0100
0000
0010
0000
,
0100
0000
0010
0100
,
0010
0000
1000
0000
,
0001
0000
0100
0010
,
0100
0000
0001
0000
,
0010
0000
0100
0000
,
1000
0000
0002
0000
,
0003
0000
0000
0000
,
1000
0100
0020
0000
,
0000
0030
0100
0010
,
0100
0000
1000
0000
,
0001
0000
1000
0000
,
0001
0000
2000
0000
,
0000
3000
0010
0100
,
0010
0000
1000
0000
,
0010
0000
0100
0000
,
0001
0000
1000
0000
,
0010
0000
0100
0010
,
0100
0000
0010
0000
,
0100
0000
0010
0100
,
0010
0000
1000
0000
,
0010
0000
0100
0000
,
0001
0000
1000
0000
,
0100
0000
0010
0100
,
0010
0000
0001
0000
,
0100
0000
0010
0100
,
0010
0000
0000
0000
;

//---------------dance-single - ----------------
#NOTEDATA:;
#CHARTNAME:;
#STEPSTYPE:dance-single;
#DESCRIPTION:;
#CHARTSTYLE:;
#DIFFICULTY:Medium;
#METER:9;
#RADARVALUES:0.349479,0.401016,0.123866,0.247732,0.000000,316.000000,300.000000,16.000000,32.000000,0.000000,0.000000,0.000000,0.000000,0.000000,0.349479,0.401016,0.123866,0.247732,0.000000,316.000000,300.000000,16.000000,32.000000,0.000000,0.000000,0.000000,0.000000,0.000000;
#CREDIT:;
#NOTES:
0000
0000
0000
0000
,
0000
0000
0000
0000
,
0000
0000
0000
0000
,
0000
0000
0000
0000
,
0000
1000
0010
0100
,
0010
1000
0100
0010
,
0001
0000
0000
0100
0000
0010
0000
0100
,
0001
1000
2002
0000
,
3003
0001
0010
0100
,
0010
0001
0100
0010
,
1000
0000
0000
0010
0000
0100
0000
0010
,
1000
0001
2002
0000
,
3003
0001
0100
0010
,
0100
0001
0010
0100
,
1000
0000
0000
0010
0000
0100
0000
0010
,
1000
0001
2002
0000
,
3003
1000
0100
0010
,
0100
1000
0010
0100
,
0001
0000
0000
0100
0000
0010
0000
0100
,
0001
1000
2002
0000
,
3003
0001
0010
0001
0100
0001
0010
0100
,
1000
0000
0000
0010
0000
0100
0000
0010
,
0100
0001
1000
1001
,
0000
1000
0100
0010
0100
0000
1000
0000
,
0001
0100
0001
1000
,
0001
0000
0000
0100
0000
0010
0000
0100
,
0010
1000
0001
1001
,
0000
0001
0010
0100
0010
0000
0001
0000
,
1000
0010
0100
0001
,
1000
0000
0000
0010
0000
0100
0000
0010
,
0100
0001
1000
1001
,
1000
0010
0100
0000
0001
0000
1000
0000
,
0001
0010
0001
0010
0001
0000
1000
0000
,
2002
0000
3003
1000
,
0001
0100
0001
0010
,
0100
0000
0010
0100
0010
0000
0100
0000
,
0010
0000
0001
0100
0001
0000
0010
0000
,
1000
0000
0010
0001
1000
0000
0020
0000
,
0032
0023
1030
0001
,
1000
0000
0010
0100
0010
0000
0100
0000
,
0010
0000
1000
0010
1000
0000
0100
0000
,
0001
0000
0100
1000
0001
0000
0100
0000
,
2000
3200
0002
0303
,
0100
0010
0100
0000
0110
0000
1001
0000
,
1000
0100
0020
0000
0200
0000
0330
1000
,
0100
0010
0002
0000
0103
0010
1000
0010
,
0100
0001
1000
0001
1000
0000
0010
0000
,
1000
0100
1000
0010
,
0200
0000
0300
0000
0001
0000
0100
0001
,
0100
0000
0001
0010
0001
0000
0100
0000
,
0010
0100
0020
1000
,
1000
1030
2000
0100
,
0100
3100
0200
0010
,
0010
0310
0020
0001
,
0001
0031
0220
0000
,
0330
1001
0001
1000
,
0001
0100
0001
0010
,
0100
0000
0010
0100
0010
0000
0100
0000
,
0010
0000
0001
0100
0001
0000
0010
0000
,
1000
0000
0010
0001
1000
0000
0020
0000
,
0032
0023
1030
0001
,
1000
0000
0010
0100
0010
0000
0100
0000
,
0010
0000
1000
0010
1000
0000
0100
0000
,
0001
0000
0100
1000
0001
0000
0100
0000
,
2000
3200
0301
1000
,
0001
0000
0010
0100
0010
0000
0100
0000
,
0010
0000
0001
0100
0001
0000
0000
1000
,
0000
0010
0000
0100
0010
0000
0100
0000
,
0010
0200
0301
1000
,
0100
0000
0010
0100
0010
0000
0100
0000
,
0010
0000
0001
1000
0010
0000
0000
0100
,
0000
0010
0000
0100
0010
0000
0100
0000
,
0110
0000
1001
0000
0110
0000
0000
0100
,
0000
0010
0000
0100
0010
0000
0100
0000
,
0110
0000
0000
0000
;

//---------------dance-single - ----------------
#NOTEDATA:;
#CHARTNAME:;
#STEPSTYPE:dance-single;
#DESCRIPTION:;
#CHARTSTYLE:;
#DIFFICULTY:Challenge;
#METER:15;
#RADARVALUES:0.585045,0.890963,0.232248,0.332889,0.143220,529.000000,499.000000,30.000000,43.000000,0.000000,0.000000,0.000000,0.000000,0.000000,0.585045,0.890963,0.232248,0.332889,0.143220,529.000000,499.000000,30.000000,43.000000,0.000000,0.000000,0.000000,0.000000,0.000000;
#CREDIT:;
#NOTES:
// measure 0
0000
0000
0000
0000
,  // measure 1
0000
0000
0000
0000
,  // measure 2
0000
0000
0000
0000
,  // measure 3
0000
0000
0000
0000
,  // measure 4
1000
0100
1000
0001
0100
0010
0100
0010
,  // measure 5
1000
0010
1000
0001
0100
0010
0100
0010
,  // measure 6
1000
0000
0010
0010
0000
0001
0000
0100
,  // measure 7
0100
0000
2000
0000
3001
0010
0100
1000
,  // measure 8
0001
0010
0001
1000
0010
0100
0010
0100
,  // measure 9
0001
0100
0001
1000
0010
0100
0010
0100
,  // measure 10
0001
0000
0100
0100
0000
1000
0000
0010
,  // measure 11
0010
0000
0002
0000
1003
0100
0010
0001
,  // measure 12
1000
0001
0100
0010
1000
0010
0100
0010
,  // measure 13
0100
0001
0010
0100
1000
0001
0100
0010
,  // measure 14
1000
0000
0100
0100
0001
0100
0010
1000
,  // measure 15
0001
0000
0010
0010
1000
0010
1000
0010
,  // measure 16
1000
0001
0100
0010
1000
0100
0010
0100
,  // measure 17
0010
0001
0100
0010
1000
0001
0100
0010
,  // measure 18
1000
0000
0100
0100
0001
0100
0010
1000
,  // measure 19
0100
1000
0010
1000
0001
1000
0010
1000
,  // measure 20
0200
0000
0310
0100
1000
0100
1000
0001
1000
0100
2000
0000
3010
0100
0001
1000
,  // measure 21
0010
0000
0100
0000
0001
0100
0001
0100
,  // measure 22
0010
0000
0100
0000
0001
0100
0001
0100
,  // measure 23
0100
1000
0100
0010
0001
1000
0010
0001
,  // measure 24
0010
1000
0010
0100
0001
0010
0100
1000
,  // measure 25
0010
0000
0100
0000
0001
0100
0001
0100
,  // measure 26
0010
0000
0100
0000
0001
0100
0001
0100
,  // measure 27
0100
0000
1000
0100
1000
0000
0100
0000
1000
0000
0010
0000
0100
0000
0001
0000
,  // measure 28
0100
1000
0100
0001
0010
0001
1000
0001
,  // measure 29
0010
0000
0100
0000
1000
0100
1000
0100
,  // measure 30
0010
0000
0100
0000
1000
0100
1000
0100
,  // measure 31
0100
0000
0001
0010
0001
0000
1000
0000
0001
0000
0010
0000
0100
0000
1000
0100
,  // measure 32
0001
0100
1000
0001
0010
1000
0010
0001
,  // measure 33
0100
0001
0100
0010
0100
0001
0100
0010
0100
0000
0001
0000
0010
0000
0100
0000
,  // measure 34
1000
0020
1030
0000
1020
0000
0001
0000
,  // measure 35
1030
0100
1000
0010
0200
0300
0101
0000
,  // measure 36
2002
3003
0001
0100
0020
0030
0110
0000
,  // measure 37
1001
0000
1000
0100
2000
3000
1100
0000
,  // measure 38
0012
0000
0100
0000
0013
0001
1000
0001
,  // measure 39
0100
0010
1000
0001
2000
3000
1010
0000
,  // measure 40
0101
0000
0001
0010
0102
0000
1000
0000
,  // measure 41
0103
0000
0010
0100
1020
0000
0100
0000
,  // measure 42
1030
0000
0000
0000
1001
0000
0000
0000
1000
0001
0010
0001
1000
0001
0100
0010
,  // measure 43
1000
0000
0100
0000
0010
0100
0020
0000
0031
0010
0001
0010
0100
0010
0100
0010
,  // measure 44
0100
0000
1000
0000
0010
0100
0020
0000
1030
0001
1000
0100
1000
0001
0010
0001
,  // measure 45
0100
0000
0010
0000
0100
0010
0100
0100
1000
0001
1000
0001
1000
0010
1000
0001
,  // measure 46
1000
0010
1000
0010
1000
0010
0100
0001
0020
0000
0000
0000
0001
0000
0030
0000
,  // measure 47
0002
0000
0100
0003
0101
0000
0110
0000
,  // measure 48
0010
0100
0010
1000
0002
0000
1003
0010
,  // measure 49
1000
0100
0010
0001
0100
0001
0010
0001
,  // measure 50
0100
0001
0010
0001
1000
0100
0001
0010
,  // measure 51
1000
0100
0010
0001
1000
0010
0100
0001
,  // measure 52
0100
1000
0010
0001
0200
0000
0301
0100
,  // measure 53
0001
0100
0001
0010
0200
0000
0020
0330
,  // measure 54
0001
0010
0100
1000
0020
0000
1000
0000
,  // measure 55
0100
0000
1000
0000
0130
0001
0100
0001
,  // measure 56
1000
0020
1030
0000
1020
0000
0001
0000
,  // measure 57
1030
0100
1000
0010
0200
0300
0101
0000
,  // measure 58
2002
3003
0001
0100
0020
0030
0110
0000
,  // measure 59
1001
0000
1000
0100
2000
3000
1100
0000
,  // measure 60
0012
0000
0100
0000
0013
0001
1000
0001
,  // measure 61
0100
0010
1000
0001
2000
3000
1010
0000
,  // measure 62
0101
0000
0001
0010
0102
0000
1000
0000
,  // measure 63
0103
0000
0010
0100
1020
0000
0100
0000
,  // measure 64
1030
0000
1001
0000
0001
0010
0001
0100
,  // measure 65
0001
0010
0001
0100
0020
0030
1010
0000
,  // measure 66
2002
3003
1000
0010
0100
0000
0010
0000
,  // measure 67
0100
0010
0100
0010
1000
0000
0010
0000
,  // measure 68
0100
0010
0100
0010
1000
0001
1000
0010
,  // measure 69
1000
0100
1000
0010
0200
0300
0101
0000
,  // measure 70
2002
3003
0001
0100
0010
0000
0100
0000
,  // measure 71
0010
0100
0010
0100
0001
0000
0100
0000
,  // measure 72
0010
0100
0010
0100
0001
0010
0001
0010
,  // measure 73
0100
0010
0100
0010
0001
0100
0001
0020
,  // measure 74
0200
0330
0000
0000
;
