#VERSION:0.83;
#TITLE:Catch 1;
#SUBTITLE:;
#ARTIST:Synova;
#TITLETRANSLIT:;
#SUBTITLETRANSLIT:;
#ARTISTTRANSLIT:;
#GENRE:;
#ORIGIN:;
#CREDIT:;
#BANNER:Catch 1.png;
#BACKGROUND:Catch 1-bg.png;
#PREVIEWVID:;
#JACKET:Catch 1-jacket.png;
#CDIMAGE:;
#DISCIMAGE:;
#LYRICSPATH:;
#CDTITLE:;
#MUSIC:Catch 1.ogg;
#OFFSET:1.231476;
#SAMPLESTART:35.605217;
#SAMPLELENGTH:10.158730;
#SELECTABLE:YES;
#BPMS:0.000=189.000;
#STOPS:;
#DELAYS:;
#WARPS:;
#TIMESIGNATURES:0.000=4=4;
#TICKCOUNTS:0.000=4;
#COMBOS:0.000=1;
#SPEEDS:0.000=1.000=0.000=0;
#SCROLLS:0.000=1.000;
#FAKES:;
#LABELS:0.000=Song Start;
#BGCHANGES:;
#KEYSOUNDS:;
#ATTACKS:
;

//---------------dance-single - ----------------
#NOTEDATA:;
#CHARTNAME:;
#STEPSTYPE:dance-single;
#DESCRIPTION:;
#CHARTSTYLE:;
#DIFFICULTY:Hard;
#METER:14;
#RADARVALUES:0.697797,0.874681,0.397582,0.162278,0.141994,602.000000,553.000000,49.000000,20.000000,0.000000,0.000000,0.000000,0.000000,0.000000,0.697797,0.874681,0.397582,0.162278,0.141994,602.000000,553.000000,49.000000,20.000000,0.000000,0.000000,0.000000,0.000000,0.000000;
#CREDIT:Daniel Van Eden;
#NOTES:
// measure 0
0000
0000
0000
0000
,  // measure 1
0000
0000
0000
0000
,  // measure 2
0000
0000
0000
0000
,  // measure 3
0000
0000
0000
0000
,  // measure 4
0000
0000
0000
0000
,  // measure 5
0000
0000
0000
0000
,  // measure 6
0000
0000
0000
0000
,  // measure 7
0000
0000
0000
0000
,  // measure 8
0000
0000
0000
0000
,  // measure 9
0000
0000
0000
0000
,  // measure 10
0000
0000
0000
0000
,  // measure 11
0000
0000
0000
0000
,  // measure 12
0000
0000
0000
0000
,  // measure 13
1000
0000
0010
1000
0000
0001
0010
0100
,  // measure 14
0100
0000
0001
0100
0000
1000
0010
1000
,  // measure 15
0001
0000
0010
0001
0000
1000
0010
0100
,  // measure 16
0100
0000
0010
0100
0001
0010
0010
0100
,  // measure 17
0010
0000
0001
0010
0000
0010
0100
1000
,  // measure 18
1000
0000
0001
0100
0010
1000
0001
1000
,  // measure 19
0010
0000
1000
0010
0000
0100
0010
1000
,  // measure 20
0001
0000
0010
0100
0010
0001
1000
0010
,  // measure 21
0110
0100
0001
1000
0100
1000
0100
0010
,  // measure 22
0100
0010
0001
1000
1010
0000
0011
0000
,  // measure 23
0110
0100
1000
0001
0100
0001
0100
0010
,  // measure 24
0100
0010
1000
0100
1100
0000
0101
0000
,  // measure 25
0110
0100
0001
0010
0001
0010
0100
1000
,  // measure 26
0010
1000
0001
1000
0100
0001
0100
1000
,  // measure 27
0010
0100
1000
0100
0001
0010
0100
1000
,  // measure 28
1002
0000
0000
0000
0000
0000
0000
0000
1003
0000
1000
0000
0001
1000
0001
1000
,  // measure 29
0001
0000
0001
0000
1010
0000
1000
0011
,  // measure 30
0000
0001
1000
0010
0110
0000
0100
0000
,  // measure 31
0001
0000
1100
0000
0011
0000
0010
0100
,  // measure 32
0000
0000
0010
0000
0100
0000
0100
1000
0001
0000
1000
0000
0010
1000
0010
0000
,  // measure 33
1000
0000
0002
0003
1000
0002
0003
0000
0101
0000
0000
0000
0001
0000
1100
0000
,  // measure 34
0000
1000
0001
0100
0110
0000
0010
0000
,  // measure 35
1000
0000
0002
0023
0130
0000
0020
0230
1300
0000
0000
0000
1000
0000
0010
0000
,  // measure 36
0000
0000
0100
0000
0010
0000
0010
0100
0010
0000
1000
0000
0001
1000
0001
0000
,  // measure 37
0010
0000
0100
0000
1001
0000
0001
1010
,  // measure 38
0000
1000
0010
0110
0100
0000
0001
0000
,  // measure 39
0010
0000
0101
0000
1010
0000
0010
0100
,  // measure 40
0000
0000
0010
0000
0100
0000
0100
0001
1000
0000
0001
0000
0010
0001
0010
0000
,  // measure 41
0200
0300
0020
0030
0200
0300
0020
0030
1001
0000
0000
0000
1000
0000
0101
0000
,  // measure 42
0000
0001
0100
0010
0110
0000
0010
0000
,  // measure 43
1000
0000
0011
0000
1100
0000
0100
0010
,  // measure 44
0000
0000
0100
0000
0010
0000
0010
0001
0010
0000
0001
0000
1000
0010
1000
0000
,  // measure 45
0002
0000
0000
0000
0103
0010
0100
0000
,  // measure 46
0100
0000
0010
1000
0000
0010
0000
0100
,  // measure 47
0100
0000
0001
1000
0000
0001
0000
0010
,  // measure 48
0010
0000
0100
0010
0000
0100
0000
1000
,  // measure 49
0001
1000
0001
1000
0001
1000
0001
1000
,  // measure 50
0010
0000
1000
1000
0100
0000
0010
0010
,  // measure 51
0100
0000
1000
0010
0100
0001
0000
0001
,  // measure 52
0010
0000
0001
1000
0001
0100
0010
0000
,  // measure 53
0100
0001
0000
0100
0000
0010
1000
0001
,  // measure 54
1000
0000
0001
0100
0001
1000
0000
0010
,  // measure 55
1000
1000
0001
1000
0100
0010
0100
0000
,  // measure 56
0010
0000
0100
0010
0001
0001
0001
0000
,  // measure 57
0100
0001
1000
0100
1000
1000
1000
0000
,  // measure 58
0100
0000
1000
1000
0010
0000
0100
0100
,  // measure 59
0010
0010
1000
0100
0010
0001
0000
0001
,  // measure 60
1000
0000
0001
0100
0001
0010
1000
0010
,  // measure 61
0100
0100
1000
0000
0010
0100
0000
0010
,  // measure 62
1000
0000
0010
1000
0010
0100
0000
0100
,  // measure 63
0001
0010
0001
0100
0000
1000
0100
0000
,  // measure 64
0001
0000
1000
0100
1000
0001
0000
0001
,  // measure 65
0100
0000
0000
0000
0110
0000
0000
0000
0010
1000
0100
0010
0002
0000
1000
0000
,  // measure 66
1003
0000
0101
0000
0001
0100
1000
0100
,  // measure 67
0100
0000
1010
0000
1000
0100
0001
0100
,  // measure 68
0100
0000
0011
0000
0010
0010
0100
0010
,  // measure 69
0010
0000
0011
0000
1010
1000
0001
1000
,  // measure 70
1000
0001
0010
0001
1000
0100
0001
0100
,  // measure 71
0100
1000
0001
1000
0010
0001
0010
1000
,  // measure 72
2002
0000
0000
0000
,  // measure 73
0000
0000
0000
0000
3003
0001
0001
1000
,  // measure 74
0100
0011
1010
0110
,  // measure 75
0101
0100
0001
0001
0100
0000
0110
0000
,  // measure 76
0010
0101
1100
0110
,  // measure 77
0100
0000
0010
0000
0001
0000
0001
1000
0001
0000
0100
0000
0010
0100
0010
1000
,  // measure 78
0001
1010
0101
1001
,  // measure 79
1000
0100
0010
0010
0100
0000
1100
0000
,  // measure 80
1000
0011
0101
1001
,  // measure 81
0001
0000
0100
0000
0010
0000
0010
0100
0010
0000
1000
0000
0001
1000
0001
0000
,  // measure 82
0010
0000
0100
0000
0001
0000
0100
0000
1000
0000
0001
0000
1000
0000
0010
1000
,  // measure 83
0010
0000
0100
0010
0100
0000
0001
0000
0010
0000
0100
0000
1000
0000
0100
0010
,  // measure 84
0001
0000
0010
0100
1000
0000
0001
0000
0100
0000
0010
0000
0001
0000
0010
0000
,  // measure 85
1000
0000
0001
0100
0001
0000
1000
0100
1000
0000
0100
0000
0010
0100
1000
0000
,  // measure 86
0002
0003
0000
0002
0003
0000
0002
0003
0010
0000
0001
0000
0100
0000
0010
0100
,  // measure 87
0010
0000
1000
0001
0100
0000
0001
0000
0001
0000
0010
0000
0100
0000
0010
0100
,  // measure 88
0010
0000
0100
1000
0001
0000
1000
0000
0010
0000
0001
0000
0010
0000
0100
0000
,  // measure 89
0001
0000
1000
0010
0100
0000
0001
0100
0001
0000
0010
0000
0100
1000
0001
0000
,  // measure 90
2001
0001
0001
0001
,  // measure 91
0001
0001
0001
0001
0001
0000
0001
0000
,  // measure 92
0100
0100
0100
0100
,  // measure 93
0100
0100
0100
0100
0100
0000
3200
0000
,  // measure 94
0010
0010
0010
0010
,  // measure 95
0010
0010
0010
0010
0010
0000
0010
0000
,  // measure 96
1000
1000
1000
1000
,  // measure 97
1000
1000
1000
1000
1000
0000
1000
0000
,  // measure 98
0300
0000
0000
0000
;

//---------------dance-single - ----------------
#NOTEDATA:;
#CHARTNAME:;
#STEPSTYPE:dance-single;
#DESCRIPTION:;
#CHARTSTYLE:;
#DIFFICULTY:Medium;
#METER:12;
#RADARVALUES:0.443947,0.594852,0.170392,0.048684,0.004057,383.000000,362.000000,21.000000,6.000000,0.000000,0.000000,0.000000,0.000000,0.000000,0.443947,0.594852,0.170392,0.048684,0.004057,383.000000,362.000000,21.000000,6.000000,0.000000,0.000000,0.000000,0.000000,0.000000;
#CREDIT:Daniel Van Eden;
#NOTES:
0000
0000
0000
0000
,
0000
0000
0000
0000
,
0000
0000
0000
0000
,
0000
0000
0000
0000
,
0000
0000
0000
0000
,
0000
0000
0000
0000
,
0000
0000
0000
0000
,
0000
0000
0000
0000
,
0000
0000
0000
0000
,
0000
0000
0000
0000
,
0000
0000
0000
0000
,
0000
0000
0000
0000
,
0000
0000
0000
0000
,
0000
0000
0000
0000
,
0000
0000
0000
0000
,
0000
0000
0000
0000
,
0000
0000
0000
0000
,
0000
0000
0000
0000
,
0000
0000
0000
0000
,
0000
0000
0000
0000
,
0000
0000
0000
0000
,
0000
0000
0000
0000
,
0000
0000
0000
0000
,
0000
0000
0000
0000
,
0000
0000
0000
0000
,
0000
0000
0000
0000
,
0000
0000
0000
0000
,
0000
0000
0000
0000
,
0000
0000
0000
0000
1000
0100
0010
0000
,
0001
0000
0001
0000
0011
0000
0010
0001
,
0000
0001
0010
0100
0100
0000
1000
0000
,
1000
0000
0010
0000
1100
0000
1000
0100
,
0000
0100
1000
0001
0100
0010
0010
0000
,
1000
0000
1000
0000
1010
0000
0010
1000
,
0000
1000
0010
0100
0100
0000
0001
0000
,
0001
0000
0010
0000
0101
0000
0001
0100
,
0000
0100
0001
1000
0010
0100
0100
0000
,
0001
0000
1000
0000
1001
0000
0001
1000
,
0000
1000
0100
0100
0010
0000
0001
0000
,
0001
0000
0010
0000
1100
0000
1000
0010
,
0000
0010
1000
0001
0010
0001
0001
0000
,
0100
0000
0100
0000
1001
0000
1000
0001
,
0000
0001
0100
0010
0010
0000
1000
0000
,
1000
0000
0010
0000
0101
0000
0001
0010
,
0000
0010
0001
1000
0100
1000
1000
0000
,
0010
0000
0000
0000
1000
0001
1000
0000
,
0200
0000
1000
0000
0000
1300
0000
0100
,
0020
0000
0001
0000
0000
0031
0000
0010
,
0200
0000
0010
0000
0000
0310
0000
0010
,
0001
1000
0001
1000
0001
1000
0001
1000
,
0001
0000
1000
0010
1000
0000
0001
0100
,
0001
0000
0010
0000
0100
0010
0000
0010
,
0001
0000
1000
0100
1000
0000
0001
0100
,
0001
0100
0000
0010
0000
1000
0000
1000
,
0001
0000
0010
0100
0000
0010
0000
0001
,
1000
0000
0010
0100
0000
0010
0000
1000
,
0001
0000
0010
0000
0100
1000
0001
0000
,
0100
0000
0010
0000
0100
0001
1000
0000
,
0010
0000
1000
0001
0100
0000
0001
1000
,
0100
0000
0010
0000
0001
1000
0000
1000
,
0010
0000
1000
0001
0010
0000
0001
1000
,
0010
0000
0100
0000
0010
1000
0000
1000
,
0001
0000
0010
0100
0000
0010
0000
0001
,
1000
0000
0010
0100
0000
0010
0000
1000
,
0001
0000
0100
0000
0010
0100
0010
0000
,
1000
0000
1001
0000
0001
1000
0002
0000
,
0013
0000
0001
0010
0100
0000
0010
0000
,
1100
0000
1000
0100
0010
0000
0001
0000
,
1000
0000
0010
0000
0100
0100
0010
0000
,
1010
0000
1000
1000
0001
1000
0100
0010
,
0100
0000
0010
0001
0010
0000
0100
0000
,
1000
0001
1000
0001
0000
0001
1000
0010
,
0220
0000
0000
0000
,
0330
0000
0000
0000
,
1001
0001
0011
0010
,
0100
0010
0001
0001
1000
0000
0001
0000
,
1001
1000
1010
0010
,
0100
0010
1000
1000
0001
1000
0001
0000
,
0011
0010
0110
0100
,
1000
0001
1000
1000
0001
0000
0010
0000
,
0110
0010
0011
0001
,
0100
0001
0100
0100
0010
1000
0010
0000
,
1000
0000
0001
0010
0001
0000
1000
0010
,
1000
0001
0010
0100
0010
0100
0100
0000
,
1000
0000
0010
1000
0001
0000
0100
0010
,
0100
0001
1000
1000
0001
0010
0100
0000
,
0010
0000
0000
0010
0000
0000
0010
0000
0001
0000
0000
0000
1000
0000
0000
0000
,
0010
1000
0010
1000
0001
0010
0010
0000
,
0100
0000
0010
0100
1000
0000
0001
0000
,
0100
0010
0100
0001
0001
0010
0001
0000
,
1001
1000
0010
1000
,
0010
1000
0010
1000
0010
0000
0010
0000
,
1000
0100
1000
0100
,
1000
0100
1000
0100
1000
0000
1000
0000
,
0001
0010
0001
0010
,
0001
0010
0001
0010
0001
0000
0001
0000
,
0100
0010
0100
0010
,
0100
0010
0100
0010
0100
0000
0100
0000
;

//---------------dance-single - ----------------
#NOTEDATA:;
#CHARTNAME:;
#STEPSTYPE:dance-single;
#DESCRIPTION:;
#CHARTSTYLE:;
#DIFFICULTY:Beginner;
#METER:3;
#RADARVALUES:0.195893,0.236115,0.024342,0.000000,0.000000,169.000000,166.000000,3.000000,0.000000,0.000000,0.000000,0.000000,0.000000,0.000000,0.195893,0.236115,0.024342,0.000000,0.000000,169.000000,166.000000,3.000000,0.000000,0.000000,0.000000,0.000000,0.000000,0.000000;
#CREDIT:Daniel Van Eden;
#NOTES:
0000
0000
0000
0000
,
0000
0000
0000
0000
,
0000
0000
0000
0000
,
0000
0000
0000
0000
,
0000
0000
0000
0000
,
0000
0000
0000
0000
,
0000
0000
0000
0000
,
0000
0000
0000
0000
,
0000
0000
0000
0000
,
0000
0000
0000
0000
,
0000
0000
0000
0000
,
0000
0000
0000
0000
,
0000
0000
0000
0000
,
1000
0000
1000
0000
,
0100
0000
0000
0000
,
0010
0000
0010
0000
,
0001
0000
0000
0000
,
1000
0000
0001
0000
,
1000
0000
1000
0000
,
0010
0000
0100
0000
,
0010
0000
0000
0000
,
0100
0100
0100
0000
,
0001
0000
0001
0000
,
0010
0010
0010
0000
,
0001
0000
0001
0000
,
1000
1000
1000
0000
,
0100
0000
0100
0000
,
0010
0000
0001
0000
,
1001
0000
0000
0000
,
0001
0001
0001
0000
,
0010
0000
0100
0000
,
1000
1000
1000
0000
,
0001
0000
1000
0000
,
0010
0010
0010
0000
,
1000
0000
0001
0000
,
0100
0100
0100
0000
,
0010
0000
1000
0000
,
0001
0001
0001
0000
,
0010
0000
0100
0000
,
0010
0010
0010
0000
,
0100
0000
1000
0000
,
0001
0001
0001
0000
,
1000
0000
0010
0000
,
1000
1000
1000
0000
,
0010
0000
0100
0000
,
0100
0000
0000
0000
,
0010
0000
0000
0000
,
1000
0000
0000
0000
,
0001
0000
0000
0000
,
1000
0000
0000
0000
,
1001
0000
0000
0000
,
1000
0000
0001
0000
,
0100
0000
0000
0000
,
0100
0000
0010
0000
,
0100
0000
0000
0000
,
0001
0000
1000
0000
,
0010
0000
0000
0000
,
1000
0000
0001
0000
,
1000
0000
1000
0000
,
0100
0000
0100
0000
,
0010
0000
0100
0000
,
0010
0000
0010
0000
,
0001
0000
0001
0000
,
0100
0000
0100
0000
,
0010
0000
0100
0000
,
0010
0000
0010
0000
,
1000
0000
1000
0000
,
0001
0000
0001
0000
,
0010
0000
0010
0000
,
0100
0100
0100
0000
,
1000
0000
0001
0000
,
0100
0000
0010
0000
,
0110
0000
0000
0000
,
0000
0000
0000
0000
,
1000
0000
1000
0000
,
0001
0001
0001
0000
,
1000
0000
0010
0000
,
1000
1000
1000
0000
,
0001
0000
0001
0000
,
1000
1000
1000
0000
,
0001
0000
0010
0000
,
0001
0001
0001
0000
,
0010
0000
0100
0000
,
0010
0010
0010
0000
,
0100
0000
1000
0000
,
0001
0001
0001
0000
,
1000
0000
1000
0000
,
0010
0010
0010
0000
,
0100
0000
0100
0000
,
0001
0001
0001
0000
,
1000
0000
0000
0000
,
1000
0000
0000
0000
,
0100
0000
0000
0000
,
0100
0000
0000
0000
,
0010
0000
0000
0000
,
0010
0000
0000
0000
,
0001
0000
0000
0000
,
0001
0000
0000
0000
;

//---------------dance-single - ----------------
#NOTEDATA:;
#CHARTNAME:;
#STEPSTYPE:dance-single;
#DESCRIPTION:;
#CHARTSTYLE:;
#DIFFICULTY:Easy;
#METER:7;
#RADARVALUES:0.309488,0.397582,0.064911,0.032456,0.000000,267.000000,259.000000,8.000000,4.000000,0.000000,0.000000,0.000000,0.000000,0.000000,0.309488,0.397582,0.064911,0.032456,0.000000,267.000000,259.000000,8.000000,4.000000,0.000000,0.000000,0.000000,0.000000,0.000000;
#CREDIT:Daniel Van Eden;
#NOTES:
0000
0000
0000
0000
,
0000
0000
0000
0000
,
0000
0000
0000
0000
,
0000
0000
0000
0000
,
0000
0000
0000
0000
,
0000
0000
0000
0000
,
0000
0000
0000
0000
,
0000
0000
0000
0000
,
0000
0000
0000
0000
,
0000
0000
0000
0000
,
0000
0000
0000
0000
,
0000
0000
0000
0000
,
0000
0000
0000
0000
,
1000
0000
0000
1000
0000
0000
0000
0000
,
0001
0000
0000
0001
0000
0000
0000
0000
,
0010
0000
0000
0010
0000
0000
0000
0000
,
0100
0000
0000
0100
0000
0000
0000
0000
,
0010
0000
0000
0010
0000
0000
0010
0000
,
0001
0000
0000
0001
0000
0000
0000
0000
,
1000
0000
0000
1000
0000
0000
1000
0000
,
0010
0000
0000
0010
0000
0000
0000
0000
,
0100
0100
0100
0010
,
0100
0001
0001
0000
,
0010
0010
0010
0100
,
0010
0100
0100
0000
,
1000
1000
1000
0001
,
0010
0001
1000
0000
,
0001
0001
0001
0100
,
0100
0000
0010
0010
,
1000
0000
1000
0000
1000
0000
0000
1000
,
0000
0100
0100
0010
,
0010
0000
0100
0000
0010
0000
0000
0001
,
0000
0001
1000
0001
,
0001
0000
0001
0000
0001
0000
0000
0001
,
0000
0100
0100
0010
,
0010
0000
0100
0000
0010
0000
0000
1000
,
0000
1000
0001
1000
,
1000
0000
0001
0000
1001
0000
0000
0001
,
0000
1000
1000
0100
,
0100
0000
0010
0000
0100
0000
0000
0010
,
0000
0010
0001
0001
,
0100
0000
0100
0000
0110
0000
0000
0010
,
0000
1000
1000
0001
,
0001
0000
0100
0000
0001
0000
0000
0010
,
0000
0010
0100
0100
,
1000
0000
0001
0000
,
0100
0000
0000
0100
0000
0000
0000
0000
,
0100
0000
0000
0100
0000
0000
0000
0000
,
0010
0000
0000
0010
0000
0000
0000
0000
,
0010
1000
0001
1000
,
0001
0000
0010
0000
,
0001
0001
1000
0001
,
0100
0000
0100
0000
,
0010
0010
1000
0001
,
1000
0000
0100
0000
,
0010
0010
0100
0010
,
0001
0000
1000
0000
,
0001
0100
0100
0000
,
1001
0000
1000
0000
,
0010
0010
1000
0001
,
1000
0000
0100
0000
,
0010
0010
0100
1000
,
0100
0000
0010
0000
,
0001
0001
1000
0001
,
0100
0000
0010
0000
,
0100
0100
0100
0000
,
0001
0100
0001
0001
,
1000
0001
1000
1000
,
0100
1000
0100
0100
,
0010
0100
0010
0010
,
0001
0000
0010
0000
,
0100
0100
1000
0001
,
1001
0000
0000
0000
,
0000
0000
0000
0000
,
1000
1000
0010
1000
,
1000
0001
1000
0000
,
0001
0001
0010
0001
,
1000
0001
0100
0000
,
1000
1000
0100
0010
,
0100
0010
0010
0000
,
0001
0001
0100
0010
,
0100
0010
0010
0000
,
1000
0000
1001
0001
,
1000
0100
0010
0010
,
0100
0000
0110
0010
,
0001
1000
0010
0010
,
0100
0000
0110
0100
,
0001
1000
0010
0010
,
1000
0000
1001
0001
,
0010
0001
1000
1000
,
0002
0000
0010
0000
,
0010
0010
0010
0000
,
2003
0000
0010
0000
,
0010
0010
0010
0000
,
3002
0000
0100
0000
,
0100
0100
0100
0000
,
2003
0000
0100
0000
,
0100
0100
0100
0000
,
3000
0000
0000
0000
;
