#VERSION:0.83;
#TITLE:CaptivAte~裁き~;
#SUBTITLE:;
#ARTIST:DJ YOSHITAKA feat.A/I;
#TITLETRANSLIT:;
#SUBTITLETRANSLIT:;
#ARTISTTRANSLIT:;
#GENRE:;
#ORIGIN:;
#CREDIT:;
#BANNER:CaptivAte~sabaki~.png;
#BACKGROUND:CaptivAte~sabaki~-bg.png;
#PREVIEWVID:;
#JACKET:CaptivAte~sabaki~-jacket.png;
#CDIMAGE:;
#DISCIMAGE:;
#LYRICSPATH:;
#CDTITLE:;
#MUSIC:CaptivAte~sabaki~.ogg;
#OFFSET:-0.368000;
#SAMPLESTART:56.965000;
#SAMPLELENGTH:24.736000;
#SELECTABLE:YES;
#BPMS:0.000=180.000;
#STOPS:68.000=0.667;
#DELAYS:;
#WARPS:;
#TIMESIGNATURES:0.000=4=4;
#TICKCOUNTS:0.000=4;
#COMBOS:0.000=1;
#SPEEDS:0.000=1.000=0.000=0;
#SCROLLS:0.000=1.000;
#FAKES:;
#LABELS:0.000=Song Start;
#BGCHANGES:-1.000=CaptivAte~sabaki~.mp4=1.000=0=0=0=StretchNoLoop====,
99999=-nosongbg-=1.000=0=0=0 // don't automatically add -songbackground-
;
#KEYSOUNDS:;
#ATTACKS:
;

//---------------dance-single - ----------------
#NOTEDATA:;
#CHARTNAME:;
#STEPSTYPE:dance-single;
#DESCRIPTION:;
#CHARTSTYLE:;
#DIFFICULTY:Beginner;
#METER:4;
#RADARVALUES:0.149471,0.287037,0.157407,0.018519,0.000000,113.000000,96.000000,17.000000,2.000000,0.000000,0.000000,0.000000,0.000000,0.000000,0.149471,0.287037,0.157407,0.018519,0.000000,113.000000,96.000000,17.000000,2.000000,0.000000,0.000000,0.000000,0.000000,0.000000;
#CREDIT:;
#NOTES:
0000
0000
0000
0000
,
0000
0000
0000
0000
,
0000
0000
0000
0000
,
0000
0000
0000
0000
,
0000
0000
0000
0000
,
0000
0000
0000
0000
,
0000
0000
0000
0000
,
0000
0000
0000
0000
,
0000
0000
0000
0000
,
1000
0000
0000
0000
,
0000
0000
0000
0000
,
0001
0000
0000
0000
,
0000
0000
0000
0000
,
0100
0000
0000
0000
,
0000
0000
0000
0000
,
0010
0000
0000
0000
,
0000
0000
0000
0000
,
1001
0000
1000
0000
,
0000
0000
0100
0000
,
0000
0000
1000
0000
,
0000
0000
0010
0000
,
0000
0000
1001
0000
,
0000
0000
0001
0000
,
0000
0000
0100
0000
,
0000
0000
0001
0000
,
0000
0000
1001
0000
,
0000
0000
1000
0000
,
0000
0000
0010
0000
,
0000
0000
0010
0000
,
0000
0000
0110
0000
,
0000
0000
0100
0000
,
0000
0000
1000
0000
,
1000
0000
1000
0000
,
0000
0000
1001
0000
,
0000
0000
0001
0000
,
0100
0000
0001
0000
,
0000
0000
0100
0000
,
0010
0000
0100
0000
,
0000
0000
0010
0000
,
1000
0000
0010
0000
,
0000
0000
1000
0000
,
0001
0000
1001
0000
,
0000
0000
0110
0000
,
0000
0000
0001
0000
,
1000
0000
0001
0000
,
0010
0000
0100
0000
,
1000
0000
0001
0000
,
0000
0000
0100
0000
,
0010
0000
1000
0000
,
0100
0000
0010
0000
,
0100
0000
1001
0000
,
0000
0000
1000
0000
,
0010
0000
1000
0000
,
0001
0000
0010
0000
,
0100
0000
0110
0000
,
0000
0000
0010
0000
,
0001
0000
1001
0000
,
1000
0000
0010
0000
,
0100
0000
0110
0000
,
0000
0000
0010
0000
,
0010
0000
1001
0000
,
0000
0000
0100
0000
,
0100
0000
0110
0000
,
0000
0000
1000
0000
,
0001
0000
1001
0000
,
1000
0000
0100
0100
,
0100
0000
0110
0000
,
0010
0000
0001
0000
,
1000
0000
0001
0000
,
0100
0000
0010
0000
,
1000
0000
1001
0000
,
0001
0000
0010
0000
,
0100
0000
1000
1000
,
1000
0000
0001
0001
,
0001
0000
2002
0000
,
0000
0000
0000
0000
,
0000
0000
0000
0000
,
0000
0000
3003
0000
;

//---------------dance-single - ----------------
#NOTEDATA:;
#CHARTNAME:;
#STEPSTYPE:dance-single;
#DESCRIPTION:;
#CHARTSTYLE:;
#DIFFICULTY:Easy;
#METER:6;
#RADARVALUES:0.252646,0.358796,0.148148,0.037037,0.000000,191.000000,175.000000,16.000000,4.000000,0.000000,0.000000,0.000000,0.000000,0.000000,0.252646,0.358796,0.148148,0.037037,0.000000,191.000000,175.000000,16.000000,4.000000,0.000000,0.000000,0.000000,0.000000,0.000000;
#CREDIT:;
#NOTES:
0000
0000
0000
0000
,
0000
0000
0000
0000
,
0000
0000
0000
0000
,
0000
0000
0000
0000
,
0000
0000
0000
0000
,
0000
0000
0000
0000
,
0000
0000
0000
0000
,
0000
0000
0000
0000
,
0000
0000
0000
0000
,
1001
0000
0000
0000
,
0001
0000
0000
0000
,
0100
0000
0010
0000
,
1000
0000
0010
0000
,
1001
0000
0000
0000
,
1000
0000
1000
0000
,
0100
0000
0100
0000
,
0010
0001
0010
0000
,
2002
3003
0000
0000
0001
0000
0000
0000
,
0100
0000
0010
0000
,
0100
0000
0010
0000
,
1000
0000
0001
0000
,
1000
0000
1001
0000
,
0001
0010
0100
0010
,
0001
0000
1000
0000
,
0001
0100
0010
0100
,
0001
0000
1001
0000
,
1000
0000
0100
0000
,
0010
0000
0100
0000
,
1000
0000
0010
0000
,
0100
0000
1001
0000
,
0001
0010
0100
0000
,
1000
0001
0100
0000
,
0010
1000
0010
1000
,
0001
0000
1001
0000
,
1000
0100
1000
0000
,
0100
0000
0010
0000
,
0001
0010
0001
0000
,
1000
0000
0001
0000
,
0100
0001
0100
0000
,
0010
0000
1000
0010
,
1000
0000
0001
0000
,
1000
0000
1001
0000
,
0000
0000
0110
0000
,
0001
0100
0010
1000
,
0001
0000
1000
0100
,
0010
0000
0001
0010
,
0100
0000
1000
1000
,
0001
1000
1000
0010
,
1000
0000
0001
0001
,
0010
0001
0001
1000
,
0001
0000
0110
0000
,
1000
0100
0010
0100
,
1000
0000
0001
0001
,
0100
0000
0010
1000
,
0001
0000
0010
0010
,
0100
1000
0100
0100
,
0010
0000
0001
0001
,
0100
0010
1000
0001
,
0100
0000
0110
0000
,
0010
0000
0010
1000
,
0001
0010
0000
0110
,
0000
0000
0100
1000
,
0001
0100
0000
1001
,
0000
0000
1000
1000
,
0010
0100
0001
0000
,
1000
0100
1000
0001
,
0010
0000
0110
0000
,
0100
1000
0001
1000
,
0010
0000
0100
0000
,
0001
0000
1000
0000
,
0010
0000
1001
0000
,
0001
0010
0100
1000
,
0010
0000
0100
0100
,
0010
0010
1000
0001
,
1000
0001
2002
0000
,
0000
0000
0000
0000
,
0000
0000
0000
0000
,
0000
0000
3003
0000
;

//---------------dance-single - ----------------
#NOTEDATA:;
#CHARTNAME:;
#STEPSTYPE:dance-single;
#DESCRIPTION:;
#CHARTSTYLE:;
#DIFFICULTY:Medium;
#METER:8;
#RADARVALUES:0.335979,0.502315,0.212963,0.092593,0.000000,254.000000,231.000000,23.000000,10.000000,0.000000,0.000000,0.000000,0.000000,0.000000,0.335979,0.502315,0.212963,0.092593,0.000000,254.000000,231.000000,23.000000,10.000000,0.000000,0.000000,0.000000,0.000000,0.000000;
#CREDIT:;
#NOTES:
0000
0000
0000
0000
,
0000
0000
0000
0000
,
0000
0000
0000
0000
,
0000
0000
0000
0000
,
0000
0000
0000
0000
,
0000
0000
0000
0000
,
0000
0000
0000
0000
,
0000
0000
0000
0000
,
0000
0000
0000
0000
,
1001
0000
0001
0100
,
0010
1000
0001
0000
,
0010
0000
0100
0000
,
1000
0000
0001
0000
,
1001
0000
1000
0010
,
0100
0001
1000
0000
,
0100
0100
0010
0010
,
0001
1000
0010
0000
,
2002
3003
0000
0000
1001
0000
0000
0000
,
0001
0100
0001
1000
,
0010
0000
1000
1000
,
0100
0000
0010
0010
,
0001
0000
1001
0000
,
0001
0100
0001
1000
,
0010
1000
0001
0000
,
0010
0100
1000
0100
,
0010
0100
0010
0000
0001
0000
0000
0000
,
0100
0001
0100
0100
,
0010
0000
1001
0000
,
1000
1000
0100
0000
,
0010
0010
0001
0000
,
0100
0000
0001
0000
1000
0001
1000
0000
,
0100
0010
0001
0001
,
0100
0100
0010
0010
,
1000
0001
1000
0001
1000
0000
0000
0000
,
0000
0100
0010
0000
,
0001
0010
0100
1000
,
0001
0000
0100
0010
,
1000
0010
0110
0000
,
0100
0001
1000
0001
,
0010
0000
0100
0100
,
1000
0100
0010
0000
,
0001
1000
2002
3003
,
1000
0001
1000
0001
0020
0000
0000
0000
,
0030
0000
0100
0000
1000
0000
0000
0100
,
0000
0000
0010
0000
0001
0000
0000
1000
,
0000
0000
0001
0000
0100
0000
0000
0010
,
0000
1000
1001
0001
,
0010
0100
0010
0001
,
0100
0010
0100
0001
,
1000
0001
0010
0100
,
0010
0100
0010
0000
1001
0000
0000
0000
,
1000
0000
0010
0000
0100
0000
0000
0001
,
0000
0000
1000
0000
0001
0000
0000
0010
,
0000
0100
1000
0001
,
0100
0010
0100
0000
1001
0000
0001
0000
,
0010
0100
1001
1000
,
0010
0100
1001
1000
,
0110
0000
0001
0000
0100
0010
0100
0000
,
0010
0100
0010
0000
2002
0000
0000
0000
,
0000
0000
0000
0000
,
0000
3003
0100
0110
,
0000
0000
0010
1000
,
0001
1000
0001
0000
0010
0000
0110
0000
,
0000
0000
0000
0000
0010
0000
0001
1000
,
0001
0100
0110
0000
,
0010
0000
1000
0000
0100
1000
0100
0000
,
0020
0000
0000
0000
0031
0100
0001
0000
,
1000
0010
1000
0100
,
0010
0001
1001
1000
,
1010
0010
0110
0100
,
1001
0000
0000
0000
0001
0010
0001
0000
,
1000
0000
0010
0000
1000
0100
1000
0000
,
0001
0100
0001
0000
0010
0100
0010
0000
,
0001
0000
1000
0000
0001
1000
0001
1000
,
0010
0000
2002
0000
,
0000
0000
0000
0000
,
0000
0000
0000
0000
,
0000
0000
3003
0000
;

//---------------dance-single - ----------------
#NOTEDATA:;
#CHARTNAME:;
#STEPSTYPE:dance-single;
#DESCRIPTION:;
#CHARTSTYLE:;
#DIFFICULTY:Hard;
#METER:12;
#RADARVALUES:0.490741,0.645833,0.212963,0.259259,0.050926,371.000000,348.000000,23.000000,28.000000,0.000000,0.000000,0.000000,0.000000,0.000000,0.490741,0.645833,0.212963,0.259259,0.050926,371.000000,348.000000,23.000000,28.000000,0.000000,0.000000,0.000000,0.000000,0.000000;
#CREDIT:;
#NOTES:
0000
0000
0000
0000
,
0000
0000
0000
0000
,
0000
0000
0000
0000
,
0000
0000
0000
0000
,
0000
0000
0000
0000
,
0000
0000
0000
0000
,
0000
0000
0000
0000
,
0000
0000
0000
0000
,
0000
0000
0000
0000
,
1001
0000
0001
0100
0000
0010
0000
1000
,
0000
0001
0001
0000
0000
0000
0000
0000
,
1000
0000
0100
0000
,
0010
0000
0001
0000
,
1001
0000
1000
0010
0000
0100
0000
0001
,
0000
1000
1000
0000
0100
0010
0100
0000
,
0020
0000
0031
1000
0002
0000
0103
0010
,
0200
0000
0001
0000
0310
1000
0010
1000
,
0002
0003
0000
0000
1001
0000
1000
0100
,
1000
0100
0000
0010
0000
0001
0100
0010
,
0100
0010
1000
0000
0001
0000
1000
0010
,
0100
0000
0001
0010
0100
0000
1000
0001
,
0100
0010
1000
0000
1001
0000
0001
0100
,
0000
0010
0000
1000
0000
0001
0010
0001
,
0000
0000
0010
0000
0100
0000
0010
0000
0100
0000
0000
0100
0000
0000
0100
0000
,
1000
0000
0000
1000
0000
0000
1000
0000
0001
0000
0000
0001
0000
0000
0001
0000
,
0100
0000
0000
0100
0000
0000
0010
0000
1001
0000
0000
0000
1000
0000
0010
0000
,
1000
0001
0000
0011
0000
0010
0100
0010
,
0001
0100
0010
0000
1000
0000
0100
0010
,
0001
0000
0100
0010
1000
0000
0001
0010
,
0100
0010
0001
0000
1001
0000
0001
0100
,
0010
0000
0000
0010
1000
0000
0000
0000
0001
0000
0000
0000
0010
0000
0010
0000
,
0100
0000
0000
0000
0010
0000
0001
0000
0100
0000
0000
0100
0000
0000
0100
0000
,
0010
0000
0000
0010
0000
0000
0010
0000
1000
0000
0001
0000
0000
0000
0001
0000
,
0010
0100
1000
0000
2002
0000
0000
0000
,
3003
0000
0001
0000
0200
0000
0000
0320
,
0000
0000
2030
0000
3002
0000
0000
0013
,
0200
0000
0000
0300
,
1001
0000
0001
0010
0002
0000
0000
0000
,
0000
0000
0103
0000
0020
0000
0000
2030
,
0000
0000
3002
0000
0023
0000
0000
0230
,
0000
2300
3020
0000
,
0100
0130
2002
3003
,
1000
0001
1000
0001
0010
0000
0100
0000
,
0010
0001
1000
0000
0001
0100
0010
1000
,
0000
1000
0001
0000
0010
0100
1000
0010
,
0000
0010
0100
0000
0001
0010
0100
1000
,
0000
0010
0010
0100
1001
0000
1000
0100
,
0010
0001
0100
0000
0010
1000
0001
0010
,
0100
0010
0001
0000
1001
0000
1000
0010
,
0100
0000
0001
0000
0010
0000
0000
0000
0100
0000
0000
0100
1000
0000
0001
0000
,
1000
0000
0000
1000
0010
0000
0000
0000
0220
0000
0000
0000
0000
0000
0000
0000
,
0330
0000
0100
0000
0001
0010
0100
1000
,
0000
0010
0100
0000
0001
1000
0010
1000
,
0000
1000
0100
0001
0000
0100
0010
0001
,
1000
1000
0010
0010
1001
0000
0001
0010
,
0100
1000
0010
0000
0100
1000
0100
0001
,
0000
0010
0100
0000
0110
0000
0010
0001
,
1000
0000
0001
0000
0100
0000
0000
0000
0010
0000
0000
0010
1000
0000
1000
0000
,
0001
0000
0000
0001
1000
0000
0100
0000
0010
0000
0000
0000
0010
0000
0000
0000
,
0100
0100
0010
0010
,
0100
0100
0000
1001
,
0000
0000
0000
0000
1000
0100
1000
0001
,
1000
0010
1000
0001
1000
0100
1001
0000
,
0000
0000
0000
0000
0001
0100
0001
1000
,
0001
0010
0001
1000
1001
0000
1000
1010
,
0000
0011
0000
1001
0000
0001
0100
0010
,
2000
0000
0001
0000
3100
0000
1000
0001
,
0000
0010
0001
1000
0000
0010
1000
1000
,
0100
0010
0100
0000
0110
0000
0010
0001
,
0200
0000
0310
1000
0200
0000
1300
0001
,
0100
0100
0001
1000
0100
0000
0010
0001
,
1000
0001
0100
0010
0010
1000
0100
1000
,
0001
0100
0010
0000
1000
0100
1000
0010
,
0100
0001
0010
0001
0100
0010
1000
0001
,
0010
0010
0100
0100
2002
0000
0000
0000
,
0000
0000
0000
0000
,
0000
0000
0000
0000
,
0000
0000
3003
0000
;

//---------------dance-single - ----------------
#NOTEDATA:;
#CHARTNAME:;
#STEPSTYPE:dance-single;
#DESCRIPTION:;
#CHARTSTYLE:;
#DIFFICULTY:Challenge;
#METER:15;
#RADARVALUES:0.638889,0.968750,0.287037,0.203704,0.361111,483.000000,452.000000,31.000000,22.000000,0.000000,0.000000,0.000000,0.000000,0.000000,0.638889,0.968750,0.287037,0.203704,0.361111,483.000000,452.000000,31.000000,22.000000,0.000000,0.000000,0.000000,0.000000,0.000000;
#CREDIT:;
#NOTES:
// measure 0
0000
0000
0000
0000
,  // measure 1
0000
0000
0000
0000
,  // measure 2
0000
0000
0000
0000
,  // measure 3
0000
0000
0000
0000
,  // measure 4
0000
0000
0000
0000
,  // measure 5
0000
0000
0000
0000
,  // measure 6
0000
0000
0000
0000
,  // measure 7
0000
0000
0000
0000
,  // measure 8
0000
0000
0000
0000
,  // measure 9
1001
0000
1000
0100
0010
0001
0010
0100
,  // measure 10
0000
1000
1000
0000
0000
0000
0000
0000
,  // measure 11
0020
0000
0000
0030
2000
0000
0000
3000
,  // measure 12
0002
0000
0000
0003
0220
0000
0000
0330
,  // measure 13
1001
0000
1000
0010
0000
1000
0100
0010
,  // measure 14
0000
0100
1000
1000
0001
0100
0010
0000
,  // measure 15
1000
0100
1000
0100
0010
0001
0010
0001
,  // measure 16
0100
0010
0100
0000
0010
0100
0010
0000
1000
0001
1000
0001
1000
0001
1000
0001
,  // measure 17
0020
0030
0000
0000
0110
0000
0100
1000
,  // measure 18
0001
0100
0010
1000
0000
0001
0010
0001
,  // measure 19
1000
0010
0100
0000
0201
0000
1300
0000
,  // measure 20
0021
1030
1200
0301
,  // measure 21
0100
0100
0010
0010
1001
0000
0001
0100
,  // measure 22
0000
0010
1000
0001
0000
0010
1000
0010
,  // measure 23
0100
0000
0010
0000
0001
0000
1000
0000
0001
0000
0000
0001
0000
0000
0100
0000
,  // measure 24
0010
0000
0000
0010
0000
0000
1000
0000
0001
0000
0000
0001
0000
0000
0010
0000
,  // measure 25
0100
0100
1000
1000
1001
0000
0000
0000
,  // measure 26
0001
0100
0010
1000
0000
1000
0010
0100
,  // measure 27
1000
0100
0001
0000
0021
0000
1030
0000
,  // measure 28
0201
1300
1020
0031
,  // measure 29
0010
0010
0100
0001
1001
0000
1000
0100
,  // measure 30
0010
0000
0000
0001
0000
0000
0100
0000
0010
0000
0000
0000
1000
0000
0001
0000
,  // measure 31
0001
0000
0010
0000
0001
0000
0100
0000
0010
0000
0000
1000
0000
0000
1000
0000
,  // measure 32
0001
0000
0000
1000
0000
0000
1000
0000
0100
0000
0110
0000
0000
0000
0010
0000
,  // measure 33
0001
0000
0001
0000
0100
0000
0010
1000
0020
0000
0000
0000
0100
0000
0000
0000
,  // measure 34
0130
0000
0010
0000
2000
0001
0000
0000
,  // measure 35
3010
0000
0000
0000
1000
0000
0010
0100
,  // measure 36
0002
0000
0010
0000
0003
1000
0001
0000
,  // measure 37
0011
0000
0001
0100
1000
0000
0100
0010
,  // measure 38
1000
0000
0001
0000
2000
0100
0000
0000
,  // measure 39
3001
0000
0010
0000
1001
0000
1000
0001
,  // measure 40
0100
0010
0200
1000
,  // measure 41
0010
0000
0301
0100
2002
0000
3003
0000
,  // measure 42
0001
0010
0100
1000
0001
0100
0010
1000
,  // measure 43
0001
0000
0010
0100
0000
0100
1000
0000
0001
0000
1000
0000
0010
0000
0100
0000
,  // measure 44
0001
0000
1000
0100
0000
0100
0010
0000
0001
0000
1000
0000
0001
0000
0100
0000
,  // measure 45
0010
0000
1000
0001
0000
0001
0010
0000
0100
0000
1000
0000
0001
0000
0100
0000
,  // measure 46
0000
0010
0010
0100
1001
0000
1000
0001
,  // measure 47
0010
0000
0001
0100
0000
0100
0010
0000
1000
0100
0000
0100
0010
0000
0010
0001
,  // measure 48
0000
0001
0100
0000
0010
0000
1000
0000
1001
0000
0000
0000
0001
0010
0000
0100
,  // measure 49
0010
0000
0100
1000
0000
0001
1000
0000
0010
0000
0000
0010
1000
0000
0001
1000
,  // measure 50
0100
0000
0000
0100
0010
0000
0001
0010
0001
0000
1000
0000
0001
0000
0100
0000
,  // measure 51
0010
0000
1000
0001
0000
0001
0010
0000
0100
0000
1000
0000
0100
0000
0010
0000
,  // measure 52
0001
0000
0100
0010
0000
0010
1000
0000
0001
0000
0010
0000
0100
0000
1000
0000
,  // measure 53
0010
0000
0100
0001
0000
0001
0010
0000
0100
0000
0110
0000
0000
0000
0010
0000
,  // measure 54
1100
0001
0101
1000
1001
0000
1000
0100
,  // measure 55
0010
0000
0001
1000
0000
1000
0010
0000
0100
0001
0000
0001
0010
0000
0100
1000
,  // measure 56
0000
1000
0010
0000
0100
0000
0001
0000
1001
0000
0000
0000
1000
0010
0000
0100
,  // measure 57
0010
0000
0100
0001
0000
1000
0001
0000
0010
0000
0000
0010
0100
0000
1000
0001
,  // measure 58
1000
0000
0000
1000
0010
0000
0100
0001
2000
0000
0000
0000
0010
0000
0000
0000
,  // measure 59
0010
0000
0010
0000
3010
1000
0000
1000
,  // measure 60
0100
0000
0010
0000
0001
0000
0000
0000
0100
0000
0100
0001
1000
0000
0000
0000
,  // measure 61
0000
0000
0000
0000
0000
0000
1000
0000
0100
0000
0010
0001
0010
0000
0100
0000
,  // measure 62
1000
0000
0010
1000
0010
0000
0100
0000
0001
0000
0001
0010
0100
0000
0000
0000
,  // measure 63
0000
0000
0000
0000
0000
0000
0000
0000
0010
0000
0010
0000
0001
1000
0001
1000
,  // measure 64
0001
0000
0100
0000
0100
0010
0100
0010
1000
0000
0000
0000
0000
0000
1001
0000
,  // measure 65
0000
0110
0000
1001
0000
1000
0001
0100
,  // measure 66
0001
0010
0100
1000
0020
0000
0000
0000
0130
0000
1000
0000
0100
0000
0001
0000
,  // measure 67
0000
0100
0001
0010
0100
0001
0100
1000
,  // measure 68
0000
0000
1000
0001
0010
0000
0000
0000
0110
0000
0000
0000
0100
0000
1000
0000
,  // measure 69
0001
0000
0000
0001
0100
0000
0010
0000
0000
0000
0101
0000
0000
0000
1100
0000
,  // measure 70
0000
0010
0010
0100
1001
0000
1000
0100
,  // measure 71
0010
0000
0100
0000
0010
0001
0010
0000
0001
0000
1000
0000
0001
0100
0001
0000
,  // measure 72
0100
0000
0010
0000
1000
0010
1000
0000
0001
1000
0100
0000
1000
0001
0100
0000
,  // measure 73
0001
1000
0010
0000
1000
0001
0010
0000
0100
1000
0010
0000
0100
0001
0010
0000
,  // measure 74
0100
1000
0100
1000
0001
0100
0010
1000
0002
0000
0000
0000
0000
0000
0000
0000
,  // measure 75
0000
0000
0000
0000
,  // measure 76
0000
0000
0000
0000
,  // measure 77
0000
0000
0003
0000
;
