#TITLE:CHIMERA;
#SUBTITLE:-DDR EDIT-;
#ARTIST:96;
#BANNER:CHIMERA -DDR EDIT--bn.png;
#BACKGROUND:CHIMERA -DDR EDIT--bg.png;
#JACKET:CHIMERA -DDR EDIT--jacket.png;
#MUSIC:CHIMERA -DDR EDIT-.ogg;
#OFFSET:0.833;
#SAMPLESTART:96.367;
#SAMPLELENGTH:20;
#DISPLAYBPM:200;
#BPMS:0=200;
#BGCHANGES:;

//---------------dance-single - ----------------
#NOTES:
     dance-single:
     :
     Beginner:
     4:
     :
0000
0000
0000
0000
,
0000
0000
0000
0000
,
0000
0000
0000
0000
,
0000
0000
0000
0000
,
0000
0000
0000
0000
,
2000
0000
3000
0000
,
0001
0000
0100
0000
,
0020
0000
0030
0000
,
1000
0000
0001
0000
,
1001
0000
0000
0000
,
0000
0000
0000
0010
,
0010
0000
0000
0000
,
0000
0000
0000
0100
,
0200
0000
0300
0000
,
0001
0000
0010
0000
,
0002
0000
0003
0000
,
1000
0000
1000
0000
,
0020
0000
0030
0000
,
0200
0000
0300
0000
,
0001
0000
0010
0000
,
0100
0000
1000
0000
,
0002
0000
0003
0000
,
2000
0000
3000
0000
,
0002
0000
0003
0000
,
0100
0000
0010
0000
,
1001
0000
0000
0000
,
0000
0000
1000
1000
,
1000
0000
0000
0000
,
0000
0000
0110
0000
,
1001
0000
0000
0000
,
0000
0000
0001
0001
,
0002
0000
0003
0000
,
0110
0000
1001
0000
,
0010
0000
0010
0000
,
0010
0000
1000
1000
,
1000
0000
0001
0000
,
1000
0000
0010
0010
,
0010
0000
0100
0000
,
0100
0000
0001
0001
,
0001
0000
0010
0000
,
0001
0000
1000
0000
,
0200
0000
0300
0000
,
1000
0000
0001
0000
,
2000
0000
3000
0000
,
0020
0000
0030
0000
,
0200
0000
0300
0000
,
0002
0000
0003
0000
,
0010
0000
0001
0000
,
0100
0000
1000
0000
,
0002
0000
0003
0000
,
1000
0000
0010
0000
,
1000
0000
1000
0000
,
0001
0000
0001
0000
,
0100
0000
0010
0000
,
1000
0000
0001
0000
,
0010
0000
0001
0000
,
0100
0100
0100
0000
,
2000
0000
3000
0000
,
0001
0000
0010
0000
,
0002
0000
0003
0000
,
0200
0000
0300
0000
,
0020
0000
0030
0000
,
2000
0000
3000
0000
,
0001
0001
0001
0000
,
1000
1000
1000
0000
,
0200
0000
0300
0000
,
1000
0000
1000
0000
,
1000
0000
0010
0000
,
0001
0000
0010
0000
,
0100
0000
0100
0000
,
0110
0000
0110
0000
,
0002
0000
0000
0000
,
0000
0000
0003
0000
,
2000
3000
0000
0010
,
0020
0030
0000
0100
,
0100
0000
0010
0000
,
0100
0000
0001
0000
,
0020
0030
0000
0001
,
0002
0003
0000
1000
,
2000
0000
3000
0000
,
0010
0000
0100
0000
,
1001
0000
0000
0000
,
0000
0000
0000
0001
,
0001
0000
0000
0000
,
0000
0000
0000
1000
,
2000
0000
3000
0000
,
0010
0000
1000
0000
,
0200
0000
0300
0000
,
0001
0000
1000
0000
,
0010
0000
1000
0000
,
0100
0000
0100
0000
,
0010
0000
0001
0000
,
0100
0000
0100
0000
,
0001
0000
0010
0000
,
1000
0000
0100
0000
,
0010
0000
0110
0000
,
0000
0000
0000
0000
,
0000
0000
2000
0000
,
3000
0000
0002
0000
,
0003
0000
0000
0000
,
1001
0000
0000
0000
,
0000
0000
0000
0000
,
0000
0000
0110
0000
;

//---------------dance-single - ----------------
#NOTES:
     dance-single:
     :
     Easy:
     8:
     :
0000
0000
0000
0000
,
0000
0000
0000
0000
,
0000
0000
0000
0000
,
0000
0000
0000
0000
,
0000
0000
0000
0000
,
2000
0001
0100
0001
,
0020
3000
0100
0130
,
0002
0010
1003
0001
,
0100
0100
0010
0010
,
2002
3000
2000
3003
,
0010
1000
0100
0001
,
0220
0030
0020
0330
,
0100
1000
0010
0001
,
0200
0010
1000
0010
,
0002
0300
1000
1003
,
0020
0100
0100
0130
,
0002
0023
0230
2300
,
3020
0000
0000
0130
,
0002
0000
0000
1003
,
0001
0010
0001
0100
,
1000
0010
1000
0100
,
2000
0000
0000
3010
,
0200
0000
0000
0301
,
0020
0000
0000
0030
,
0001
0001
1000
1000
,
1001
0000
0000
0000
,
0000
0000
1001
0110
,
1001
0000
0000
0000
,
0000
0000
0000
0000
0000
0000
1000
0000
0001
0000
1000
0000
,
0001
0000
0000
0000
,
0000
0000
0011
0110
,
2200
0000
0000
3300
,
0202
0003
0010
0310
,
1001
0100
1001
0100
,
1001
0100
0101
1100
,
0101
0010
1100
0010
,
0101
0000
0000
0010
0000
0000
1000
0000
0001
0000
1000
0000
,
0001
0100
1000
0100
,
0001
0100
1010
0101
,
1000
0010
0100
0001
,
0010
0001
0100
1000
,
0002
0100
0100
0100
,
2000
0003
0010
3100
,
0020
0000
0000
1030
,
0002
0000
0000
0103
,
2000
0010
0000
3001
,
2000
0100
0000
3001
,
0010
0010
0100
0100
,
1000
0001
1000
0001
,
0022
0000
0033
1000
,
2200
3300
0010
0010
,
1000
0001
1000
0100
,
0010
0100
1000
0010
,
0002
0000
0000
0000
0000
2000
0000
0000
0000
3003
0000
0000
,
2020
3030
0202
0303
,
0010
0001
0010
1000
,
0100
0010
0001
1000
,
0200
0010
0000
1300
,
0002
0000
0010
0013
,
2002
0000
3003
2000
,
0200
3300
0001
1000
,
2020
0000
3030
0002
,
2003
3020
2030
3200
,
0310
0001
0100
1000
,
0010
0100
0001
1000
,
0012
1000
0100
1003
,
0201
0000
0310
0100
,
0001
0010
1000
0100
,
0010
1000
0100
0001
,
2000
3000
0002
0003
,
0020
0030
0200
0300
,
0220
0000
0000
0330
,
0001
0001
1000
1000
,
0020
0000
0000
1030
,
0002
0100
0100
0013
,
0001
0010
0100
1000
,
0010
1000
0100
0001
,
2000
0010
0010
3010
,
0002
0010
0010
0013
,
2200
0000
0000
3300
,
0010
1000
0100
0001
,
1001
0100
0010
0100
,
0001
0010
1000
0100
,
1001
0010
1000
0001
,
1000
0100
0010
0001
,
0200
0010
1000
0001
,
0020
0300
1000
1030
,
0001
0010
0100
1000
,
0101
0001
1100
1000
,
2002
3000
0200
0303
,
1000
0001
1000
0100
,
0220
0030
2000
3300
,
0010
1000
0100
0001
,
0010
0010
0100
0100
,
1000
0001
1000
0001
,
0011
0100
1010
0100
,
0001
0001
1000
1000
,
0001
1000
2020
0000
,
0000
3030
0202
0000
,
0303
0000
0000
0000
0000
0000
0000
0000
0000
0000
0000
0000
0000
0000
0000
1000
0000
0000
0000
0000
0000
0000
0000
0001
0000
0000
0000
0000
0000
0000
0000
0000
0000
0000
0000
0000
0000
0000
0000
0000
0000
0000
0000
0000
0000
0000
0000
0000
,
2002
0000
0000
0000
,
0000
0000
0000
0000
,
0000
3003
0110
0000
;

//---------------dance-single - ----------------
#NOTES:
     dance-single:
     :
     Medium:
     13:
     :
0000
0000
0000
0000
,
0000
0000
0000
0000
,
0000
0000
0000
0000
,
0000
0000
0000
0000
,
0000
0000
0000
0000
,
1100
0000
0000
0101
0000
0000
1000
0000
0001
0100
0000
0000
,
1010
0000
0000
0011
0000
0000
1000
0000
0001
0010
0000
0000
,
0002
0010
1000
0103
,
0110
0000
0000
1001
0000
0000
1000
0000
0010
0100
0000
0001
,
0020
0032
2003
3020
,
0230
0000
0000
0302
0000
0000
1003
0100
1000
0100
0000
0000
,
2000
3002
0023
0230
,
2300
0000
0000
3020
0000
0000
0130
0001
0100
0001
0000
0000
,
0010
0000
0001
1000
0000
0000
1010
0000
0000
0101
0000
0000
,
1000
0000
0001
0100
0000
0000
0011
0000
0000
1100
0000
0000
,
0020
1000
0130
1001
,
0210
0000
0000
0301
0000
1000
0200
0000
0000
1300
0000
0001
,
0200
0010
0310
1010
,
0201
0010
0310
1001
,
1000
0000
1000
0100
0000
0100
0001
0000
0001
0100
0000
0100
,
1000
0000
1000
0010
0000
0010
0001
0000
0001
0010
0000
0010
,
2000
0001
3100
1010
,
0012
0000
0000
0010
0000
0000
1003
0000
0001
0100
0000
0000
,
0201
1000
0010
0301
,
1000
0100
1000
0100
0000
0000
0010
0001
0010
0001
0000
0000
,
0200
0000
0020
0030
,
0020
0330
1001
0110
,
1001
0100
0001
0100
,
0001
0000
0000
0100
0000
0000
1000
0000
1000
0000
1000
0000
,
2002
0003
0020
0030
,
0020
3030
1100
0110
,
0022
0000
0000
0033
,
2020
0000
0000
3030
0000
0000
0100
0010
0100
0010
0000
0000
,
1001
0100
1010
0001
,
0011
0100
1100
0101
,
1100
0001
1001
0010
,
0110
0000
0000
1000
0000
0000
0001
0000
0001
0000
0001
0000
,
1001
0100
0011
1000
,
0110
0001
0011
1010
,
0001
0000
0001
1000
0000
1000
0010
0000
0010
0100
0000
0100
,
0001
0000
0001
0010
0000
0010
0100
0000
0100
1000
0000
1000
,
0002
0100
1000
0100
,
0020
0033
1001
1010
,
1200
0000
0000
0010
0000
0000
1300
0000
0000
0001
0100
0001
,
0200
0010
1000
0301
,
0002
1000
0010
0103
,
2000
0100
0010
3001
,
1000
0000
0010
1000
0000
0001
0010
0000
0010
0100
0000
0000
,
1000
0000
0100
1000
0000
0000
0001
0000
0100
0001
0000
0000
,
0020
1000
0001
1000
,
0200
0330
1001
0110
,
0001
0000
0001
0100
0000
0100
0010
0000
0010
1000
0000
0000
,
0100
0000
1000
0001
0000
0000
0010
0000
0010
0001
0000
0001
,
0100
0000
0000
0020
0000
2000
0000
0000
0000
3030
0000
0000
,
0201
0310
1200
0310
,
0001
0000
0100
0001
0000
1000
0100
0000
1000
0100
0000
0000
,
0010
0000
0010
0100
0000
0100
1000
0000
0001
1000
0000
0001
,
0100
0000
0000
0010
0000
0000
1000
0000
1000
0002
0000
0000
,
0020
0000
0000
0033
0000
0000
0001
0000
1000
0010
0000
1000
,
0002
0000
0000
0100
0000
0000
0010
0000
0000
1003
0000
0001
,
0100
0110
1001
0110
,
2000
0001
0010
3100
,
0002
0000
0000
0010
0000
0000
1000
0000
0000
0103
0000
0100
,
0010
0000
0010
1000
0000
1000
0100
0000
0100
0010
0000
0000
,
0001
0000
1000
0001
0000
0100
0010
0000
1000
0010
0000
0100
,
0002
0010
1000
0013
,
0202
0003
1000
0301
,
0100
0000
0100
0010
0000
0010
0100
0000
0100
0001
0000
0001
,
0010
0000
0010
1000
0000
1000
0010
0000
0010
0001
0000
0001
,
0200
0310
2000
3001
,
0020
0000
0000
0130
0000
0000
0002
0000
0000
1003
0000
0020
,
0200
0000
0000
0330
,
1100
0000
0000
0101
0000
0000
1100
0000
0000
0001
1000
0001
,
1000
0000
0000
0010
0000
0000
1000
0000
0001
0100
0000
0000
,
0001
0000
0000
0010
0000
0000
0001
0000
1000
0100
0000
0000
,
1000
0000
0010
0100
0000
0010
1000
0000
0001
0100
0000
0000
,
0001
0000
0010
0100
0000
0010
0001
0000
1000
0100
0000
0000
,
0012
0010
1003
0001
,
0201
0010
1000
0310
,
0110
0000
1000
0001
0000
0000
0100
0000
0000
0100
0000
0000
,
0001
0000
0010
0001
0000
0010
0100
0000
1000
0100
0000
1000
,
0002
0203
0320
2030
,
3200
0000
0000
0320
0000
0000
0031
1000
0001
1000
0000
0000
,
0020
2030
3200
0320
,
0032
0000
0000
2003
0000
0000
3010
0100
0010
0100
0000
0000
,
0101
0000
0000
1100
0000
0000
0001
0000
1000
0100
0000
0000
,
0011
0000
0000
1010
0000
0000
0001
0000
1000
0010
0000
0000
,
1001
0000
0000
0110
0000
0000
1000
0000
0010
0100
0000
0000
,
0002
0000
0000
2003
0000
0000
3001
0000
0100
0010
0000
1000
,
0100
0000
0100
0010
0000
0000
0001
0000
0001
1000
0000
0000
,
1100
0101
1100
0101
,
0020
0032
2003
3200
,
1300
0010
1000
0010
0000
0000
0100
0001
0100
0001
0000
0000
,
2000
3020
0230
0302
,
0013
0000
0010
0100
0000
0100
1000
0000
0001
1000
0000
0001
,
0100
0000
0010
1000
0000
0000
0110
0000
0000
1000
0000
0000
,
0002
0023
0230
2300
,
3100
0010
0100
0010
0000
0000
2200
0000
0000
0000
0000
0000
,
0000
3300
0202
0000
,
0303
0000
0000
0000
0000
0000
0000
0000
0000
0000
0000
0000
0000
0000
0000
1000
0000
0000
0000
0000
0000
0000
0000
0001
0000
0000
0000
0000
0000
0000
0000
0000
0000
0000
0000
0000
0000
0000
0000
0000
0000
0000
0000
0000
0000
0000
0000
0000
,
2002
0000
0000
0000
,
0000
0000
0000
0000
,
0000
0000
0000
3003
0000
0010
0100
0000
0000
0000
0000
0000
;

//---------------dance-single - ----------------
#NOTES:
     dance-single:
     :
     Hard:
     16:
     :
0000
0000
0000
0000
,
0000
0000
0000
0000
,
0000
0000
0000
0000
,
0000
0000
0000
0000
,
0000
0000
0000
0000
,
1100
0000
1000
0100
0000
0100
1000
0000
1000
0100
0000
0000
,
0101
0000
0001
0100
0000
0100
0001
0000
0001
0100
0000
0000
,
0110
0000
0010
0100
0000
0100
0010
0000
0010
0100
0000
0000
,
0002
0000
0000
0013
0001
1000
0200
0000
0000
1300
0010
0100
,
0001
0010
0100
1000
0000
0000
0001
0010
0100
1000
0000
0000
,
0001
0010
0100
1000
0100
0010
0001
0010
0100
1000
0000
0000
,
1000
0100
0010
0001
0000
0000
1000
0100
0010
0001
0000
0000
,
1000
0100
0010
0001
0010
0100
1000
0100
0010
0001
0000
0000
,
0011
0000
0001
0010
0000
0010
0001
0000
0001
0010
0000
0000
,
1010
0000
1000
0010
0000
0010
1000
0000
1000
0010
0000
0000
,
1001
0000
0001
1000
0000
1000
0001
0000
0001
1000
0000
0000
,
0020
0000
0000
1030
0001
0010
0200
0000
0000
1300
0010
0100
,
0002
0010
0013
0011
,
2100
0100
3100
1001
,
0010
1000
0010
0100
0000
0000
0001
0010
0001
1000
0000
0000
,
0010
0100
0001
1000
0000
0000
0001
0010
0001
0010
0100
1000
,
0001
0000
1000
0100
0000
0000
1000
0000
0000
1010
0000
0000
,
0201
0010
0001
0310
,
0110
0000
1000
0001
0000
0000
0100
0000
0000
0010
0000
0000
,
1000
0100
1000
0001
0000
0001
0100
0000
0100
0010
1000
0001
,
0100
0000
0001
0000
1000
0000
0010
0000
1000
0000
0001
0000
,
0010
0000
0001
0100
0000
0000
1001
0000
0000
0110
0000
0000
,
1001
0000
0010
0000
1000
0000
0010
0000
0100
0000
0001
0000
,
0010
0000
0001
0000
1000
0000
0101
0000
0101
0000
0101
0000
,
1001
0000
0001
0000
0010
0000
0001
0000
1000
0000
0100
0000
,
1000
0000
0010
0100
0000
0000
0101
0000
0000
1100
0000
0000
,
0202
0000
0000
0303
,
2020
0000
0000
3030
0000
0000
1000
0001
1000
0001
1000
0001
,
0100
0000
0001
0010
0000
0000
0011
0000
0001
1000
0000
0000
,
1010
0000
0001
1000
0000
0000
1001
0000
0000
0110
0000
0000
,
1001
0000
0010
0001
0000
0000
0101
0000
1000
0100
0000
0000
,
1100
0000
0010
0100
0000
0000
1010
0000
1010
0000
1010
0000
,
1001
0000
1000
0010
0000
0000
0110
0000
0001
0100
0000
0000
,
0101
0000
0010
0100
0000
0000
1100
0000
0000
0101
0000
0000
,
0001
0010
0100
1000
0000
0010
1000
0100
0010
0001
0000
0100
,
0001
1000
0010
0100
0001
1000
0010
0100
0001
1000
0010
0100
,
0001
0000
1000
0010
0000
0000
0100
0000
0000
0101
0000
0000
,
0010
0000
1000
0001
0000
0000
0011
0000
0000
1100
0000
0001
,
0100
0000
0100
0010
0000
0000
1001
0000
0000
1000
0100
0010
,
0002
0100
0010
1003
,
1100
0000
0001
0100
0000
0000
0010
0000
0000
1000
0000
0000
,
0102
0000
0000
0010
0000
0000
0100
0000
0000
1003
0000
0001
,
0010
0100
0010
0100
0000
0000
1000
0001
1000
0001
0000
0000
,
1000
0010
1000
0001
0010
0001
1000
0010
0100
0001
0000
0001
,
0020
0000
0000
1000
0000
0000
0001
0000
1030
0010
0000
0010
,
0100
0000
0000
1000
0000
1000
0001
0000
0001
0100
0000
0010
,
0100
0001
0100
0001
0000
0000
1000
0100
1000
0100
0000
0000
,
0010
0100
0001
0010
0100
1000
0010
0100
0001
0010
0100
1000
,
0001
0000
0100
0010
0000
2000
0000
0000
3001
0100
0000
0000
,
2100
0000
0000
3001
0000
0000
0102
0000
0000
1003
0000
0100
,
1000
0000
0001
0010
0000
0001
0100
0010
1000
0001
0000
0000
,
0010
0001
0100
0010
1000
0100
0010
0001
0100
0010
1000
0100
,
0020
0000
0000
0001
0000
0000
1000
0000
0000
0130
0000
0100
,
0010
0000
0001
1000
0000
0000
0010
0000
1000
0001
0100
0010
,
2000
0000
0000
0100
0000
0000
3001
0000
0000
1000
0001
0100
,
0020
0000
0000
0100
0000
0000
1030
0000
0000
0010
1000
0100
,
1000
0000
0001
0100
0000
0000
0001
0000
1000
0100
0000
0000
,
0110
0000
0001
0100
0000
0001
0100
0000
0010
1000
0000
0000
,
0001
0010
0001
0010
0000
0000
0100
1000
0100
1000
0000
0000
,
0010
1000
0010
1000
0000
0000
0001
0100
0001
0100
0000
0010
,
2000
0000
0000
0001
0000
0000
0010
0000
0000
3001
0010
0100
,
1000
0000
0001
0010
0000
0001
0100
0000
0100
0010
0000
0000
,
1000
0100
1000
0100
1000
0100
0010
0001
0010
0001
0010
0001
,
1000
0010
1000
0010
1000
0010
0100
0001
0100
0001
0100
0001
,
0100
0000
0100
0010
0000
0000
1010
0000
1000
0100
0000
0000
,
0011
0000
0001
0100
0000
0000
1002
0000
0000
0013
0000
0001
,
0200
0010
1000
0001
,
1000
0000
0000
0001
0000
0000
0310
1000
0100
0010
0001
0100
,
0010
0000
1000
0001
0000
0000
0001
0000
1000
0010
0000
0000
,
0100
0000
0001
1000
0000
0000
1000
0000
0001
0100
0000
0000
,
0001
0010
0001
0010
0100
0010
0001
1000
0001
1000
0000
0000
,
0010
1000
0010
0100
0001
1000
0001
0010
0001
0100
1000
0100
,
0002
0000
0000
0010
0000
0000
0103
0000
0010
0100
0000
0000
,
0010
0000
1000
0010
0000
0000
1000
0000
0001
0100
0000
0000
,
2000
0010
0001
3100
,
1000
0100
1000
0001
0100
0001
1000
0010
1000
0001
0010
0001
,
1000
0100
0010
0001
0000
0000
1000
0100
0010
0001
0000
0000
,
1000
0100
0010
0001
0010
0100
1000
0100
0010
0001
0000
0000
,
0001
0010
0100
1000
0000
0000
0001
0010
0100
1000
0000
0000
,
0001
0010
0100
1000
0100
0010
0001
0010
0100
1000
0000
0000
,
1100
0000
1000
0100
0000
0100
1000
0000
1000
0100
0000
0000
,
0101
0000
0001
0100
0000
0100
0001
0000
0001
0100
0000
0000
,
0110
0000
0010
0100
0000
0100
0010
0000
0010
0100
0000
0000
,
0002
0000
0000
0013
0100
0010
0100
0000
1000
0001
1000
0100
,
1000
0000
1000
0010
0000
0010
0100
0000
0100
0001
0000
0001
,
1000
0100
0010
0001
0010
0100
1000
0100
0010
0001
0000
0000
,
0100
0010
0100
0010
0000
0000
1000
0001
1000
0001
0000
0000
,
0001
0010
0100
1000
0100
0010
0001
0010
0100
1000
0000
0000
,
0010
1000
0010
1000
0100
1000
0010
1000
0010
0100
0000
0000
,
0001
0010
0001
0100
0001
0100
0001
0010
0001
0100
0000
0000
,
1000
0100
1000
0001
0100
0001
1000
0010
1000
0001
0010
0001
,
1000
0100
0010
0001
0010
0100
1000
0100
0010
0001
0010
0100
,
1000
0001
1000
0001
1000
0001
0200
0000
0000
0000
0000
0000
,
0000
0300
0202
0000
,
0000
0000
0000
0000
0303
0000
0000
0000
0000
0000
0000
0000
0000
0000
0000
1100
0000
0000
0000
0000
0000
0000
0000
0011
0000
0000
0000
0000
0000
0000
0000
0000
0000
0000
0000
0000
0000
0000
0000
0000
0000
0000
0000
0000
0000
0000
0000
0000
,
2002
0000
0000
0000
,
0000
0000
0000
0000
,
0000
0000
0000
3003
1000
0001
0100
0000
0000
0000
0000
0000
;

//---------------dance-single - ----------------
#NOTES:
     dance-single:
     :
     Challenge:
     18:
     :
0000
0000
0000
0000
,
0000
0000
0000
0000
,
0000
0000
0000
0000
,
0000
0000
0000
0000
,
0000
0000
0000
0000
,
1100
0000
1000
0100
0000
0100
0001
0000
0001
0100
0000
0000
,
0101
0000
0001
0100
0000
0100
1000
0000
1000
0100
0000
0000
,
0110
0000
0010
0001
0000
0001
1000
0000
1000
0010
0000
0000
,
0200
0000
0000
0301
0010
0001
1000
0010
1000
0001
0010
0100
,
1000
0010
0100
0001
0010
0100
1000
0001
0100
0010
1000
0001
,
1000
0100
0010
0001
0010
0100
1000
0100
0010
0002
0000
0000
,
0013
0001
0100
0010
1000
0100
1000
0001
0010
0001
1000
0100
,
1000
0010
0001
1000
0100
0001
1000
0010
0100
0001
0000
0000
,
0011
0000
0001
0010
0000
0010
1000
0000
1000
0010
0000
0000
,
1010
0000
1000
0010
0000
0010
0001
0000
0001
0010
0000
0000
,
1001
0000
0010
1000
0000
0100
0001
0000
0010
1000
0000
0000
,
0002
0000
0000
0013
0001
0100
2000
0000
0000
3010
1000
0001
,
0200
0010
0310
1010
,
0201
0000
0000
0010
0000
0000
0310
0000
1000
0001
0000
0000
,
0010
0001
1000
0010
1000
0001
0010
0001
1000
0010
1000
0001
,
1000
0100
0010
1000
0100
0010
0001
0010
0100
0001
0010
0100
,
2000
0000
0000
0001
0000
0000
3001
0000
0100
0001
1000
0000
,
0020
0100
0130
0101
,
2100
0001
0100
3001
,
1000
0010
0100
0001
1000
0100
0010
0001
0100
0001
0010
1000
,
0100
0000
0100
1000
0100
1000
0001
0000
0100
1000
0100
1000
,
0001
0000
0100
1000
0001
0000
1001
0000
0000
0110
0000
0000
,
1001
0000
0100
1000
0100
1000
0001
0000
0100
1000
0100
1000
,
0001
0000
0100
1000
0001
0000
0101
0000
0101
0000
0101
0000
,
1001
0000
0100
0001
0100
0001
1000
0000
0100
0001
0100
0001
,
1000
0000
0100
0001
0000
0000
0011
0000
0000
0110
0000
0000
,
2200
0000
0000
3300
,
0202
0000
0000
0303
0000
0000
1000
0100
0010
0001
0010
0100
,
1000
0000
0010
0100
0001
0000
0011
0000
0010
0001
1000
0000
,
1010
0000
0010
0100
0001
0000
0101
0000
0000
1100
0000
0000
,
0101
0000
0010
0001
1000
0000
1100
0000
0010
0100
0001
0000
,
1001
0000
0001
1000
0010
0000
1010
0000
1010
0000
1010
0000
,
1001
0000
0010
0100
0001
0000
0110
0000
0001
1000
0100
0000
,
1100
0000
0010
1000
0100
0000
1010
0000
0000
0011
0000
0000
,
0010
0001
1000
0001
0100
0010
0100
0001
1000
0010
1000
0100
,
0010
0000
0001
1000
0001
1000
0010
0000
1000
0001
1000
0001
,
0200
0000
0000
0001
0000
0000
1000
0000
0301
0100
0000
0000
,
0010
0000
1000
0010
0100
0000
0001
0000
0000
1000
0000
0010
,
0100
0000
0001
1000
0000
0000
0010
0000
0000
1000
0000
0010
,
0001
0000
0000
1010
0000
0000
0001
0000
0100
0010
1000
0010
,
2000
0000
0000
0100
0000
0000
0001
0000
3100
1000
0000
0000
,
0002
0000
0000
0010
0000
0000
1000
0000
0013
0001
0000
0100
,
0010
1000
0010
0100
0001
0100
0001
0010
0001
1000
0100
1000
,
0001
1000
0001
1000
0001
1000
0010
0100
0010
0100
0010
0100
,
0002
0000
0000
0010
0000
0000
1003
0000
0001
0100
0000
0100
,
0020
0000
0000
1000
0000
0000
0001
0000
1030
0010
0000
0100
,
0001
0010
0001
1000
0010
1000
0001
0100
0001
1000
0100
1000
,
0010
0100
0010
1000
0001
1000
0100
0010
0100
1000
0001
1000
,
0010
0000
0000
0100
0000
0001
1000
0000
1000
0100
0000
0000
,
1020
0000
0000
0130
0000
0100
0002
0000
0000
1003
0000
0001
,
0010
0100
0010
0100
1000
0010
0100
0001
1000
0001
0010
0100
,
1000
0010
0001
1000
0100
0001
1000
0010
0001
1000
0100
0001
,
0010
0000
0000
0001
0000
0100
0010
0000
1000
0010
0100
0001
,
2000
0000
0000
3100
0000
1000
0002
0000
0000
0013
0001
1000
,
0020
0000
0000
0100
0000
0000
0001
0000
0000
0130
0010
1000
,
0002
0000
0000
1000
0000
0000
0010
0000
0000
0103
0010
0100
,
0020
0000
0000
1000
0000
0000
0130
0000
1000
0001
0000
0000
,
0010
0000
0001
0010
0000
0100
1000
0000
1000
0002
0000
0000
,
1003
0010
1000
0010
0100
0001
0100
0001
1000
0100
1000
0100
,
0010
0001
0010
0001
0100
0010
0100
0010
1000
0001
1000
0001
,
0020
0000
0000
1000
0000
0000
0001
0000
0000
0130
0010
0001
,
1000
0000
0010
1000
0000
0001
0010
0000
0100
1000
0000
0001
,
0100
0010
1000
0001
0010
0001
1000
0010
0100
0010
0100
0001
,
0010
1000
0010
0100
0010
0001
0100
0010
1000
0001
1000
0100
,
0020
0000
0000
0031
0000
0000
2000
0010
0000
3100
0000
0000
,
0002
0010
0000
1003
0000
0000
0200
0010
0000
0301
0000
0100
,
2000
0010
0100
0010
,
0001
0000
0000
0001
0000
0000
3001
0000
1000
0001
1000
0010
,
0200
0000
0000
0301
0000
0001
1000
0000
1000
0100
0000
0000
,
0020
0000
0000
0031
0100
0001
0100
0000
0010
1000
0001
1000
,
0010
0100
0001
0010
0001
1000
0100
0001
0100
0010
0100
0001
,
0100
1000
0010
1000
0001
0010
1000
0010
0100
0010
1000
0010
,
0001
0000
0001
1000
0000
1000
0001
0000
0001
0100
0010
0000
,
1000
0000
1000
0010
0000
0010
1000
0000
0001
0100
0000
0000
,
0110
0000
0001
0100
0000
0000
0110
0000
1000
0010
0000
0000
,
1000
0100
0001
0100
1000
0010
0100
0010
0001
0010
1000
0001
,
1000
0010
1000
0010
1000
0010
0100
0001
0100
0001
0100
0001
,
1000
0100
0010
0001
0010
0100
1000
0100
0010
0002
0000
0000
,
0103
0010
1000
0001
0010
0001
0100
0010
1000
0100
1000
0001
,
1000
0010
0100
0001
0010
0100
1000
0010
0100
0001
0000
0000
,
0011
0000
0001
0010
0000
0010
1000
0000
1000
0010
0000
0000
,
1010
0000
1000
0010
0000
0010
0001
0000
0001
0010
0000
0000
,
0110
0000
0001
1000
0000
0001
1000
0000
0001
1000
0000
0000
,
0010
0000
1000
0100
0010
0001
0100
0010
0100
0010
0100
0010
,
1000
0100
1000
0010
0100
0001
0010
0001
0100
0001
0010
0100
,
1000
0010
0001
0010
1000
0010
0001
0010
1000
0200
0000
0000
,
1300
0010
1000
0100
0010
0001
0100
0001
0010
0001
1000
0100
,
0010
0001
0010
0001
0010
0001
0010
0001
0010
0002
0000
0000
,
1003
0010
0001
0100
0001
0100
0001
0010
1000
0010
1000
0100
,
1000
0100
1000
0001
0010
0100
0010
0100
1000
0001
0010
0001
,
0010
0001
1000
0100
1000
0001
1000
0010
0100
0010
0100
0001
,
0010
0001
0100
0001
1000
0010
1000
0100
1000
0100
0010
0001
,
1000
0010
1000
0001
0010
0001
0200
0000
0000
0000
0000
0000
,
0000
0300
0202
0000
,
0000
0000
0000
0000
0303
0000
0000
0000
0000
0000
0000
0000
0000
0000
0000
1100
0000
0000
0000
0000
0000
0000
0000
0011
0000
0000
0000
0000
0000
0000
0000
0000
0000
0000
0000
0000
0000
0000
0000
0000
0000
0000
0000
0000
0000
0000
0000
0000
,
2002
0000
0000
0000
,
0000
0000
0000
0000
,
0000
0000
0000
3003
1000
0001
0100
0000
0000
0000
0000
0000
;
