#TITLE:Bright Future;
#SUBTITLE:;
#ARTIST:RiraN;
#TITLETRANSLIT:;
#SUBTITLETRANSLIT:;
#ARTISTTRANSLIT:;
#GENRE:;
#CREDIT:;
#BANNER:Bright Future.png;
#BACKGROUND:Bright Future-bg.png;
#LYRICSPATH:;
#CDTITLE:;
#MUSIC:Bright Future.ogg;
#OFFSET:-0.020000;
#SAMPLESTART:87.731209;
#SAMPLELENGTH:18.920004;
#SELECTABLE:YES;
#BPMS:0.000000=175.000000
;
#STOPS:
;
#BGCHANGES:-0.200=Bright Future.avi=1.000=0=0=0=StretchNoLoop====,
99999=-nosongbg-=1.000=0=0=0 // don't automatically add -songbackground-
;
#KEYSOUNDS:;
#ATTACKS:;

//---------------dance-single - ----------------
#NOTES:
     dance-single:
     :
     Hard:
     15:
     0.784436,0.968795,0.298339,0.862764,0.713595,681.000000,644.000000,37.000000,107.000000,0.000000,0.000000,0.784436,0.968795,0.298339,0.862764,0.713595,681.000000,644.000000,37.000000,107.000000,0.000000,0.000000:
0000
0000
0000
0000
,
0000
0000
0000
0000
,
0000
0000
0000
0000
,
0000
0000
0000
0000
,
1000
0000
0000
0001
0200
0000
0310
0000
,
0000
0000
1000
0000
0200
0000
0000
0000
0310
0000
0000
0000
0001
0000
1000
0001
,
1000
0000
0000
0001
0200
0000
0310
0000
,
1000
0100
0010
0001
0100
0010
1000
0100
,
2100
0000
0000
0000
3010
0000
0001
0000
0020
0000
0000
2030
0000
0000
3001
0000
,
1000
0000
0001
0010
0100
0000
1000
0000
0020
0000
0000
0230
0000
0000
0301
0000
,
0012
0000
0000
0000
0103
0000
1000
0000
0200
0000
0000
0302
0000
0000
1003
0000
,
0001
0000
1000
0100
0010
0000
0001
0000
0200
0000
0000
0320
0000
0000
1030
0000
,
2010
0000
0000
0000
3031
0010
0001
0010
0200
0000
0000
2300
0000
0000
3001
0000
,
0102
0000
0000
0000
1003
0100
1000
0100
0020
0000
0000
0032
0000
0000
1003
0000
,
0001
0100
0001
0000
1000
0100
1000
0000
0001
0010
0100
1000
0010
0100
0001
0000
,
2000
3200
3310
0110
,
1002
0000
0000
0000
1003
0010
0100
0010
0100
0000
0001
0100
0000
0010
2000
0000
,
0000
0000
3001
0010
0100
0000
1000
0000
0001
0000
1000
0010
0000
0100
0001
0000
,
2000
0000
0000
0000
3001
0010
0100
0010
0100
0000
1000
0010
0000
0100
0002
0000
,
0000
0000
1003
0100
0010
0000
0001
0000
1000
0000
0001
0100
0000
0010
1000
0000
,
1200
0000
0000
0000
1300
0010
0100
0001
1000
0000
0001
0100
0000
0100
0020
0000
,
0000
0000
1030
0100
0010
0000
0001
0100
0020
0000
0000
2030
0000
0000
3001
0000
,
0021
0000
0000
0000
0031
0100
0010
1000
0001
0000
1000
0010
0000
0010
0100
0000
,
0101
1010
1100
0011
,
2001
0000
0000
0000
3001
0100
0010
1000
0001
0000
1000
0100
0000
0100
0010
0000
,
0001
0000
1000
0100
1000
0000
0001
0000
0100
0000
0010
1000
0000
0001
1000
0000
,
0010
0000
0100
0000
0001
0010
0100
1000
0001
0000
1000
0010
0000
0010
0100
0000
,
0001
0000
1000
0010
1000
0000
0001
0000
0010
0000
0100
1000
0000
0001
1000
0000
,
0010
0000
0010
0000
0100
0001
0100
0001
1000
0000
0001
0010
0000
0010
0100
0000
,
1000
0000
0001
0100
0001
0000
1000
0100
1000
0000
0001
0010
0000
0010
0100
0000
,
1000
0001
1000
0000
0001
0010
0001
0000
1000
0100
1000
0000
0001
0100
0001
0000
,
1000
0001
0100
0010
1000
0100
0010
0001
0100
0010
1000
0001
1000
0000
0000
0000
,
0201
0000
0320
0000
1030
0200
0000
0320
,
0000
0032
0000
0000
0000
1003
0010
1000
,
0200
0000
0320
0000
0031
2000
0000
3020
,
0000
0032
0000
0023
0000
0230
0000
0301
,
1000
0000
0001
0100
0101
0000
1000
0000
,
0001
0000
0010
0000
0100
0000
0000
0000
1100
0000
0000
0000
1000
0000
0001
0100
,
0001
0000
1000
0010
1020
0000
0130
0000
,
0001
0000
0100
0000
1000
0000
0100
0000
0001
0000
0010
0000
0100
0000
1000
0001
,
1000
0000
0000
0000
1030
0100
1000
0100
0010
0000
0000
0012
0000
0000
2003
0000
,
0000
0000
3001
0100
0010
0000
1000
0000
0001
0000
1000
0100
0000
0010
0001
0000
,
0200
0000
0000
0000
0320
0000
0000
0000
1030
0000
0001
0010
0000
0010
0100
0000
,
1000
0000
0001
0100
0001
0000
1000
0010
0000
0010
0100
0000
0001
0000
1000
0001
,
2000
0000
0000
0000
3301
0010
0001
0010
0100
0000
0000
2100
0000
0000
3002
0000
,
0000
0000
1003
0010
0100
0000
0001
0000
1000
0000
0001
0010
0000
0100
1000
0000
,
0020
0000
0000
0000
0130
0000
0001
0100
0001
0000
1000
0100
0000
0010
0001
0000
,
0100
0000
0010
1000
0010
1000
0002
0000
0023
0000
0230
0000
2300
0000
3001
0000
,
1001
0010
0010
0010
,
0010
0010
0010
0010
,
0100
0100
0100
0100
,
0100
0100
0100
0100
,
1002
0000
0000
0000
1003
0000
0000
0000
0002
0000
0000
0023
0000
0000
0230
0000
,
0000
1300
0001
1000
0010
0000
0010
0000
,
2001
0000
0000
0000
3001
0000
0000
0000
2000
0000
0000
3200
0000
0000
0320
0000
,
0000
0031
1000
0001
0200
0000
0310
0000
,
1020
0000
0000
0000
0130
0000
1000
0000
0200
0000
0000
0302
0000
0000
1003
0000
,
0100
0000
0010
0001
0010
0000
0001
0000
2000
0000
0000
3020
0000
0000
0130
0000
,
0201
0000
0000
0000
0310
0000
0001
0000
0020
0000
0000
2030
0000
0000
3001
0000
,
0010
0000
0100
1000
0100
0000
1000
0000
0002
0000
0000
0203
0000
0000
0310
0000
,
1020
0000
0000
0000
1333
0100
1000
0100
0020
0000
0000
0032
0000
0000
1003
0000
,
2010
0000
0000
0000
3001
0010
0001
0010
0200
0000
0000
2300
0000
0000
3001
0000
,
1000
0010
1000
0000
0001
0010
0001
0000
1000
0100
0010
0001
0100
0010
1000
0000
,
0002
2003
3013
1001
,
0001
0000
1000
0100
1000
0100
1000
0100
0020
0000
0000
0032
0000
0000
1003
0000
,
0000
0000
0001
0100
0001
0000
1000
0010
1000
0000
0001
0010
0000
0100
1000
0000
,
0000
0000
0001
0100
0001
0100
0001
0100
0020
0000
0000
2030
0000
0000
3001
0000
,
0000
0000
1000
0010
1000
0000
0001
0010
0001
0000
1000
0100
0000
0010
0001
0000
,
1000
0000
0001
0100
0010
0100
0001
0100
0020
0000
0000
2030
0000
0000
3001
0000
,
0000
0000
1000
0100
0010
0000
0001
1000
0001
0000
1000
0100
0000
0100
0010
0000
,
0001
0000
1000
0010
0100
0010
1000
0010
0200
0000
0000
0302
0000
0000
1003
0000
,
1010
0131
1100
0011
,
1000
0000
0001
0100
0010
0100
0001
0000
1000
0000
0000
1100
0000
0000
2001
0000
,
0000
0000
3001
0100
0010
0000
1000
0000
0001
0000
1000
0100
0000
0100
0010
0000
,
0001
0000
1000
0010
0100
0010
1000
0000
0001
0000
0000
0011
0000
0000
1002
0000
,
0000
0000
1003
0010
0100
0000
0001
0000
1000
0000
0001
0010
0000
0010
0100
0000
,
2100
0000
0000
0000
3001
0000
1000
0100
0010
0000
0001
1000
0000
0001
1000
0000
,
0010
0000
0100
0000
0001
0000
1000
0100
0010
0000
0001
0100
0000
0100
0010
0000
,
1000
0010
1000
0000
0010
0100
0010
0000
0100
0001
0100
0000
0001
1000
0001
0000
,
1000
0100
0010
0001
0100
0010
1000
0100
0010
0001
0100
0010
1000
0000
0000
0000
,
1002
0000
0100
0000
0000
0100
0000
0000
,
2003
0000
0000
0000
3010
0100
0000
0010
,
2000
0000
0100
0000
0000
0100
0000
0000
,
3002
0000
0000
0000
0000
0000
0000
0000
0013
0000
0000
0010
0000
0000
0100
0000
,
2000
0000
3020
0000
0000
0230
0000
0000
,
0302
0000
0000
0000
1000
0003
2000
0000
0000
0000
3002
0000
0000
0000
0203
0000
,
0000
0310
1000
0001
0010
1000
0010
0001
,
0100
0010
1000
0100
0001
0100
1000
0002
,
0200
0000
0000
0000
,
0303
0000
0000
0000
;

//---------------dance-single - ----------------
#NOTES:
     dance-single:
     :
     Challenge:
     17:
     0.954915,1.148202,0.274149,0.757942,1.140945,829.000000,795.000000,34.000000,94.000000,0.000000,0.000000,0.954915,1.148202,0.274149,0.757942,1.140945,829.000000,795.000000,34.000000,94.000000,0.000000,0.000000:
0000
0000
0000
0000
,
0000
0000
0000
0000
,
0000
0000
0000
0000
,
0000
0000
0000
0000
,
0001
0000
0000
0100
0201
0000
0310
0000
,
0000
0000
1000
0000
1000
0000
0000
0000
2100
0000
0000
0000
3100
0000
0010
0001
,
1000
0000
0000
0001
0102
0000
1003
0000
,
1000
0000
0010
0000
0100
0000
0001
0000
0010
0000
0100
0000
1000
0000
0001
1000
,
0020
0000
0000
0000
0130
0001
0100
0001
1000
0000
0001
0010
0000
0100
2000
0000
,
0000
0000
3031
3100
0001
0000
1000
0000
0001
0000
1000
0100
0000
0100
0010
0000
,
0002
0000
0000
0000
1003
0010
1000
0010
0100
0000
0001
0010
0000
0010
0200
0000
,
0000
0000
1300
0001
1000
0000
0010
0000
0100
0000
0001
0010
0000
0010
0100
0000
,
2100
0000
0000
0000
3001
0100
0001
0100
0010
0000
1000
0100
0000
0010
0001
0000
,
0012
0000
0000
0000
1003
0010
1000
0010
0100
0000
0001
0010
0000
0100
1000
0000
,
0001
0100
0010
1000
0100
0010
0001
0100
0010
1000
0010
0100
0001
1000
0100
0010
,
0001
0000
1000
0010
0200
0000
0000
0000
0310
0000
0000
0000
0110
0000
0000
0000
,
1001
0000
0000
0000
1000
0100
0010
0100
0010
0000
0001
0100
0000
0010
1000
0000
,
0000
0000
1000
0100
1000
0000
0001
0000
0100
0000
0001
0020
0030
0020
1030
0000
,
0001
0000
0100
0000
0001
0010
0100
0010
0100
0000
1000
0010
0000
0100
0001
0000
,
0000
0000
0001
0010
0001
0000
1000
0000
0010
0000
1000
0200
0300
0200
0301
0000
,
1000
0000
0100
0000
0010
0001
1000
0001
1000
0000
0001
0100
0300
0010
1300
0000
,
0000
0000
1000
0100
0010
0000
0001
0100
0001
0000
1000
0020
0030
0020
0031
0000
,
1000
0000
0100
0000
1000
0010
0100
0010
0100
0000
0001
0010
0030
0100
1030
0000
,
1100
1010
0101
0011
,
1001
0000
0000
0000
0001
0010
0100
1000
0001
0000
1000
0200
0300
0200
0301
0000
,
1000
0000
0001
0010
0100
0010
0001
1000
0001
0000
1000
0020
0030
0020
0130
0000
,
1000
0000
0001
0000
1000
0010
0100
0001
1000
0000
0001
0020
0030
0020
1030
0000
,
0001
0000
1000
0100
0010
0100
1000
0001
1000
0000
0001
0200
0300
0200
0310
0000
,
0001
0000
1000
0000
0001
0010
0100
1000
0001
0000
1000
0200
0300
0200
0301
0000
,
1000
0000
0001
0010
0100
1000
0010
0100
0001
0000
1000
0020
0030
0020
0130
0000
,
1000
0001
0100
0010
1000
0100
0010
0001
0100
0010
1000
0100
1000
0001
0100
0001
,
1000
0100
0010
0001
0100
0010
1000
0001
1000
0100
0010
0001
1000
0000
0000
0000
,
1002
0000
0023
0000
0130
1000
0001
2000
,
0000
3020
0000
0000
0000
0031
0010
1000
,
0002
0000
0023
0000
0130
0100
1000
0020
,
0000
0332
0000
0023
0000
0230
0000
3331
,
2000
0000
3010
0100
0102
0000
1003
0000
,
0001
0000
0010
0000
0010
0000
0000
0000
0001
0000
0100
0000
0010
0000
1000
0001
,
0020
0000
0130
1000
2010
0000
3001
0000
,
1000
0000
0100
0000
0100
0000
0010
0000
0001
0000
1000
0001
0100
0310
1000
0001
,
0020
0000
0000
0000
0031
0100
0010
1000
0100
0000
1000
0010
0003
0010
0103
0000
,
0000
0000
0001
0010
0100
0000
1000
0010
0100
0000
0001
0010
0003
0100
1003
0000
,
0001
0000
0000
0000
1033
0100
0010
0001
0100
0000
0001
0010
0030
0010
0130
0000
,
0000
0000
1000
0010
0100
0000
0001
0010
0100
1000
0010
0100
0001
0000
1000
0100
,
1000
0000
0000
0000
0001
1000
0100
1000
0010
0000
1000
0001
0300
0001
0103
0000
,
0000
0000
0001
0010
0100
0000
1000
0010
0100
0000
0001
1000
0003
1000
0013
0000
,
0100
0000
0001
0010
0100
1000
0010
0100
0001
0000
1000
0100
0030
0010
0031
0000
,
1000
0001
0100
0010
0100
0001
2000
0000
3203
0000
0320
0000
0032
0000
1003
0000
,
1001
0000
0000
0000
1000
0100
1000
0100
2000
0000
0000
3002
0000
0000
0103
0000
,
0300
0000
0001
1000
0001
0000
0100
0000
0010
0000
1000
0100
0000
0010
0001
0000
,
1000
0000
0000
0000
0001
0100
0001
0100
0002
0000
0000
2003
0000
0000
3010
0000
,
0000
0000
1000
0001
1000
0000
0001
0010
0100
0000
1000
0010
0000
0100
0001
0000
,
2000
0000
0100
0000
3001
0100
0010
0100
0010
0000
1000
0100
0000
0010
0001
0000
,
0000
0000
1000
0100
1000
0000
0301
0010
0001
0000
1000
0010
0000
0010
0100
0000
,
0002
0000
0010
0000
1003
0010
0100
0010
0100
0000
0001
0010
0000
0100
1000
0000
,
0000
0000
0001
0010
0001
0000
1000
0010
0200
0000
0000
0302
0000
0000
1003
0000
,
2001
0000
0000
0000
3310
0100
0010
0100
0001
0000
1000
0100
0000
0010
0002
0000
,
0000
0000
1303
0013
1000
0000
0001
0000
1000
0000
0001
0010
0000
0010
0100
0000
,
2000
0000
0000
0000
3010
0100
0010
0100
0001
0000
1000
0100
0000
0100
0020
0000
,
0000
0000
0031
1000
0001
0000
0100
0000
0010
0000
1000
0100
0000
0100
0010
0000
,
0011
0000
0001
0000
1003
0010
1000
0010
0100
0000
0001
0010
0000
0010
0100
1000
,
0001
0000
1000
0000
3001
0100
0001
0100
0010
0000
1000
0100
0000
0100
0010
0001
,
1000
0010
0100
0001
0010
0100
1000
0010
0100
0001
0010
0100
1000
0001
0100
0010
,
1000
0000
0001
0100
0020
0000
0000
0000
3130
0000
0000
0000
0110
0000
0000
0000
,
1001
0000
0001
0100
0010
0100
1000
0100
0010
0000
1000
0200
0300
0200
0302
0000
,
0000
0000
1003
0100
0010
0000
0001
0100
0010
0000
1000
0200
0330
0200
0320
0000
,
0000
0000
1030
0010
0100
0010
0001
0010
0100
0000
0001
0020
0030
0020
2030
0000
,
0000
0000
3100
0010
0001
0000
0100
0010
1000
0000
0001
0020
0030
0020
0130
0000
,
0001
0000
1000
0100
0010
0100
0001
0100
1000
0000
0001
0200
0330
0200
0310
0000
,
0001
0000
1000
0100
1000
0000
0001
0100
0001
0000
1000
0020
0330
0020
0130
0000
,
1000
0000
0001
0010
0100
0010
1000
0010
0001
0000
1000
0020
0330
0020
0130
0000
,
1000
0001
0100
0000
0110
0000
1001
0000
,
0101
0000
1000
0100
1000
0001
0100
0000
0110
0000
0000
1010
0000
0000
2001
0000
,
0000
0000
3100
0010
0001
0000
1000
0010
0100
0000
0000
0101
0000
0000
1010
0000
,
1000
0000
0001
0010
0001
1000
0010
0000
0110
0000
0000
0101
0000
0000
1002
0000
,
0000
0000
0013
0100
1000
0000
0001
0100
0010
0000
0000
1010
0000
0000
0101
0000
,
1000
0000
0100
0000
0010
0000
0001
0100
0010
0000
1000
0100
0000
1000
0100
0010
,
0001
0000
0100
0000
0010
0000
1000
0100
0010
0000
0001
0100
0000
0001
0010
0100
,
1000
0010
1000
0010
0100
0001
0010
0100
1000
0001
1000
0001
0100
0010
1000
0100
,
0010
0001
0100
0010
1000
0100
0010
0001
1000
0001
0100
0010
0100
0000
0000
0000
,
1002
0000
0100
0000
0000
0010
0000
0000
,
2003
0000
0000
0000
0000
0000
3100
0010
0002
0000
0000
2003
0000
0000
3010
0000
,
0200
0000
1030
0000
0000
0001
0000
0000
,
0320
0000
0000
0000
0000
0000
0130
0001
2000
0000
0000
3200
0000
0000
0310
0000
,
0001
1000
0002
0000
0000
0233
0000
0000
,
2300
0000
3100
0200
0000
0302
0000
1003
,
0100
0000
0010
0001
0100
0010
1000
0001
1000
0100
0010
0001
1000
0100
1000
0001
,
0010
0100
1000
0010
0100
0010
1000
0100
0010
0001
0100
0010
1000
0100
0010
0002
,
2000
0000
0000
0000
,
3003
0000
0000
0000
;

//---------------dance-single - ----------------
#NOTES:
     dance-single:
     :
     Medium:
     12:
     0.585159,0.645864,0.193517,0.862764,0.270118,508.000000,484.000000,24.000000,107.000000,0.000000,0.000000,0.585159,0.645864,0.193517,0.862764,0.270118,508.000000,484.000000,24.000000,107.000000,0.000000,0.000000:
0000
0000
0000
0000
,
0000
0000
0000
0000
,
0000
0000
0000
0000
,
0000
0000
0000
0000
,
1000
0000
0000
0001
0200
0000
0310
0000
,
0000
1000
0200
0000
0310
0000
0001
1000
,
0001
0000
0000
1000
0020
0000
0130
0000
,
0001
0100
0010
0000
1000
0100
0010
0000
,
1002
0000
0000
0000
0103
0000
0010
0000
0200
0000
0000
0302
0000
0000
1003
0000
,
0000
0000
0001
0000
0010
0000
0000
0000
0002
0000
0000
0203
0000
0000
0310
0000
,
2000
0000
0000
0000
3001
0000
0100
0000
0020
0000
0000
2030
0000
0000
3001
0000
,
0000
0000
1000
0000
0100
0000
0000
0000
2000
0000
0000
3020
0000
0000
0130
0000
,
0102
0000
0000
0000
1003
0000
0010
0000
2000
0000
0000
3002
0000
0000
0013
0000
,
0210
0000
0000
0000
1300
0000
0001
0000
0200
0000
0000
0320
0000
0000
1030
0000
,
0001
0001
1000
1000
0001
0100
1000
0100
,
0002
0000
0000
1003
,
1020
0000
0000
0000
0130
0000
0001
0000
0010
0000
0100
1000
0000
0100
1000
0000
,
0000
0000
0001
0000
1000
0000
0010
0000
0200
0000
0000
0302
0000
0000
1003
0000
,
0200
0000
0000
0000
0310
0000
0001
0000
1000
0000
0001
0100
0000
0001
0100
0000
,
0000
0000
0001
0000
1000
0000
0100
0000
0020
0000
0000
0032
0000
0000
1003
0000
,
2001
0000
0000
0000
3010
0330
0100
0000
0001
0000
1000
0100
0000
1000
0010
0000
,
0000
0000
1000
0000
1000
0000
0001
0000
0020
0000
0000
0230
0000
0000
1300
0000
,
0002
0000
0000
0000
0103
0330
0010
0000
1000
0000
0001
0010
0000
0001
0100
0000
,
0020
1000
0001
0130
,
2001
0000
0000
0000
3100
0000
0010
0000
0001
0000
1000
0010
0000
0010
0200
0000
,
0000
0000
0301
0000
0001
0000
1000
0000
0100
0000
0010
0001
0000
1000
0001
0000
,
0200
0000
0000
0000
0310
0000
1000
0000
0001
0000
0010
0100
0000
0100
2000
0000
,
0000
0000
3010
0000
0010
0000
0100
0000
0001
0000
1000
0100
0000
1000
0100
0000
,
0020
0000
0000
0000
0031
0000
1000
0000
0010
0000
1000
0001
0000
0001
0200
0000
,
0000
0000
0301
0000
1000
0000
0010
0000
0100
0000
0001
0010
0000
0001
0100
0000
,
0010
0010
1000
0100
0010
0010
0001
1000
,
0001
0100
1000
0100
0001
0010
0100
0000
,
1002
0000
2003
0000
3010
0100
0000
0200
,
0000
0000
0320
0000
0000
0000
0000
0000
0000
0030
1000
0000
0001
0000
2000
0000
,
0000
0000
3002
0000
0013
0020
0000
0230
,
0000
2300
0000
3020
0000
0230
0000
0301
,
1000
0000
0000
0001
0200
0000
0310
0000
,
0000
1000
0200
0000
0310
0000
0001
1000
,
0001
0000
0000
1000
0020
0000
0130
0000
,
0001
0100
0010
1000
0100
0010
0001
1000
,
0020
0000
0000
0000
0130
0000
0001
0000
1000
0000
0000
1000
0000
0000
1000
0000
,
0000
0001
0010
0100
2000
0000
3010
0000
,
0102
0000
0000
0000
1003
0000
0100
0000
0010
0000
0000
0010
0000
0000
0010
0000
,
0000
0001
0200
0000
0310
0000
1010
0000
,
1002
0000
0000
0000
0103
0000
0010
0000
1000
0000
0001
0010
0000
0001
0010
0000
,
0000
0000
0100
0000
0100
0000
1000
0000
0002
0000
0000
0203
0000
0000
0310
0000
,
2000
0000
0000
0000
3010
0000
0100
0000
0001
0000
1000
0100
0000
1000
0100
0000
,
0000
0000
0010
0000
0010
0000
0001
0000
1000
0000
0100
3000
0001
0000
0130
0000
,
1000
1000
1000
1000
,
0001
0001
0001
0001
,
0100
0100
0100
0100
,
0010
0010
0010
0010
,
1000
0010
0000
0010
0000
0100
0010
0100
,
0000
0001
0000
0001
0010
0000
0010
0100
,
1000
0001
0000
0001
0000
1000
0010
1000
,
0000
0001
0020
0000
0230
0000
1300
0000
,
2001
0000
0000
0000
3010
0000
0100
0000
0020
0000
0000
2030
0000
0000
3001
0000
,
0000
0000
1000
0000
0100
0000
0000
0000
2000
0000
0000
3020
0000
0000
0130
0000
,
0002
0000
0000
0000
1003
0000
0010
0000
0200
0000
0000
0302
0000
0000
1003
0000
,
0000
0000
0001
0000
0010
0000
0000
0000
0002
0000
0000
0203
0000
0000
0310
0000
,
2010
0000
0000
0000
3001
0000
0100
0000
0002
0000
0000
2003
0000
0000
3100
0000
,
0120
0000
0000
0000
0031
0000
1000
0000
0020
0000
0000
0230
0000
0000
0301
0000
,
1000
1000
0001
0001
1000
0100
0001
0100
,
2000
0000
0000
3301
,
1002
0000
0000
0000
1003
0000
0010
0000
0100
0000
0001
0010
0000
0001
0010
0000
,
0000
0300
0001
0000
0001
0000
1000
0000
0020
0000
0000
0032
0000
0000
0013
0000
,
2000
0000
0000
0000
3001
0000
0100
0000
0010
0000
1000
0100
0000
1000
0100
0000
,
0000
0000
1000
0000
1000
0000
0001
0000
0200
0000
0000
2300
0000
0000
3100
0000
,
0002
0000
0000
0000
1003
0000
0100
0000
0010
0000
0001
0100
0000
0001
0200
0000
,
0000
0000
0310
0000
1003
0000
0100
0000
0010
0000
0001
0130
0000
0100
3010
0000
,
2000
0000
0000
0000
3001
0000
0010
0000
0100
0000
1000
0001
0000
1000
0001
0000
,
0200
1000
0001
0310
,
2001
0000
0000
0000
3001
0000
0010
0000
0011
0000
0000
0110
0000
0000
2100
0000
,
0000
0000
3001
0000
0100
0000
0010
0000
2000
0000
0000
3002
0000
0000
1003
0000
,
1020
0000
0000
0000
1033
0000
0100
0000
1100
0000
0000
0110
0000
0000
0012
0000
,
0000
0000
1003
0000
0010
0000
0100
0000
0002
0000
0000
2003
0000
0000
3001
0000
,
0100
0000
0100
0000
0010
0000
1000
0010
2000
0000
0000
3002
0000
0000
0203
0000
,
0000
0000
0310
0000
1000
0000
0001
0100
0002
0000
0000
2303
0000
0000
3001
0000
,
0010
0100
1000
0010
0100
0001
0010
0100
,
1000
0010
0001
0010
1000
0001
0100
0000
,
1002
0000
0000
0000
,
0023
0000
0000
0000
,
0230
0000
0000
0000
,
2330
0000
0000
0000
,
3001
0000
0100
0000
0000
0010
0000
0000
,
1000
0000
0001
0010
0000
0100
0000
1000
,
0000
0001
0100
0001
1000
0100
1000
0000
,
0001
0100
0010
0000
1000
0100
0010
0000
,
2002
0000
0000
0000
,
3003
0000
0000
0000
;

//---------------dance-single - ----------------
#NOTES:
     dance-single:
     :
     Easy:
     8:
     0.347870,0.430576,0.153201,0.572488,0.000000,302.000000,283.000000,19.000000,71.000000,0.000000,0.000000,0.347870,0.430576,0.153201,0.572488,0.000000,302.000000,283.000000,19.000000,71.000000,0.000000,0.000000:
0000
0000
0000
0000
,
0000
0000
0000
0000
,
0000
0000
0000
0000
,
0000
0000
0000
0000
,
2000
0000
3001
0000
,
0002
0000
0103
0000
,
0200
0000
0310
0000
,
0010
1000
0001
0000
,
2002
3003
1000
0001
,
0100
0100
0010
1000
,
2200
3300
0100
0100
,
0010
0001
1000
0010
,
0200
0310
1000
0100
,
0020
0031
1000
0010
,
0200
0302
0023
0230
,
2300
0000
0000
3001
,
2002
0000
3003
0000
0001
0000
0100
0010
,
0000
0110
1000
0001
,
0020
0000
0130
0000
1000
0000
0010
0100
,
0000
0110
2000
3001
,
0202
0000
0303
0000
1000
0000
0001
0010
,
0000
0001
0010
0100
,
2200
0000
3300
0000
1000
0000
0001
0100
,
0010
0010
0100
0100
,
2002
0000
3003
0000
0001
0100
0001
0100
,
0000
0001
0010
0100
,
2200
0000
3300
0000
1000
0010
1000
0010
,
0000
1000
3010
0130
,
0202
0000
0303
0000
1000
0001
1000
0001
,
0000
1000
0001
0013
,
0022
0000
0033
0000
1000
0100
1000
0100
,
0010
0010
0001
0100
,
2002
0000
0000
0003
,
0020
0000
0000
3000
,
0200
0000
0000
0030
,
0002
0000
0000
0300
,
1003
0000
0100
0100
,
0000
0010
0010
0000
,
0001
0000
0100
0100
,
0000
0010
0010
0000
,
2002
3003
0001
1000
,
0010
0100
0010
0000
1000
0000
0001
0000
,
0020
0030
0001
0010
,
0100
1000
0100
0000
1000
0000
0010
0000
,
0200
0300
0001
1000
,
0001
0100
0001
0000
0100
0000
0010
0000
,
2000
3000
0001
1000
,
0100
0010
0100
0000
0010
0000
0001
0000
,
2000
0000
0100
0100
,
3200
0000
0010
0010
,
0320
0000
0001
0001
,
0032
0000
0100
0100
,
0203
0000
0310
1000
,
0200
0000
0310
0001
,
2000
0000
3010
0100
,
0002
0000
1003
0000
,
2002
3003
0001
0100
,
0100
0010
1000
0100
,
2200
3300
0100
0100
,
0010
0001
1000
0010
,
2002
0000
3003
0000
1000
0100
1000
0000
,
2002
0000
3003
0000
0001
0100
0001
0000
,
2000
3200
0320
0032
,
1003
0000
0000
0000
,
2002
0000
3003
0000
0001
0100
0001
0100
,
0000
0000
0010
0000
1000
0100
1000
0100
,
0000
0000
0010
0000
0001
1000
0001
1000
,
0000
0002
0203
0320
,
1030
0000
0000
0000
0001
0100
0001
0100
,
0000
0000
0010
0000
1000
0100
1000
0100
,
0000
0000
0010
0000
0001
1000
0001
1000
,
0010
0010
0010
0000
,
1000
0000
0001
0000
0010
0010
0000
0010
,
0000
0100
0000
0000
0000
1000
0100
1000
,
0000
0000
0001
0000
0100
0100
0000
0010
,
0000
0010
0000
1000
0000
1000
0000
0001
,
0000
0000
1000
0000
0001
0001
0000
0010
,
0000
0010
0000
0000
0000
0001
0100
0001
,
0000
0000
0100
0000
0010
0010
0000
1000
,
0000
1000
0000
0001
0000
0001
0000
0010
,
0200
0000
0000
0300
,
2000
0000
0000
3000
,
0020
0000
0000
0030
,
0200
0000
0000
0300
,
0001
0010
0100
0000
,
1000
0000
0001
0000
,
1000
0010
0100
0001
,
0010
0100
1000
0010
,
2002
0000
0000
0000
,
3003
0000
0000
0000
;

//---------------dance-single - ----------------
#NOTES:
     dance-single:
     :
     Beginner:
     4:
     0.143986,0.212869,0.032253,0.000000,0.000000,125.000000,121.000000,4.000000,0.000000,0.000000,0.000000,0.143986,0.212869,0.032253,0.000000,0.000000,125.000000,121.000000,4.000000,0.000000,0.000000,0.000000:
0000
0000
0000
0000
,
0000
0000
0000
0000
,
0000
0000
0000
0000
,
0000
0000
0000
0000
,
0001
0000
0000
0000
,
1000
0000
0000
0000
,
0010
0000
0000
0000
,
0010
0000
0000
0000
,
1000
0000
1000
0000
,
1000
0000
0000
0000
,
0100
0000
0100
0000
,
0100
0000
0000
0000
,
0010
0000
0010
0000
,
0010
0000
0000
0000
,
0001
0000
0001
0000
,
0001
0000
0000
0000
,
0000
0000
1000
1000
,
0000
0000
1000
0000
,
0000
0000
0010
0010
,
0000
0000
0010
0000
,
0000
0000
0100
0100
,
0000
0000
0100
0000
,
0000
0000
0001
0001
,
0001
0000
0000
0000
,
1000
0000
1000
1000
,
0000
0000
0010
0000
,
0010
0000
0010
0010
,
0000
0000
0100
0000
,
0100
0000
0100
0100
,
0000
0000
0001
0000
,
0001
0000
0001
0001
,
0001
0000
0000
0000
,
1000
0000
0000
0000
,
0100
0000
0000
0000
,
0010
0000
0000
0000
,
0001
0000
0000
0000
,
0100
0000
0000
0000
,
0010
0000
0000
0000
,
1000
0000
0000
0000
,
0001
0000
0000
0000
,
1001
0000
1000
0000
,
1000
0000
0000
0000
,
0100
0000
0100
0000
,
0100
0000
0000
0000
,
0010
0000
0010
0000
,
0010
0000
0000
0000
,
0001
0000
0000
0000
,
1000
0000
0000
0000
,
0010
0000
0000
0000
,
0010
0000
0000
0000
,
0100
0000
0000
0000
,
0100
0000
0000
0000
,
0001
0000
0000
0000
,
0001
0000
0000
0000
,
1000
0000
0000
0000
,
1000
0000
0000
0000
,
1001
0000
1000
1000
,
0000
0000
0001
0000
,
0001
0000
0001
0001
,
0000
0000
0100
0000
,
0100
0000
0000
0000
,
0010
0000
0000
0000
,
1000
0000
1000
0000
,
1000
0000
0000
0000
,
1001
0000
0001
0000
,
0001
0000
0000
0000
,
0010
0000
0010
0000
,
0010
0000
0000
0000
,
0100
0000
0100
0100
,
0000
0000
1000
0000
,
1000
0000
1000
1000
,
0000
0000
0000
0000
,
0010
0000
0010
0010
,
0000
0000
0100
0000
,
0100
0000
0100
0100
,
0000
0000
0001
0000
,
0001
0000
0001
0001
,
0000
0000
1000
0000
,
1000
0000
1000
0000
,
1000
0000
0000
0000
,
0010
0000
0000
0000
,
0100
0000
0000
0000
,
0001
0000
0000
0000
,
1000
0000
0000
0000
,
0100
0000
0000
0000
,
0010
0000
0000
0000
,
0001
0000
0000
0000
,
1000
0000
0000
0000
,
1001
0000
0000
0000
;

//---------------dance-double - ----------------
#NOTES:
     dance-double:
     :
     Challenge:
     17:
     0.906536,1.148202,0.233833,0.943396,1.044186,787.000000,758.000000,29.000000,117.000000,0.000000,0.000000,0.906536,1.148202,0.233833,0.943396,1.044186,787.000000,758.000000,29.000000,117.000000,0.000000,0.000000:
00000000
00000000
00000000
00000000
,
00000000
00000000
00000000
00000000
,
00000000
00000000
00000000
00000000
,
00000000
00000000
00000000
00000000
,
00020000
00000000
00031000
01000000
01020000
00000000
10030000
00000000
,
01000000
00000000
00100000
00000000
00100000
00000000
00000000
00000000
00102000
00000000
00000000
00000000
00013000
00000000
00000100
00010000
,
00000100
00000000
00001000
00000010
00001020
00000000
00000130
00000000
,
00000001
00000010
00000100
00001000
00000010
00000100
00000001
00001000
,
00002001
00000000
00000000
00000000
00003010
00000100
00000010
00000100
00003001
00000000
00001000
00000100
00000000
00001000
00000100
00000000
,
00000000
00000000
00000100
00010000
00000100
00000000
00010000
00000000
00001000
00000000
01000000
00100000
00300000
00100000
10000000
00000000
,
00020000
00000000
00000000
00000000
00130000
01000000
00100000
01000000
10000000
00000000
00010000
01000000
00000000
00010000
01000000
00000000
,
00000000
00000000
01000000
00001000
01000000
00000000
00001000
00000000
00013000
00000000
00000100
00000010
00000000
00000010
00000001
00000000
,
00000201
00000000
00000000
00000000
00001300
00010000
00001000
00010000
00100000
00000000
01000000
00010000
00000000
10000000
01000000
00000000
,
12000000
00000000
00000000
00000000
03310000
00001000
00010000
00001000
00000010
00000000
00000100
00001000
00000000
00000001
00000010
00000000
,
00000001
00000100
00000010
00001000
00000100
00000010
00000100
00001000
00000010
00010000
00001000
00100000
00010000
01000000
00100000
10000000
,
00010000
00000000
10000000
01000000
00100000
00000000
00010000
00000000
23030000
00000000
00000000
00000000
30310000
00000000
00000000
00000000
,
10020000
00000000
00000000
00000000
10030000
00100000
01000000
00100000
01000000
00000000
00010000
00100000
00000000
00001000
00020000
00000000
,
00000000
00000000
00030010
00000100
00000010
00000000
00001000
00000000
00000001
00000000
00001000
00000200
00000300
00000200
00000301
00000000
,
00000020
00000000
00000000
00000000
00000130
00001000
00000001
00001000
00000001
00000000
00001000
00000100
00000000
00010000
00002000
00000000
,
00000000
00000000
00103000
01000000
00100000
00000000
00010000
00000000
10000000
00000000
00010000
02000000
03000000
02000000
13000000
00000000
,
00200000
00000000
00000000
00000000
01300000
00010000
10000000
00010000
01000000
00000000
00010000
00100000
00000000
00001000
00020000
00000000
,
00000000
00000000
00030010
00000100
00000010
00000000
00001000
00000001
00000100
00000000
00000001
00000020
00000030
00000020
00001030
00000000
,
00000200
00000030
00000000
00000000
00001300
00000001
00000010
00000001
00001000
00000000
00000100
00010000
00000000
00001000
00100000
00000000
,
00101000
00011000
00010010
00011000
,
02010000
00000000
00000000
00000000
03010000
00100000
01000000
10000000
03100000
00000000
01000000
00020000
00030000
00020000
00031000
00000000
,
00010000
00000000
00000100
00000010
00000001
00000000
00001000
00000000
00000010
00000000
00001000
00000200
00000330
00000200
00000310
00000000
,
00001020
00000000
00000000
00000000
00001030
00000100
00000010
00000001
00000130
00000000
00000010
00002000
00003000
00002000
00013000
00000000
,
00001000
00000000
00100000
01000000
10000000
00000000
00010000
00000000
01000000
00000000
00010000
00200000
03300000
00200000
01300000
00000000
,
01020000
00000000
00000000
00000000
10030000
01000000
00100000
00010000
01000000
00000000
00001000
00020000
00030000
00020000
00130000
00000000
,
00001000
00000000
00010000
00000010
00000100
00000000
00000001
00001000
00000001
00000000
00001000
00000200
00000300
00000200
00000301
00000000
,
00001000
00000010
00001000
00000010
00000100
00000001
00000100
00000001
00001000
00000100
00001000
00000100
00010000
00001000
00010000
00001000
,
00100000
00010000
01000000
00100000
10000000
01000000
00100000
00010000
01000000
00100000
10000000
00010000
10000000
00000000
00000000
00000000
,
20010000
00000000
30200000
00000000
00310000
00020000
00000000
00032000
,
00000000
00203000
00000000
00000000
00000000
01300000
00010000
00001000
,
00000020
00003000
00000332
00000000
00001033
00001000
00000100
00020000
,
00000000
00030020
00000000
00200030
00000000
00302000
00000000
00013000
,
00000200
00000000
00013300
00000010
00002010
00000000
00003001
00000000
,
00001000
00000000
00000100
00000000
00000100
00000000
00000000
00000000
00020100
00000000
00000000
00000000
00031000
00000000
00100000
00001000
,
00100000
00000000
00010000
01000000
02010000
00000000
03100000
00000000
,
10000000
00000000
01000000
00000000
00100000
00000000
00010000
00000000
01000000
00000000
00100000
01000000
00100000
10000000
01000000
00100000
,
00020000
00000000
00000000
00000000
10030000
00100000
10000000
00100000
01000000
00000000
00010000
00100000
00000000
01000000
10000000
00000000
,
00010000
00000000
00100000
00001000
00100000
00000000
00001000
00000000
00010000
00000000
00000010
00000100
00000000
00000100
00000001
00000000
,
00002000
00000000
00000000
00000000
00003001
00000100
00000001
00000100
00000010
00000000
00001000
00000100
00001000
00000100
00000010
00000000
,
00000001
00000000
00001000
00000100
00010000
00000000
00001000
00000000
01000000
00000000
00010000
00100000
00000000
01000000
10000000
00000000
,
00020000
00000000
00000000
00000000
01030000
00100000
10000000
00100000
01000000
00000000
00010000
00100000
00000000
00001000
00010000
00000000
,
00000100
00000000
00001000
00000010
00000100
00000000
00000001
00000000
00002000
00000000
00000000
00003100
00000000
00000010
00000001
00001000
,
00000001
00000000
00000100
00000001
00000100
00000010
00001000
00000100
00010000
00000000
00001000
00100000
00000000
00010000
01000000
00000000
,
00010000
01000000
00100000
10000000
01000000
00000000
00200000
00000000
00302000
00000000
00003020
00000000
00000032
00000000
00002003
00000000
,
00003001
00000001
00000001
00000001
,
00001000
00001000
00001000
00001000
,
00010000
00010000
00010000
00010000
,
10000000
10000000
10000000
10000000
,
20010000
00000000
00000000
00000000
33010000
01000000
00010000
01000000
00020000
00000000
00000000
20030000
00000000
00000000
31000000
00000000
,
00000000
00000000
00100000
00001000
00100000
00000000
00001000
00010000
00001000
00000000
00010000
00000010
00000000
00000100
00000001
00000000
,
00001000
00000000
00000001
00000000
00001003
00000010
00001000
00000010
00002000
00000000
00000000
00003002
00000000
00000000
00000013
00000000
,
00000000
00000000
00000100
00010000
00000100
00000000
00010000
00001000
00020000
00000000
00000000
00230000
00000000
00000000
10300000
00000000
,
10020000
00000000
00000000
00000000
01030000
00100000
01000000
00100000
10030000
00000000
00010000
00100000
00000000
00010000
00100000
00000000
,
10000000
00000000
00100000
00001000
00100000
00000000
00001000
00000000
00010000
00000000
00000010
00000100
00000300
00000100
00000001
00000000
,
00002000
00000000
00000000
00000000
00003100
00000010
00000100
00000010
00000001
00000000
00001000
00000010
00000000
00001000
00000010
00000000
,
00000001
00000000
00000010
00010000
00000010
00000000
00010000
00000000
00031000
00000000
00100000
01000000
00000000
01000000
10000000
00000000
,
10200000
00000000
00000000
00000000
00310000
00001000
00010000
00001000
00000100
00000000
00000010
00001000
00000000
00000001
00000010
00000000
,
00000021
00000000
00000000
00000000
00001330
00010000
00001000
00010000
01000000
00000000
00100000
00010000
00000000
10000000
01000000
00000000
,
10000000
00100000
01000000
00010000
10000000
01000000
00100000
00001000
00010000
00000010
00000100
00000001
00000010
00000100
00001000
00000100
,
00010000
00000000
00001000
00000000
02030000
00000000
00000000
00000000
03100000
00030000
00000000
00000000
01100000
00000000
00000000
00000000
,
10010000
00000000
00010000
01000000
00100000
01000000
10000000
01000000
00010000
00000000
10000000
02000000
03000000
02000000
03200000
00000000
,
00000000
00000000
10300000
01000000
10000000
00000000
00010000
00100000
00001000
00000000
00010000
00000020
00000330
00000020
00000230
00000000
,
00000000
00000000
00001300
00000010
00000100
00000010
00000001
00000010
00001000
00000000
00000001
00000020
00000030
00000020
00000230
00000000
,
00000000
00000000
00000301
00000010
00000001
00000000
00001000
00000100
00010000
00000000
00001000
02000000
03300000
02000000
03100000
00000000
,
00010000
00000000
10300000
00100000
01000000
00100000
00010000
00100000
01000000
00000000
00010000
00200000
03300000
00200000
01300000
03000000
,
00001000
00000000
00010000
00000100
00000010
00000000
00000001
00000100
00000010
00000000
00001300
00000020
00000330
00000020
00000331
00000000
,
00001000
00000000
00000301
00000100
00000010
00000100
00001000
00000100
00000010
00000000
00001000
00000200
00000330
00000200
00000310
00000030
,
00010000
00001000
00020000
00000000
00130000
00000000
10100000
00000000
,
00010000
00000000
10000000
01000000
10000000
00010000
01000000
00010000
00100000
00000000
00000000
00101000
00000000
00000000
00012000
00000000
,
00000000
00000000
00003100
00000010
00001000
00000000
00000001
00000010
00000100
00000000
00001000
00000200
00003300
00000200
00000310
00000000
,
00001000
00000000
00000001
00000010
00000001
00001000
00000010
00001000
00000100
00000000
00000000
00010100
00000000
00000000
00021000
00000000
,
00000000
00000000
00130000
01000000
00010000
00000000
10000000
01000000
00100000
00000000
00010000
00200000
00330000
00200000
01300000
00000000
,
00010000
00000000
10000000
01000000
10000000
00010000
01000000
00010000
10000000
00000000
00010000
00200000
00300000
00200000
01300000
00010000
,
10000000
00000000
00010000
00100000
00001000
00000000
00010000
00000010
00001000
00000000
00000001
00000020
00000030
00000020
00000130
00000001
,
00001000
00000100
00001000
00000100
00010000
00001000
00010000
00001000
00100000
00010000
00100000
00010000
10000000
00100000
10000000
00100000
,
01000000
00010000
00100000
00001000
00010000
00000010
00000100
00000010
00001000
00000100
00000010
00000001
00001000
00000000
00000000
00000000
,
00000002
00000000
00000100
00000000
00000000
00000010
00000000
00000000
,
00002003
00000000
00000000
00000000
00000000
00000000
00003100
00010000
00002000
00000000
00000000
02003000
00000000
00000000
03310000
00000000
,
20000000
00000000
00100000
00000000
00000000
01000000
00000000
00000000
,
30020000
00000000
00000000
00000000
00000000
00000000
00130000
00001000
00020000
00000000
00000000
00030020
00000000
00000000
00001330
00000000
,
00000002
00000000
00000203
00000000
00000000
00002300
00000000
00000000
,
00023000
00000000
00030100
00000200
00000000
00000320
00000000
00001030
,
00010000
00001000
01000000
00100000
10000000
01000000
00010000
01000000
,
10000000
00100000
01000000
00010000
00100000
01000000
10000000
00010000
00100000
00001000
00010000
00000010
00001000
00000100
00000010
00000002
,
00002000
00000000
00000000
00000000
,
00003003
00000000
00000000
00000000
;

//---------------dance-double - ----------------
#NOTES:
     dance-double:
     :
     Hard:
     15:
     0.776372,0.932914,0.266086,0.959523,0.693437,674.000000,641.000000,33.000000,119.000000,0.000000,0.000000,0.776372,0.932914,0.266086,0.959523,0.693437,674.000000,641.000000,33.000000,119.000000,0.000000,0.000000:
00000000
00000000
00000000
00000000
,
00000000
00000000
00000000
00000000
,
00000000
00000000
00000000
00000000
,
00000000
00000000
00000000
00000000
,
00002000
00000000
00013000
00000010
00000020
00000000
00000130
00000000
,
00000001
00000000
00001000
00000000
00000100
00000000
00000000
00000000
00020100
00000000
00000000
00000000
00031000
00000000
00100000
00001000
,
00100000
00000000
00001000
01000000
02000000
00000000
03100000
00000000
,
10000000
00000000
00100000
00000000
01000000
00000000
00010000
00000000
00100000
00000000
01000000
00000000
10000000
00000000
00010000
01000000
,
00020000
00000000
00000000
00000000
10030000
00000000
01000000
00000000
00200000
00000000
00000000
20300000
00330000
00000000
30200000
00000000
,
00000000
00000000
00301000
00010000
00001000
00000000
00010000
00000000
00000020
00000000
00000000
00000230
00000000
00000000
00000301
00000000
,
00002000
00000000
00000000
00000000
00003001
00000000
00000010
00000000
00000200
00000000
00000000
00000302
00003300
00000000
00000203
00000000
,
00000000
00000000
00010300
00001000
00010000
00000000
00001000
00000000
02000000
00000000
00000000
03200000
00000000
00000000
10300000
00000000
,
20100000
00000000
00000000
00000000
30010000
00100000
00010000
00100000
00002000
00000000
00000000
00323000
00000000
00003000
00030010
00000000
,
00002010
00000000
00000000
00000000
00003001
00000010
00000001
00000010
00000200
00000000
00000000
00020300
00000000
00000000
00031000
00000000
,
01000000
00010000
01000000
00000000
00100000
10000000
00100000
00000000
10000000
01000000
00100000
00010000
01000000
00100000
10000000
00010000
,
20000000
30200000
01300000
01100000
,
10020000
00000000
00000000
00000000
10030000
01000000
10000000
00000000
00010000
00000000
10000000
00100000
00000000
10000000
00200000
00000000
,
00000000
00000000
01300000
00010000
01000000
00000000
00010000
00000000
00100000
00000000
00001000
00010000
00000000
00001000
00010000
00000000
,
00000020
00000000
00000000
00000000
00001030
00000001
00001000
00000001
00000100
00000000
00000001
00000010
00000000
00000100
00002000
00000000
,
00000000
00000000
00003100
00010000
00000100
00000000
00010000
00000000
00001000
00000000
00000100
00000010
00000000
00001000
00000001
00000000
,
00002001
00000000
00000000
00000000
00003001
00000010
00000001
00000000
00001000
00000000
00000001
00000100
00000000
00000001
00000200
00000000
,
00000000
00000000
00000310
00001000
00000010
00000000
00001000
00000000
00000100
00000000
00010000
00001000
00000000
00010000
00001000
00000000
,
02000000
00000000
00000000
00000000
03010000
10000000
00010000
10000000
00100000
00000000
10000000
01000000
00000000
00100000
00010000
00000000
,
00110000
11000000
10100000
01010000
,
10000000
00000000
00010000
01000000
00010000
01000000
00010000
10000000
02000000
00000000
00000000
03200000
00000000
00000000
00301000
00000000
,
00010000
00000000
00000100
00001000
00000100
00000000
00001000
00000000
00000010
00000000
00000100
00000001
00000000
00000001
00001000
00000000
,
00000100
00000000
00010000
00000100
00010000
00000100
00010000
00000100
00002000
00000000
00000000
00003002
00000000
00000000
00000103
00000000
,
00000010
00000000
00001000
00000100
00001000
00000000
00000100
00000000
00010000
00000000
00000010
00000100
00000000
00000001
00001000
00000000
,
00000001
00000000
00001000
00000010
00001000
00000010
00001000
00000001
00000020
00000000
00000000
00000230
00000000
00000000
00010300
00000000
,
00001000
00000000
00100000
00010000
00100000
00000000
00010000
00000000
01000000
00000000
00100000
10000000
00000000
10000000
00010000
00000000
,
10000000
01000000
10000000
00000000
00010000
00000000
00100000
00000000
00001000
00010000
00001000
00000000
00010000
00000000
00000100
00000000
,
00001000
00000010
00001000
00000000
00000001
00000100
00000010
00001000
00000100
00000010
00000001
00001000
00000001
00000000
00000000
00000000
,
00002000
00000000
00003020
00000000
00000130
00000200
00000000
00002300
,
00000000
00023000
00000000
00000000
00000000
00130000
01000000
00100000
,
20000000
00000000
33020000
00000000
00130000
00200000
00000000
02300000
,
00000000
03020000
00000000
00032000
00030000
00003020
00000000
00000031
,
00000100
00000000
00000001
00001000
00001200
00000000
00010300
00000000
,
00010000
00000000
00001000
00000000
01000000
00000000
00000000
00000000
01020000
00000000
00000000
00000000
10030000
00000000
00010000
10000000
,
00010000
00000000
10000000
01000000
12000000
00000000
03100000
00000000
,
00010000
00000000
01000000
00000000
10000000
00000000
01000000
00000000
00010000
00000000
00100000
00000000
00001000
00000000
00010000
00001000
,
00020000
00000000
00000000
00000000
00030100
00000010
00000100
00000010
00000001
00000000
00000000
00000201
00000000
00000000
00000310
00000000
,
00001000
00000000
00000100
00010000
00000100
00000000
00010000
00000000
00001000
00000000
01000000
00010000
00000000
01000000
00100000
00000000
,
20000000
00000000
00000000
00000000
30010000
00000000
01000000
00000000
00100000
00000000
10000000
01000000
00000000
01000000
00100000
00000000
,
00001000
00000000
00010000
00000100
00010000
00000000
00001000
00100000
00000000
00100000
00001000
00000000
00010000
00000000
00000100
00001000
,
00000002
00000000
00000000
00000000
00001003
00000010
00000100
00000010
00002000
00000000
00000000
00003200
00000000
00000000
00010300
00000000
,
00001000
00000000
01000000
00010000
01000000
00000000
00100000
00000000
10000000
00000000
00010000
00100000
00000000
00100000
01000000
00000000
,
10000000
00000000
00010000
01000000
00100000
00000000
10000000
01000000
00100000
00000000
00000000
00102000
00000000
00000000
00013000
00000000
,
00000010
00000000
00000100
00000000
00000001
00000010
00000200
00000000
00002300
00000000
00003002
00000000
00000203
00000000
00000310
00000000
,
00002002
00003003
00000001
00001000
,
00020000
00030000
00001000
00010000
,
20000000
30000000
00010000
10000000
,
02000000
03100000
00200000
00310000
,
20020000
00000000
00000000
00000000
30030000
00000000
00000000
00000000
20000000
00000000
00000000
30020000
00000000
00000000
02030000
00000000
,
00000000
00000000
03001000
00010000
00001000
00000000
00010000
00001000
00020000
00000000
00000000
00030200
00000000
00000000
00000310
00000000
,
00000022
00000000
00000000
00000000
00000033
00000000
00000000
00000000
00000002
00000000
00000000
00002003
00000000
00000000
00003020
00000000
,
00000000
00000000
00010030
00001000
00010000
00000000
00000100
00000000
00000010
00000000
00000001
00000000
00001000
00000000
00000010
00000000
,
00002010
00000000
00000000
00000000
00003001
00000000
00000010
00000000
00000200
00000000
00000000
00000302
00003300
00000000
00000103
00000000
,
00000100
00000000
00010300
00001000
00010000
00000000
00001000
00000000
02000000
00000000
00000000
03200000
00000000
00000000
10300000
00000000
,
00020000
00000000
00000000
00000000
10030000
00000000
01000000
00000000
00200000
00000000
00000000
20300000
00330000
00000000
30100000
00000000
,
00100000
00000000
00301000
00010000
00001000
00000000
00010000
00000000
00000020
00000000
00000000
00000230
00000000
00000000
00000301
00000000
,
00000102
00000000
00000000
00000000
00001003
00000100
00001000
00000100
00020000
00000000
00000000
00032300
00000000
00030000
01003000
00000000
,
01020000
00000000
00000000
00000000
10030000
01000000
10000000
01000000
00200000
00000000
00000000
00302000
00000000
00000000
00013000
00000000
,
00000010
00001000
00000010
00000000
00010000
00001000
00010000
00000000
00001000
00100000
00010000
01000000
00100000
10000000
00010000
10000000
,
00200000
01000000
01300000
10010000
,
10000000
00000000
00010000
01000000
00010000
01000000
00010000
01000000
00200000
00000000
00000000
20300000
00000000
00000000
30010000
00000000
,
00000000
00000000
00100000
00010000
00100000
00000000
00001000
00010000
00001000
00000000
00010000
00000010
00000000
00000100
00000001
00000000
,
00000000
00000000
00001000
00000100
00001000
00000100
00001000
00000100
00000020
00000000
00000000
00000032
00000000
00000000
00003103
00000000
,
00000000
00000000
00000001
00001000
00000001
00000000
00001000
00000100
00001000
00000000
00000100
00010000
00000000
00001000
00010000
00000000
,
00001000
00000000
00100000
00010000
00100000
00010000
00100000
00010000
01000000
00000000
00010000
01000000
00000000
00100000
20000000
00000000
,
00000000
00000000
30010000
01000000
00010000
00000000
10000000
00000000
01000000
00000000
00100000
00001000
00000000
00100000
00002000
00000000
,
00000000
00000000
00013000
00000010
00010000
00000010
00010000
00000010
00000100
00000000
00000001
00000010
00000000
00000100
00001000
00000000
,
00000001
00000100
00000101
00000000
00001010
00000000
00001001
00000000
,
00000001
00000000
00001000
00000100
00010000
00000000
00001000
00000000
00101000
00000000
00000000
01001000
00000000
00000000
01020000
00000000
,
00000000
00000000
10030000
00100000
01000000
00000000
00010000
00000000
00100000
00000000
00010000
10000000
00000000
00000000
10000000
01000000
,
10000000
00000000
00010000
00100000
00001000
00000000
00010000
00000000
00010100
00000000
00000000
00010010
00000000
00000000
00002010
00000000
,
00000000
00000000
00003001
00000100
00000010
00000000
00001000
00000000
00000100
00000000
00001000
00000001
00000000
00000000
00000001
00000100
,
00000001
00000000
00000100
00000000
00000010
00000000
00001000
00000100
00001000
00000000
00000100
00000000
00010000
00000000
00001000
00010000
,
00001000
00000000
00100000
00000000
00010000
00000000
01000000
00010000
01000000
00000000
00100000
00000000
10000000
00000000
00010000
00100000
,
00010000
01000000
00010000
00000000
01000000
00001000
01000000
00000000
00001000
00010000
00001000
00000000
00010000
00000100
00010000
00000000
,
00000100
00000000
00000010
00000000
00000001
00000100
00000010
00001000
00000100
00000010
00000001
00001000
00000001
00000000
00000000
00000000
,
00000201
00000000
00000010
00000000
00000000
00000010
00000000
00000000
,
00002300
00000000
00023000
00000000
,
02030000
00000000
10000000
00000000
00000000
00100000
00000000
00000000
,
03020000
00000000
00032000
00000000
,
00103000
00000000
00020000
00000000
00000000
20030000
00000000
00000000
,
30200000
00000000
01300000
00320000
00000000
23030000
00000000
30310000
,
10030000
01000000
00100000
00010000
00001000
00000100
00000010
00000001
,
00000100
00000010
00001000
00010000
01000000
00100000
10000000
00010000
,
20020000
00000000
00000000
00000000
,
30030000
00000000
00000000
00000000
;

//---------------dance-double - ----------------
#NOTES:
     dance-double:
     :
     Medium:
     12:
     0.582855,0.645864,0.241896,0.927270,0.241896,506.000000,476.000000,30.000000,115.000000,0.000000,0.000000,0.582855,0.645864,0.241896,0.927270,0.241896,506.000000,476.000000,30.000000,115.000000,0.000000,0.000000:
// measure 0
00000000
00000000
00000000
00000000
,  // measure 1
00000000
00000000
00000000
00000000
,  // measure 2
00000000
00000000
00000000
00000000
,  // measure 3
00000000
00000000
00000000
00000000
,  // measure 4
00001000
00000000
00100000
00010000
02000000
00000000
03100000
00000000
,  // measure 5
10000000
00000000
00010000
00000000
00102000
00000000
00013000
00000100
,  // measure 6
00000010
00000000
00000001
00000100
00000020
00000000
00001030
00000000
,  // measure 7
00000100
00010000
00001000
00000000
00012000
00000000
00103000
00010000
,  // measure 8
02000000
00000000
00000000
00000000
03100000
00000000
10000000
00000000
00020000
00000000
00000000
03230000
00000000
00000000
00310000
00000000
,  // measure 9
02000000
00000000
00000000
00000000
03001000
00000000
00010000
00000000
00002000
00000000
00000000
00023000
00000000
00000000
00030100
00000000
,  // measure 10
00000020
00000000
00000000
00000000
00000031
00000000
00001000
00000000
00000002
00000030
00000000
00000203
00000000
00000000
00000310
00000000
,  // measure 11
00002000
00000000
00000000
00000000
00003001
00000000
00000010
00000000
00000002
00000000
00000000
00002003
00000000
00000000
00003100
00000000
,  // measure 12
00010000
00000000
00010000
00000000
00001000
00000000
00000100
00000000
00001000
00000000
00000000
00010000
00000000
00000000
00001000
00000000
,  // measure 13
00010000
00000000
00010000
00000000
00001000
00000000
00010000
00000000
01000000
00000000
00000000
00010000
00000000
00000000
00001000
00000000
,  // measure 14
00100000
00010000
01000000
00100000
10000000
01000000
00100000
00010000
,  // measure 15
02000000
00100000
03100000
01100000
,  // measure 16
10020000
00000000
00000000
00000000
10030000
00000000
00100000
00000000
01000000
00000000
00010000
00100000
00000000
00010000
00100000
00000000
,  // measure 17
00000000
00000000
00001000
00000000
01000000
00000000
00010000
00000000
00200000
00000000
00000000
00302000
00000000
00000000
00013000
00000000
,  // measure 18
00000010
00000000
00000100
00000000
00000001
00000000
00000010
00000000
00000001
00000000
00001000
00000100
00000000
00001000
00000100
00000000
,  // measure 19
00000000
00000000
00010000
00000000
00000010
00000000
00001000
00000000
00000200
00000000
00000000
00020300
00000000
00000000
00031000
00000000
,  // measure 20
02000000
00000000
00000000
00000000
03100000
00000000
10000000
00000000
00010000
00000000
00100000
00001000
00000000
00100000
00010000
00000000
,  // measure 21
00000000
00000000
01000000
00000000
00001000
00000000
00010000
00000000
00000100
00000000
00001000
00000010
00000000
00000010
00000100
00000000
,  // measure 22
00000002
00000000
00000000
00000000
00000013
00000030
00000100
00000000
00001000
00000000
00000010
00010000
00000000
00000010
00001000
00000000
,  // measure 23
00002001
00030000
00000000
00000000
00003010
00000000
00000000
00000000
00000110
00000000
00000000
00000000
00001001
00000000
00000000
00000000
,  // measure 24
00000001
00000000
00000100
00000000
00001000
00000000
00000100
00000000
00000020
00000000
00000000
00002030
00000000
00000000
00003100
00000000
,  // measure 25
00010000
00000000
00001000
00000000
00100000
00000000
00010000
00000000
01000000
00000000
00010000
10000000
00000000
00010000
10000000
00000000
,  // measure 26
01000000
00000000
00010000
00000000
01000000
00000000
10000000
00000000
00200000
00000000
00000000
02300000
00000000
00000000
03010000
00000000
,  // measure 27
00100000
00000000
00001000
00000000
00010000
00000000
00000010
00000000
00000100
00000000
00000001
00001000
00000000
00000001
00000100
00000000
,  // measure 28
00000020
00000000
00000000
00000000
00001030
00000000
00000100
00010000
00000200
00000000
00000000
00020300
00000000
00000000
00031000
00000000
,  // measure 29
00000000
00000000
00010000
00000000
00010000
00000000
00001000
00000000
00200000
00000000
00000000
00302000
00000000
00000000
00013000
00000000
,  // measure 30
00000010
00000100
00000010
00000001
00000010
00000100
00000010
00001000
,  // measure 31
00000001
00000010
00000100
00001000
00000100
00010000
00001000
00000000
,  // measure 32
00022000
00000000
00000000
00003000
,  // measure 33
00200000
00000000
00000000
00030000
,  // measure 34
02000000
00000000
00000000
00300000
,  // measure 35
00020000
00000000
00000000
03030000
,  // measure 36
10000000
00000000
01000000
00100000
00120000
00000000
01030000
00000000
,  // measure 37
00000000
00001000
00001000
00000000
00021000
00000000
00030100
00000010
,  // measure 38
00000001
00000000
00001000
00000010
00001020
00000000
00000130
00000000
,  // measure 39
00000001
00000100
00001000
00000100
00000001
00000010
00001000
00010000
,  // measure 40
00000200
00000000
00003000
00000000
00010300
00000000
00001000
00000000
00200000
00000000
00000000
00320000
00000000
00000000
10030000
00000000
,  // measure 41
00000000
00000000
00010000
00000000
01000000
00000000
00100000
00000000
01000000
00000000
00001000
30000000
00010000
00300000
00000000
00000000
,  // measure 42
00010200
00000000
00000000
00000000
00000310
00000000
00000001
00000000
00002000
00000000
00000000
00003020
00000000
00000000
00000130
00000000
,  // measure 43
00000000
00000001
00000010
00000100
00001000
00000000
00001001
00000000
,  // measure 44
00010200
00000000
00000000
00000000
00010300
00000000
00001000
00000000
00020000
00000000
00000000
00032000
00000000
00000000
02003000
00000000
,  // measure 45
00000000
00000000
03010000
00000000
00010000
00000000
10000000
00000000
02000000
00000000
00000000
03200000
00000000
00000000
00301000
00000000
,  // measure 46
00010000
00000000
00000000
00000000
00000100
00000000
00001000
00000000
00000020
00000000
00000000
00000230
00000000
00000000
00000301
00000000
,  // measure 47
00000000
00001000
00001000
00000001
00000100
00001000
00010000
00100000
,  // measure 48
20000000
30000000
10000000
01000000
,  // measure 49
00020000
00030000
00010000
00001000
,  // measure 50
00000200
00000300
00000100
00000001
,  // measure 51
00000020
00000030
00000010
00000100
,  // measure 52
00002002
00000000
00003003
00000000
00000001
00000100
00001000
00000100
,  // measure 53
00000020
00000000
00000030
00000000
00001000
00000100
00001000
00000100
,  // measure 54
00020000
00000000
00003000
00000000
00030000
00030000
00000000
00000000
00001000
00000000
00100000
00000000
00001000
00000000
00010000
00000000
,  // measure 55
00002000
00000000
00000000
00000000
00003020
00000000
00000000
00000000
00000032
00000030
00000000
00000000
00001003
00000000
00000000
00000000
,  // measure 56
00001002
00000000
00000000
00000000
00000133
00000000
00000010
00000000
00002000
00000000
00000000
00003032
00000000
00000000
00001303
00000000
,  // measure 57
00000020
00000000
00000000
00000000
00010030
00000000
00001000
00000000
00020000
00000000
00000000
00032000
00000000
00000000
00103000
00000000
,  // measure 58
02000000
00000000
00000000
00000000
13000000
00000000
00010000
00000000
20000000
03000000
00000000
30200000
00000000
00000000
01300000
00000000
,  // measure 59
00020000
00000000
00000000
00000000
10030000
00000000
01000000
00000000
20000000
00000000
00000000
30020000
00000000
00000000
00130000
00000000
,  // measure 60
00001000
00000000
00001000
00000000
00010000
00000000
00100000
00000000
00010000
00000000
00000000
00001000
00000000
00000000
00010000
00000000
,  // measure 61
00001000
00000000
00001000
00000000
00010000
00000000
00001000
00000000
00000010
00000000
00000000
00001000
00000000
00000000
00010000
00000000
,  // measure 62
00000100
00001000
00000010
00000100
00000001
00000010
00000100
00001000
,  // measure 63
00000020
00000100
00000130
00000110
,  // measure 64
00001001
00000000
00000001
00000000
00000100
00000000
00001000
00000000
00000200
00000000
00000000
00000320
00000300
00000000
00001030
00000000
,  // measure 65
00000100
00000000
00010000
00000000
00001000
00000000
00100000
00000000
00020000
00000000
00000000
20030000
00000000
00000000
30100000
00000000
,  // measure 66
01000000
00000000
10000000
00000000
01000000
00000000
00010000
00000000
00200000
00000000
00000000
02300000
00000000
00000000
13000000
00000000
,  // measure 67
00100000
01000000
01000000
00010000
20000000
00000000
30010000
00000000
,  // measure 68
10100000
00000000
10000000
00000000
00100000
00000000
00010000
00000000
00200000
00000000
00000000
02300000
00300000
00000000
03010000
00000000
,  // measure 69
00100000
00000000
00001000
00000000
00010000
00000000
00000100
00000000
00002000
00000000
00000000
00003002
00000000
00000000
00000103
00000000
,  // measure 70
00000010
00000000
00000001
00000000
00000010
00000000
00001000
00000000
00000200
00000000
00000000
00000320
00000000
00000000
00000031
00000000
,  // measure 71
00000100
00000100
00000100
00000000
00000010
00000000
00000110
00000000
,  // measure 72
00002001
00030000
00000000
00000000
00003100
00000000
00010000
00000000
00010100
00000000
00000000
00010100
00000000
00000000
00012000
00000000
,  // measure 73
00000000
00000000
00103000
00000000
00010000
00030000
01000000
00000000
00100000
00000000
10000000
00000000
00010000
00000000
00000000
00000000
,  // measure 74
20010000
00000000
00000000
00000000
33310000
00000000
00100000
00000000
00101000
00000000
00000000
00101000
00000000
00000000
00021000
00000000
,  // measure 75
00000000
00030100
00001000
00000010
00000100
00000001
00001000
00000000
,  // measure 76
00000001
00000000
00000100
00000000
00000001
00000000
00000100
00000010
00000200
00000000
00000000
00000320
00000000
00000000
00001030
00000000
,  // measure 77
00000000
00000000
00000100
00000000
00000100
00000000
00010000
00001000
00020000
00000000
00000000
00032000
00000000
00000000
00103000
00000000
,  // measure 78
00010000
01000000
00130000
10000000
01000000
00100000
00010000
10000000
,  // measure 79
00100000
00010000
00100000
10000000
01000000
00010000
00001000
00000000
,  // measure 80
00022000
00000000
00000000
00003000
,  // measure 81
00000020
00000000
00000000
00030000
,  // measure 82
00000200
00000000
00000000
00000030
,  // measure 83
00000002
00000000
00000000
00000303
,  // measure 84
00002000
00000000
00000100
00000000
00000000
00000100
00000000
00000000
,  // measure 85
00003002
00000000
00000100
00000203
00000000
00000320
00000000
00002030
,  // measure 86
00000000
00003001
00000010
00000001
00000010
00000100
00002000
00000000
,  // measure 87
00003100
00010000
00002000
00000000
01003000
00100000
10000000
00000000
,  // measure 88
20020000
00000000
00000000
00000000
,  // measure 89
30030000
00000000
00000000
00000000
;

//---------------dance-double - ----------------
#NOTES:
     dance-double:
     :
     Easy:
     8:
     0.385882,0.466457,0.225770,0.653120,0.000000,335.000000,307.000000,28.000000,81.000000,0.000000,0.000000,0.385882,0.466457,0.225770,0.653120,0.000000,335.000000,307.000000,28.000000,81.000000,0.000000,0.000000:
// measure 0
00000000
00000000
00000000
00000000
,  // measure 1
00000000
00000000
00000000
00000000
,  // measure 2
00000000
00000000
00000000
00000000
,  // measure 3
00000000
00000000
00000000
00000000
,  // measure 4
00010000
00000100
00001100
00000000
,  // measure 5
00000001
00000100
00000101
00000000
,  // measure 6
00001000
00000010
00001010
00000000
,  // measure 7
00010000
00001000
00011000
00000000
,  // measure 8
00201000
00310000
10000000
00100000
,  // measure 9
01000000
01000000
00010000
00100000
,  // measure 10
00102000
00013000
00000100
00001000
,  // measure 11
00000010
00000010
00000100
00000001
,  // measure 12
00002002
00000000
00003003
00000000
00001000
00000100
00010000
00000000
,  // measure 13
00020200
00000000
00030300
00000000
00010000
00001000
00100000
00000000
,  // measure 14
00020000
20030000
30200000
02300000
,  // measure 15
03200000
00000000
01300000
01100000
,  // measure 16
20020000
00000000
30030000
00000000
10000000
01000000
10000000
01000000
,  // measure 17
00000000
00100000
00010000
01000000
,  // measure 18
00002000
00000000
00003000
00000000
00010000
00000100
00010000
00000100
,  // measure 19
00000000
00000000
00010000
00000000
00000100
00000010
00000001
00000000
,  // measure 20
00002000
00000000
00003000
00000000
00000001
00000100
00000001
00000100
,  // measure 21
00000000
00000001
00001000
00000010
,  // measure 22
00020000
00000000
00030000
00000000
00001000
00100000
00001000
00100000
,  // measure 23
00000000
00002000
02003000
03100000
,  // measure 24
20020000
00000000
30030000
00000000
10000000
00100000
10000000
00100000
,  // measure 25
01000000
00010000
00100000
00001000
,  // measure 26
00022000
00000000
00033000
00000000
00010000
00000100
00010000
00000100
,  // measure 27
00001000
00000010
00000100
00000001
,  // measure 28
00000202
00000000
00000303
00000000
00000001
00000100
00000001
00000100
,  // measure 29
00000010
00001000
00000100
00010000
,  // measure 30
00001000
00010000
00001000
00000000
00010000
00001000
00010000
00000000
,  // measure 31
00002000
00203000
02300000
13000000
,  // measure 32
10020000
00000000
00000000
00000000
,  // measure 33
00230000
00000000
00000000
00000000
,  // measure 34
00302000
00000000
00000000
00000000
,  // measure 35
00023000
00000000
00000000
00000000
,  // measure 36
00030100
00001000
00001010
00000000
,  // measure 37
00000010
00000100
00000110
00000000
,  // measure 38
00000100
00000001
00000101
00000000
,  // measure 39
00001000
00000100
00010000
00001000
,  // measure 40
00202000
00000000
00303000
00000000
00100000
00010000
01000000
00000000
,  // measure 41
00010000
10000000
00100000
00100000
,  // measure 42
20000000
00000000
30000000
00000000
00010000
01000000
00010000
00000000
,  // measure 43
00100000
00100000
00001000
00010000
,  // measure 44
00000200
00000000
00000300
00000000
00001000
00000010
00000100
00000000
,  // measure 45
00000001
00000001
00000010
00000100
,  // measure 46
00002000
00000000
00003000
00000000
00000001
00000100
00000001
00000000
,  // measure 47
00001000
00000100
00010000
00001000
,  // measure 48
00020000
00001000
00031000
00000000
,  // measure 49
00002000
00100000
00103000
00000000
,  // measure 50
00200000
00010000
00310000
00000000
,  // measure 51
00020000
01000000
01030000
00000000
,  // measure 52
00010000
01000000
00200000
00300000
,  // measure 53
10000000
01000000
00200000
00300000
,  // measure 54
00001000
00010000
00002000
00003000
,  // measure 55
00010000
00000100
00000020
00000030
,  // measure 56
00002002
00000000
00003003
00000000
00000001
00000100
00000001
00000000
,  // measure 57
00000100
00000100
00000010
00001000
,  // measure 58
00000200
00000000
00000300
00000000
00010000
00001000
00010000
00000000
,  // measure 59
00001000
00001000
00100000
00010000
,  // measure 60
02020000
00000000
03030000
00000000
01000000
00100000
10000000
00000000
,  // measure 61
02000000
00000000
03000000
00000000
10000000
01000000
00100000
00000000
,  // measure 62
00020000
02030000
03002000
00023000
,  // measure 63
00030200
00000010
00000310
00000110
,  // measure 64
00002002
00000000
00003003
00000000
00000001
00000100
00000001
00000100
,  // measure 65
00000010
00000000
00001000
00000000
00000100
00010000
00000100
00010000
,  // measure 66
00000000
00000000
00010000
00000000
00001000
00100000
00001000
00100000
,  // measure 67
00010000
00000000
10000000
00000000
00010000
01000000
00010000
01000000
,  // measure 68
00000000
00000000
00010000
00000000
10000000
00100000
10000000
00100000
,  // measure 69
01000000
00000000
00010000
00000000
00100000
00001000
00100000
00001000
,  // measure 70
00000000
00000000
00010000
00000000
00000010
00001000
00000010
00000000
,  // measure 71
00001000
00000001
00000110
00001001
,  // measure 72
00000000
00000000
00000101
00000000
00001000
00002000
00000000
00003200
,  // measure 73
00000000
00020300
00000000
00030000
00000000
00001000
00010000
00002000
,  // measure 74
00000000
00003000
00100000
00000000
00010000
00020000
00000000
02030000
,  // measure 75
00000000
03200000
00000000
20300000
00000000
30020000
00000000
20030000
,  // measure 76
00000000
30000000
10100000
00000000
00010000
00020000
00000000
00230000
,  // measure 77
00000000
00302000
00000000
00003000
00000000
00010000
00001000
00020000
,  // measure 78
00000000
00030000
00000100
00000000
00001000
00002000
00000000
00003020
,  // measure 79
00000000
00000230
00000000
00000302
00000000
00001003
00001000
00003000
,  // measure 80
00002001
00000000
00000000
00000000
,  // measure 81
00003200
00000000
00000000
00000000
,  // measure 82
00020300
00000000
00000000
00000000
,  // measure 83
00032000
00000000
00000000
00000000
,  // measure 84
00103000
00000000
00100000
00000000
,  // measure 85
01000000
00000000
01000000
00000000
,  // measure 86
10000000
01000000
00100000
00010000
,  // measure 87
00001000
00000100
00000010
00000000
,  // measure 88
00002002
00000000
00000000
00000000
,  // measure 89
00003003
00000000
00000000
00000000
;
