#VERSION:0.83;
#TITLE:Break the Code;
#SUBTITLE:;
#ARTIST:dj VERTICAI;
#TITLETRANSLIT:;
#SUBTITLETRANSLIT:;
#ARTISTTRANSLIT:;
#GENRE:;
#ORIGIN:;
#CREDIT:;
#BANNER:Break the Code.png;
#BACKGROUND:Break the Code-bg.png;
#PREVIEWVID:;
#JACKET:Break the Code-jacket.png;
#CDIMAGE:;
#DISCIMAGE:;
#LYRICSPATH:;
#CDTITLE:;
#MUSIC:Break the Code.ogg;
#OFFSET:-0.024000;
#SAMPLESTART:42.455044;
#SAMPLELENGTH:15.000000;
#SELECTABLE:YES;
#DISPLAYBPM:147.000000;
#BPMS:0.000=147.000,
224.000=294.000,
224.500=147.000,
224.750=73.500,
225.000=294.000,
225.500=147.000,
225.750=73.500,
226.000=294.000,
226.500=147.000,
226.750=73.500,
227.000=147.000;
#STOPS:;
#DELAYS:;
#WARPS:142.500=12.000,
170.500=12.000,
291.667=12.000,
304.667=12.000,
317.667=12.000,
330.667=12.000;
#TIMESIGNATURES:0.000=4=4;
#TICKCOUNTS:0.000=4;
#COMBOS:0.000=1;
#SPEEDS:0.000=1.000=0.000=0;
#SCROLLS:0.000=1.000,
104.000=0.010,
107.000=0.500,
112.000=0.010,
115.000=0.500,
120.000=0.010,
123.000=0.500,
128.000=0.010,
131.000=0.500,
136.000=1.000;
#FAKES:;
#LABELS:0.000=Song Start;
#BGCHANGES:;
#KEYSOUNDS:;
#ATTACKS: TIME=42.93:LEN=0.20:MODS=*100 stealth: TIME=43.13:LEN=0.20:MODS=*10 no stealth: TIME=43.33:LEN=0.20:MODS=*100 stealth: TIME=43.54:LEN=0.20:MODS=*10 no stealth: TIME=43.74:LEN=1.63:MODS=*3 stealth: TIME=45.37:LEN=0.20:MODS=*5 no stealth: TIME=46.19:LEN=0.20:MODS=*100 stealth: TIME=46.39:LEN=0.20:MODS=*10 no stealth: TIME=46.60:LEN=0.20:MODS=*100 stealth: TIME=46.80:LEN=0.20:MODS=*10 no stealth: TIME=47.01:LEN=1.63:MODS=*3 stealth: TIME=48.64:LEN=0.20:MODS=*5 no stealth: TIME=49.46:LEN=0.20:MODS=*100 stealth: TIME=49.66:LEN=0.20:MODS=*10 no stealth: TIME=49.86:LEN=0.20:MODS=*100 stealth: TIME=50.07:LEN=0.20:MODS=*10 no stealth: TIME=50.27:LEN=1.63:MODS=*3 stealth: TIME=51.90:LEN=0.20:MODS=*10 no stealth: TIME=52.72:LEN=0.20:MODS=*100 stealth: TIME=52.93:LEN=0.20:MODS=*10 no stealth: TIME=53.13:LEN=0.20:MODS=*100 stealth: TIME=53.33:LEN=0.20:MODS=*10 no stealth: TIME=53.54:LEN=1.23:MODS=*3 stealth: TIME=54.76:LEN=0.41:MODS=*5 no stealth;

//---------------dance-single - ----------------
#NOTEDATA:;
#CHARTNAME:;
#STEPSTYPE:dance-single;
#DESCRIPTION:;
#CHARTSTYLE:;
#DIFFICULTY:Hard;
#METER:14;
#RADARVALUES:0.631312,0.996083,0.125590,0.227631,0.596551,563.000000,547.000000,16.000000,29.000000,15.000000,0.000000,0.000000,0.000000,138.000000,0.631312,0.996083,0.125590,0.227631,0.596551,563.000000,547.000000,16.000000,29.000000,15.000000,0.000000,0.000000,0.000000,138.000000;
#CREDIT:;
#ATTACKS:;
#DISPLAYBPM:147.000000;
#NOTES:
0000
0000
0000
0000
,
0000
0000
0000
0000
,
0000
0000
0000
0000
,
0000
0000
0000
0000
,
0000
0000
0000
0000
,
0001
0000
0000
1000
0100
0000
0000
0010
0100
0000
0000
1000
0001
0000
0001
0000
,
1000
0000
0000
0001
0010
0000
0000
0100
0010
0000
0000
0001
1000
0000
1000
0000
,
0010
0000
0000
0010
1000
0000
0000
1000
0001
0000
0000
0100
0001
0000
1000
0000
,
0010
0000
0000
1000
0001
0000
0000
0010
0100
0000
0100
0000
0100
0000
0100
0000
,
1000
0000
0010
0000
1000
0000
0100
0000
1000
0000
0010
0000
1000
0000
0100
0010
,
0001
0000
0100
0000
0001
0000
0010
0000
0001
0000
0100
0000
0001
0000
1000
0010
,
0100
0000
0001
0000
0100
0000
0010
0000
0100
0000
0001
0000
0100
0000
0010
1000
,
0100
0000
0010
0000
0100
0000
1000
0000
0100
0000
0010
0000
0100
1000
0001
1000
,
0010
0000
0010
0000
1000
0000
0000
0001
0100
0000
0100
0000
0010
0000
0010
1000
,
0001
0000
0001
0000
0010
0000
0000
0100
1000
0000
1000
0000
0001
0000
1000
0000
,
0100
1000
0100
0000
0010
0001
0010
0000
0001
1000
0001
0000
0010
0100
0010
0000
,
0100
1000
0100
1000
0010
1000
0010
0100
0001
0100
0001
0010
0002
0000
0000
0000
,
0100
0000
1000
0000
0010
0000
1000
0000
0100
0000
1000
0000
0013
0000
0010
0100
,
1000
0000
0001
0000
1000
0010
0000
0010
0100
0000
0001
0000
0010
0100
0000
0100
,
1000
0000
0001
0000
0100
0010
0000
0010
1000
0000
0010
0000
0001
0000
0010
0000
,
1000
0000
0001
0000
1000
0100
0000
0100
0010
0000
0001
0000
0100
0010
0000
0010
,
1000
0000
0001
0000
0020
0100
0000
0130
0000
0000
0100
0000
1000
0001
1000
0000
,
0001
0000
0100
0000
0001
0010
0000
0010
0100
0000
1000
0000
0010
0100
0000
0100
,
0001
0000
1000
0000
0100
0010
0000
0010
1000
0000
0010
0000
0001
0000
0010
0000
,
0100
0000
1000
0000
0001
0100
0000
0100
0010
0000
1000
0000
0100
0010
0000
0010
,
0001
0000
1000
0000
0001
0100
0000
0020
0000
0000
0000
0000
0030
0000
0000
0000
,
MMMM
0000
0000
0000
,
1000
0001
0100
0001
1000
0100
1000
0001
,
0000
0000
0000
0000
,
0001
1000
0010
1000
0001
0010
0100
0010
,
0000
0000
0000
0000
,
1000
0100
0010
0100
1000
0001
0100
0010
,
0000
0000
0000
0000
,
0001
0001
0100
0100
0010
1000
0001
1000
,
0200
0000
0000
0000
,
1300
0000
0000
1000
0100
0000
1000
0000
0001
0000
M000
0001
0100
0000
0001
0000
,
0010
0000
1000
0001
1000
0000
0010
0000
1000
0000
0100
0000
0001
0000
0100
0000
,
0010
0000
0100
1000
0100
0000
0010
0001
0010
0000
0100
0000
0000
0000
0000
0000
,
0000
0000
0000
0000
0000
0000
0000
0000
0000
0000
M000
0001
0100
0000
0001
0000
,
0010
0000
0001
1000
0001
0000
0010
0000
0001
0000
0100
0000
1000
0000
0100
0000
,
0010
0000
0100
0001
0100
0000
0010
1000
0010
0000
0100
0000
0200
0000
0000
0000
,
0301
0101
1000
1100
,
0001
0000
0000
0100
0010
0000
0010
0000
1000
0000
000M
0100
0010
0000
0010
0000
,
0010
1000
0000
0010
1000
0000
0001
0100
0000
0100
0010
0000
1000
0000
0001
0000
,
0010
0001
0000
0010
0001
0000
1000
0100
0000
0100
0010
0000
0001
1000
0001
0000
,
0000
0000
0000
0000
0000
0000
0000
0000
0000
0000
000M
0100
0010
0000
0010
0000
,
0100
1000
0000
0100
1000
0000
0001
0010
0000
0010
0100
0000
1000
0000
0001
0000
,
0100
0001
0000
0100
0001
0000
1000
0010
0000
0010
0100
0000
0001
1000
0001
0000
,
1000
0000
0100
0000
1000
0001
0000
0000
0010
0000
0100
0000
0010
0001
0000
0000
,
0100
0000
0000
0100
0010
0000
1000
0000
0001
0000
0000
0001
0010
0000
0100
0000
,
1000
0000
0010
0000
1000
0001
0000
0000
0100
0000
0010
0000
0100
0001
0000
0000
,
0010
0000
0000
0010
0100
0000
1000
0000
0001
0000
0000
0001
0100
0000
0010
0000
,
0100
0001
0100
1000
0100
0001
1000
0001
,
0010
1000
0010
0001
0010
1000
0010
0100
,
1000
0010
0100
0001
0010
0100
1000
0001
,
2000
0000
0100
0000
3001
0000
2002
3003
,
0202
0303
0220
0330
2020
3030
0001
1000
,
0001
0000
0000
0000
0101
0000
0000
0000
0011
0000
0000
0010
0100
0000
1000
0000
,
0100
0000
0000
0000
1100
0000
0000
0000
1010
0000
0000
0010
1000
0000
0001
0000
,
0100
0000
0000
0000
0101
0000
0000
0000
1100
0000
0000
1000
0010
0000
0100
0000
,
0010
0000
0000
0000
1010
0000
0000
0000
0011
0000
0000
0010
0100
0000
1000
0000
,
0001
0000
0010
0000
0001
0000
0100
0000
1000
0000
0100
0000
0001
0100
0001
0000
,
0010
0000
0100
0000
1000
0000
0010
0000
0001
0000
0010
0000
1000
0010
1000
0000
,
0001
0000
0010
0000
0100
0000
0001
0000
0100
0000
1000
0000
0001
0010
0001
0000
,
1000
0100
0010
0100
0220
0330
2002
3003
,
1000
0000
0000
0010
0100
0000
0000
0010
0001
0000
0000
0010
0100
0000
0020
0000
,
1030
0000
0000
0100
0010
0000
0000
0100
0001
0000
0000
0100
0010
0000
0200
0000
,
1300
0000
0000
0001
0100
0000
0000
0001
0010
0000
0000
0001
1000
0000
2000
0000
,
3010
0000
0000
1000
0001
0000
0000
1000
0100
0000
1000
0000
1000
0010
0100
0001
,
1000
0000
0001
0000
0100
0000
0010
0100
0001
0000
1000
0000
0010
0000
0100
0010
,
1000
0000
0001
0000
0010
0000
0100
0010
0001
0000
1000
0000
0100
0000
0010
0100
,
1000
0001
1000
0000
0001
0100
0001
0000
1000
0010
1000
0000
0010
0100
0010
0100
,
0001
0000
0100
0000
0001
0100
0000
0010
0000
0010
1000
0000
00M1
0000
10M0
0000
,
01M0
0000
00M0
0100
10M0
0000
00M0
0000
00M1
0000
0000
0001
0010
0000
0100
0000
,
1000
0000
0000
1000
0010
0000
0000
0000
0100
0000
0010
0000
1000
0000
0001
0000
,
0100
0000
0000
0000
0000
0000
00M0
00M0
,
00M1
0000
10M0
0000
01M0
0000
00M0
0100
10M0
0000
00M0
0000
00M1
0000
0000
0001
,
0010
0000
0100
0000
1000
0000
0000
1000
0010
0000
0000
0000
0100
0000
0010
0000
,
1000
0001
0100
0000
0000
0000
00M0
00M0
,
00M0
0000
00M0
0000
00M1
0000
10M0
0000
01M0
0000
00M0
0100
10M0
0000
0000
0000
,
0001
0000
0000
0001
0010
0000
0100
0000
1000
0000
0000
1000
0010
0000
0000
0000
,
0100
0010
1000
0001
0100
0000
00M0
00M0
,
00M0
0000
00M0
0000
00M0
0000
00M0
0000
00M1
0000
10M0
0000
01M0
0000
0000
0100
,
1000
0000
0000
0000
0001
0000
0000
0001
0010
0000
0100
0000
1000
0000
0000
1000
,
0010
0000
0100
0010
1000
0001
0100
0000
,
00M0
00M0
00M0
00M0
00M0
00M0
00M1
1000
,
0100
0000
0000
0100
1000
0000
0000
0000
0001
0000
0000
0001
0010
0000
0100
0000
,
1000
0000
0000
1000
0010
0000
0000
0000
0100
0000
0010
0000
1000
0000
0001
0000
,
0100
0000
0000
0100
0001
0000
0000
0000
0100
0000
0100
0000
0010
0000
1000
0000
,
0001
0000
0000
0001
0100
0000
0000
0010
2000
0000
3002
0000
2003
0000
3002
0000
,
0013
0000
0000
0010
0100
0000
0000
0000
1000
0000
0000
1000
0001
0000
0000
0000
,
0010
0000
0000
0010
0001
0000
0000
0000
0100
0000
0000
0100
0010
0000
0000
0000
,
1000
0000
0000
1000
0010
0000
0000
0010
0100
0000
0000
0100
0001
0000
0000
0001
,
1000
0000
0000
0100
1000
0000
0001
0000
0200
0000
0320
0000
0230
0000
0320
0000
,
0030
0000
0000
0000
;

//---------------dance-single - ----------------
#NOTEDATA:;
#CHARTNAME:;
#STEPSTYPE:dance-single;
#DESCRIPTION:;
#CHARTSTYLE:;
#DIFFICULTY:Medium;
#METER:11;
#RADARVALUES:0.426108,0.664055,0.518057,0.164836,0.133439,380.000000,314.000000,66.000000,21.000000,15.000000,0.000000,0.000000,0.000000,99.000000,0.426108,0.664055,0.518057,0.164836,0.133439,380.000000,314.000000,66.000000,21.000000,15.000000,0.000000,0.000000,0.000000,99.000000;
#CREDIT:;
#DISPLAYBPM:147.000000;
#NOTES:
0000
0000
0000
0000
,
0000
0000
0000
0000
,
0000
0000
0000
0000
,
0000
0000
0000
0000
,
0000
0000
0000
0000
,
1000
0101
0010
1100
,
0001
1010
0100
0011
,
1000
0110
0100
1001
,
0001
0010
1000
0010
0002
0003
0002
0003
,
0001
0000
0100
0000
0010
1000
0010
0000
,
1000
0000
0100
0000
0010
0001
0010
0000
,
0001
0000
0010
0000
0100
1000
0100
0000
,
1000
0000
0010
0000
0100
0001
0100
0000
,
0010
1010
1100
0101
,
0011
0110
1100
1010
,
0011
1001
1010
0101
,
0110
0000
0110
0000
0010
1000
0001
1000
,
0001
1000
0001
1000
0001
2000
3000
0000
,
0100
1100
0010
0011
,
0001
1000
0010
0000
1000
0001
0010
0000
,
0001
0101
1000
1010
,
0010
0000
0100
0000
0001
0000
0000
0020
0000
0000
0130
0000
1000
0000
0000
0000
,
0010
1001
0100
1001
,
1000
0001
0100
0000
0001
1000
0100
0000
,
1000
0110
0001
0110
,
1000
0000
0100
0000
0010
0000
0000
0002
0000
0000
0103
0000
0010
0000
0000
0000
,
MMMM
0000
0000
0000
,
1000
0100
0010
0011
,
0000
0000
0000
0000
,
0001
1000
0010
0101
,
0000
0000
0000
0000
,
0010
0000
0001
0000
1000
0010
0100
0000
,
0000
0000
0000
0000
,
0001
0000
1000
0000
0100
0010
0001
0000
,
2000
0000
0000
0000
,
3000
0000
0000
0000
0000
M000
0000
0000
,
1000
0000
0001
0010
0100
0020
0030
0000
,
0001
0000
1000
0001
0100
0010
0100
0000
,
1001
0000
0000
0000
0000
M000
0000
0000
,
0001
0000
1000
0010
0100
0020
0030
0000
,
1000
0000
0001
1000
0100
0010
0100
0000
,
1001
0000
0000
0000
,
0000
0000
0000
0000
0000
000M
0000
0000
,
1000
0000
0000
0100
0000
0000
0010
0000
0000
0001
0000
0000
0100
0000
0000
0000
,
0001
0000
0000
0100
0000
0000
0010
0000
0000
1000
0000
0000
0100
0000
0000
0000
,
0000
0000
0000
0000
0000
000M
0000
0000
,
1000
0000
0000
0010
0000
0000
0100
0000
0000
0001
0000
0000
0010
0000
0000
0000
,
0001
0000
0000
0010
0000
0000
0100
0000
0000
1000
0000
0000
0010
0000
0000
0000
,
0100
1010
0001
1100
,
0010
0101
1000
0011
,
1000
0000
0000
1000
0100
0000
0000
0000
0010
0000
0000
0010
0001
0000
0000
0000
,
0100
0000
0000
0100
0010
0000
0000
0000
1000
0000
0000
1000
0001
0000
1000
0000
,
0100
0011
1000
0110
,
0001
1010
0100
1001
,
0001
0000
0000
0001
0100
0000
0000
0000
0010
0000
0000
0010
1000
0000
0000
0000
,
0001
1000
0001
1000
0200
0300
0200
0300
,
2002
3003
0220
0330
2002
0000
3003
0000
,
0001
0000
1100
0000
0001
0100
0010
0000
,
1000
0000
0011
0000
1000
0010
0100
0000
,
0001
0001
1000
1000
,
0001
0010
0100
0000
1000
0100
0010
0000
,
0100
0000
1010
0000
1000
0001
0100
0000
,
0010
0000
0101
0000
0001
1000
0100
0000
,
1000
1000
0001
0001
,
0010
0100
0010
0100
2000
0000
3002
0000
,
1003
0100
0000
1100
0000
0110
0000
0011
,
0000
1001
0000
0101
0000
0110
0000
1010
,
0000
1001
0000
0011
0000
1010
0000
1100
,
0000
0101
0000
0110
0000
0010
1000
0001
,
0100
0000
0100
0000
0001
1000
0100
1000
,
0010
0000
0010
0000
0100
0001
0010
0001
,
1000
1100
0001
0101
,
1000
0000
1000
0100
0010
0000
M010
M000
,
M001
0000
M000
0001
M100
0000
M000
0000
M001
0000
0000
0001
1000
0000
0000
0000
,
0001
0000
0000
0001
0010
0000
0000
0000
0001
0000
1000
0000
0001
0000
0000
0000
,
0000
0000
0000
0000
,
M010
0000
M000
0000
M001
0000
M000
0001
M100
0000
M000
0000
M001
0000
0000
0001
,
1000
0000
0000
0000
0001
0000
0000
0001
0010
0000
0000
0000
0001
0000
1000
0000
,
0001
0000
0000
0000
,
M000
0000
M000
0000
M010
0000
M000
0000
M001
0000
M000
0001
M100
0000
0000
0000
,
0001
0000
0000
0001
1000
0000
0000
0000
0001
0000
0000
0001
0010
0000
0000
0000
,
0001
1000
0001
0000
0000
0000
0000
0000
,
M000
0000
M000
0000
M000
0000
M000
0000
M010
0000
M000
0000
M001
0000
0000
0001
,
0100
0000
0000
0000
0001
0000
0000
0001
1000
0000
0000
0000
0001
0000
0000
0001
,
0010
0000
0001
1000
0001
0000
0000
0000
,
M000
M000
M000
M000
M000
M000
M010
0000
,
0001
0000
0000
0001
0100
0000
0000
0000
0001
0000
0000
0001
1000
0000
0000
0000
,
0001
0000
0000
0001
0010
0000
0000
0000
0001
0000
1000
0000
0001
0000
0000
0000
,
1000
0000
0000
1000
0100
0000
0000
0000
1000
0000
0000
1000
0001
0000
0000
0000
,
1000
0000
0000
1000
0010
0000
0000
0000
1000
0000
0001
0000
0010
0000
0000
0000
,
0100
0011
1000
0101
,
0010
1100
0001
1010
,
0001
0110
0100
1001
,
1000
0010
0001
0010
2000
3002
2003
3002
,
0003
0000
0000
0000
;

//---------------dance-single - ----------------
#NOTEDATA:;
#CHARTNAME:;
#STEPSTYPE:dance-single;
#DESCRIPTION:;
#CHARTSTYLE:;
#DIFFICULTY:Easy;
#METER:7;
#RADARVALUES:0.278091,0.442115,0.078494,0.125590,0.000000,248.000000,238.000000,10.000000,16.000000,11.000000,0.000000,0.000000,0.000000,44.000000,0.278091,0.442115,0.078494,0.125590,0.000000,248.000000,238.000000,10.000000,16.000000,11.000000,0.000000,0.000000,0.000000,44.000000;
#CREDIT:;
#DISPLAYBPM:147.000000;
#NOTES:
0000
0000
0000
0000
,
0000
0000
0000
0000
,
0000
0000
0000
0000
,
0000
0000
0000
0000
,
0000
0000
0000
0000
,
1000
1000
0100
0100
,
0010
0010
0001
0001
,
0100
0100
0010
0010
,
1000
1000
2002
3003
,
0001
0100
0010
0100
,
0001
0010
0100
0010
,
0001
1000
1000
0001
,
0010
0100
0010
0100
,
1000
0010
0100
0010
,
1000
0100
0010
0100
,
2000
0000
3002
0000
,
0103
0100
0100
0110
,
1001
0110
2002
3003
,
1000
0100
0010
0001
,
1000
0100
0010
0001
,
0001
0100
0010
1000
,
0001
0010
0200
0300
,
1000
0010
0100
0001
,
1000
0010
0100
0001
,
0001
0010
0100
1000
,
0010
0100
0002
0003
,
MMMM
0000
0000
0000
,
1000
0001
0010
0100
,
0000
0000
0000
0000
,
0010
0001
1000
0010
,
0000
0000
0000
0000
,
0100
0001
1000
0001
,
0000
0000
0000
0000
,
0010
0100
1000
0001
,
2000
0000
0000
0000
,
3000
0000
0000
0000
0000
000M
0000
0000
,
0001
0001
1000
1000
,
0001
0001
1000
0100
,
1001
0000
0000
0000
0000
000M
0000
0000
,
1000
1000
0001
0001
,
1000
1000
0001
0100
,
1001
0000
0000
0000
,
0000
0000
0000
0000
0000
M000
0000
0000
,
1000
0010
0100
0100
,
0001
0010
0100
0100
,
0000
0000
0000
0000
0000
M000
0000
0000
,
1000
0100
0010
0010
,
0001
0100
0010
0010
,
1000
0100
1000
0001
,
0010
0001
1000
1000
,
0001
0100
0001
1000
,
0010
1000
0001
0001
,
1000
0100
0001
0100
,
1000
0010
0001
0010
,
1000
0001
0100
0010
,
1000
0001
0010
0010
,
0220
0000
0000
0330
,
1000
0010
0100
0001
,
0100
0010
1000
0001
,
0001
0010
0100
1000
,
0100
0010
0001
1000
,
0010
0100
0001
1000
,
0001
0100
0010
0100
,
0100
0001
0010
1000
,
0010
0001
0100
1001
,
1000
0100
0010
0100
,
0100
0010
0001
0010
,
0010
0001
1000
0001
,
0001
0100
0010
1000
,
0001
0001
0100
0100
,
0010
0010
1000
1000
,
0100
1000
0001
0100
,
0010
1000
0001
M002
,
0000
1000
0100
1000
,
0000
1000
0010
1000
,
0000
0000
0000
0000
,
M000
0000
1000
0100
,
1000
0000
1000
0010
,
1000
0000
0000
0000
,
0000
M000
0000
1000
,
0100
1000
0000
1000
,
0010
1000
0000
0000
,
0000
0000
M000
0000
,
1000
0100
1000
0000
,
1000
0010
1000
0000
,
0000
0000
0000
M000
,
0003
1000
0100
1000
,
0001
1000
0010
2000
,
3000
0001
0100
0001
,
1000
0001
0010
0002
,
0003
1000
0100
0010
,
0001
0100
0010
1000
,
0001
0010
0001
1000
,
0010
0000
0010
0000
0110
0000
0220
0330
;

//---------------dance-single - ----------------
#NOTEDATA:;
#CHARTNAME:;
#STEPSTYPE:dance-single;
#DESCRIPTION:;
#CHARTSTYLE:;
#DIFFICULTY:Beginner;
#METER:4;
#RADARVALUES:0.164836,0.294743,0.023548,0.062795,0.000000,147.000000,144.000000,3.000000,8.000000,3.000000,0.000000,0.000000,0.000000,14.000000,0.164836,0.294743,0.023548,0.062795,0.000000,147.000000,144.000000,3.000000,8.000000,3.000000,0.000000,0.000000,0.000000,14.000000;
#CREDIT:;
#DISPLAYBPM:147.000000;
#NOTES:
0000
0000
0000
0000
,
0000
0000
0000
0000
,
0000
0000
0000
0000
,
0000
0000
0000
0000
,
0000
0000
0000
0000
,
0000
1000
0000
1000
,
0000
1000
0000
1000
,
0000
0001
0000
0001
,
0000
0001
0002
0003
,
0000
1000
0000
0100
,
0000
1000
0000
1000
,
0000
0001
0000
0100
,
0000
0001
0000
0001
,
0000
1000
0000
0010
,
0000
1000
0000
0001
,
0000
0010
0000
0001
,
0001
1000
0001
1000
,
0010
0010
0020
0030
,
0000
1000
0000
0100
,
0000
1000
0000
0100
,
0000
0010
0000
0001
,
0000
0010
0020
0030
,
0000
0001
0000
0100
,
0000
0001
0000
0100
,
0000
0010
0000
1000
,
0000
0010
0020
0030
,
0000
0000
0000
0000
,
1000
0001
1000
0000
,
0000
0000
0000
0000
,
0100
0010
0100
0000
,
0000
0000
0000
0000
,
1000
0001
0010
0000
,
0000
0000
0000
0000
,
0001
0100
0010
0000
,
1001
0000
0000
0000
,
0000
0000
0000
0000
0000
000M
0000
0000
,
0000
1000
0000
0001
,
0000
0001
0000
1000
,
0000
0000
0000
0000
0000
000M
0000
0000
,
0000
0001
0000
1000
,
0000
1000
0000
0001
,
0000
0000
0000
0000
,
0000
0000
0000
0000
0000
M000
0000
0000
,
0000
0100
0000
0010
,
0000
0010
0000
0100
,
0000
0000
0000
0000
0000
M000
0000
0000
,
0000
0010
0000
0100
,
0000
0100
0000
0010
,
0000
1000
0000
1000
,
0000
0010
0000
0010
,
0000
0100
0000
0100
,
0000
0001
0000
0001
,
0000
1000
0000
0100
,
0000
0010
0000
0001
,
0000
0001
0000
0100
,
0000
0010
0000
1000
,
1001
0000
0000
0000
,
0001
0100
0001
0000
,
0100
0001
0100
0000
,
0010
1000
0010
0000
,
1000
0010
1000
0000
,
0100
1000
0100
0000
,
1000
0100
1000
0000
,
0001
0010
0001
0000
,
0010
0010
0020
0030
,
0000
0001
0000
0100
,
0000
0100
0000
0001
,
0000
1000
0000
0100
,
0000
0100
0000
1000
,
0000
0001
0000
1000
,
0000
1000
0000
0001
,
0000
0100
0000
0010
,
0000
0010
0000
2000
,
0000
0000
0000
000M
,
0000
0000
0000
0000
,
0000
0000
0000
0000
,
0000
0000
0000
000M
,
0000
0000
0000
0000
,
0000
0000
0000
0000
,
0000
0000
0000
000M
,
0000
0000
0000
0000
,
0000
0000
0000
0000
,
0000
0000
0000
000M
,
0000
0000
0000
0000
,
0000
0000
0000
0000
,
0000
0000
0000
000M
,
3000
1000
0100
0010
,
0000
0100
0010
0001
,
0000
0001
0100
0010
,
0000
0100
0010
1000
,
0000
0001
0000
0001
,
0000
1000
0000
1000
,
0000
0100
0000
0010
,
0000
0000
0100
0000
0100
0000
0220
0330
;

//---------------dance-single - ----------------
#NOTEDATA:;
#CHARTNAME:;
#STEPSTYPE:dance-single;
#DESCRIPTION:;
#CHARTSTYLE:;
#DIFFICULTY:Challenge;
#METER:16;
#RADARVALUES:0.744567,1.180543,0.164836,0.164836,0.867354,664.000000,643.000000,21.000000,21.000000,15.000000,0.000000,0.000000,0.000000,158.000000,0.744567,1.180543,0.164836,0.164836,0.867354,664.000000,643.000000,21.000000,21.000000,15.000000,0.000000,0.000000,0.000000,158.000000;
#CREDIT:;
#ATTACKS:;
#DISPLAYBPM:147.000000;
#NOTES:
// measure 0
0000
0000
0000
0000
,  // measure 1
0000
0000
0000
0000
,  // measure 2
0000
0000
0000
0000
,  // measure 3
0000
0000
0000
0000
,  // measure 4
0000
0000
0000
0000
,  // measure 5
1000
0000
0000
1000
0001
0000
0100
0010
1000
0000
0000
1000
0100
0000
0010
0000
,  // measure 6
0001
0000
0000
0001
1000
0000
0010
0100
0001
0000
0000
0001
0010
0000
0100
0000
,  // measure 7
1000
0001
0000
0001
1000
0000
0001
0100
0000
0100
0010
0000
0010
1000
0000
1000
,  // measure 8
0100
0000
0000
1000
0001
0000
0000
0100
0010
0000
1010
0000
0110
0000
0101
0000
,  // measure 9
0001
0000
0100
0000
0001
0000
1000
0001
0010
0000
0001
0000
0010
0000
0100
1000
,  // measure 10
0100
0000
0010
0000
0100
0000
1000
0001
1000
0000
0010
0000
1000
0010
0100
0010
,  // measure 11
1000
0000
0001
0000
0100
0000
0010
0100
0001
0000
1000
0000
0100
0000
0010
0100
,  // measure 12
1000
0000
0001
0000
0100
0000
0010
0100
0010
0000
1000
0000
0001
0000
1000
0100
,  // measure 13
0010
0000
0010
0000
0001
0000
0001
1000
0100
0000
0100
0000
1000
0000
0001
1000
,  // measure 14
0010
0000
0010
0000
1000
0000
1000
0001
0100
0000
0100
0000
0001
0000
1000
0001
,  // measure 15
0100
0001
1000
0100
1000
0001
0100
0010
1000
0010
1000
0001
0010
0001
1000
0100
,  // measure 16
0010
0001
0100
0010
1000
0100
0010
1000
0010
0001
0100
0010
0001
0000
0010
0000
,  // measure 17
1010
0000
0001
0000
0011
0000
1000
0000
1010
0000
0001
0000
0010
0000
0010
0100
,  // measure 18
1000
0000
0001
0000
1000
0010
0000
0010
0100
0000
0001
0000
0010
0100
0010
0100
,  // measure 19
1000
0000
0001
0000
0100
0010
0000
0010
1000
0000
0010
0000
0001
0000
0010
0100
,  // measure 20
0010
0000
1000
0000
0100
1000
0000
0100
0010
0000
0001
0000
0100
0010
0100
0010
,  // measure 21
1000
0000
0001
0000
0010
0100
0000
0220
0330
0000
0100
1000
0001
0100
0001
0000
,  // measure 22
1001
0000
1000
0000
0001
0010
0000
0010
0100
0000
1000
0000
0010
0100
0010
0100
,  // measure 23
0001
0000
1000
0000
0100
0010
0000
0010
1000
0000
0010
0000
0001
0000
0010
0100
,  // measure 24
0010
0000
0001
0000
0100
0001
0000
0100
0010
0000
1000
0000
0100
0010
0000
0010
,  // measure 25
0001
0000
1000
0000
0001
0100
0000
0220
0330
0000
0001
0000
0100
0000
1000
0000
,  // measure 26
0000
MMMM
0000
0000
,  // measure 27
1000
0000
0010
1000
0010
0000
0100
0000
0001
0000
0010
0001
0010
0000
0100
0000
,  // measure 28
0000
0000
0000
0000
,  // measure 29
0001
0000
1000
0010
1000
0000
0001
0010
0001
0000
1000
0000
0010
0000
0110
0000
,  // measure 30
0000
0000
0000
0000
,  // measure 31
1000
0000
0100
0010
0001
0000
0001
0000
1000
0000
0010
0100
0001
0000
1000
0000
,  // measure 32
0000
0000
0000
0000
,  // measure 33
0001
0000
1000
0000
1000
0000
0001
0000
0010
0001
0010
0100
1000
0000
0001
0000
,  // measure 34
0200
0000
0000
0000
,  // measure 35
0301
0000
0000
0001
0100
0000
0010
0000
1000
0000
000M
1000
0100
0000
0010
0000
,  // measure 36
1000
0000
0100
1000
0100
0000
0010
0001
0010
0100
0010
0000
0001
0000
0000
0000
,  // measure 37
0001
0000
0100
0001
0100
0000
0010
1000
0010
0100
0010
0100
0001
0000
0000
0000
,  // measure 38
0000
0000
0000
0000
0000
0000
0000
0000
0000
0000
000M
1000
0100
0000
0010
0000
,  // measure 39
0001
0000
0100
0001
0100
0000
0010
1000
0010
0100
0010
0000
1000
0000
0000
0000
,  // measure 40
1000
0000
0100
1000
0100
0000
0010
0001
0010
0100
0010
0100
2000
0000
0000
0000
,  // measure 41
3001
0010
0100
0010
0001
0010
0100
0000
,  // measure 42
1000
0010
0100
0010
1000
001M
0100
0100
,  // measure 43
0001
0010
0000
0100
1000
0000
0010
1000
0000
0001
0100
0000
0010
0000
0100
0000
,  // measure 44
0001
0100
0000
0010
1000
0000
0100
1000
0000
0001
0010
0000
0001
1000
0001
0000
,  // measure 45
0000
0000
0000
0000
0000
001M
0100
0100
,  // measure 46
0001
0100
0000
0010
1000
0000
0100
1000
0000
0001
0010
0000
0100
0000
0010
0000
,  // measure 47
0001
0010
0000
0100
1000
0000
0010
1000
0000
0001
0100
0000
0001
1000
0001
0000
,  // measure 48
1000
0000
0100
0000
1000
0001
0000
0001
0010
0000
0100
0000
1000
0001
0000
0001
,  // measure 49
0100
0000
0000
0100
0010
0000
0010
1000
0001
0000
0000
0001
0010
0000
0100
0000
,  // measure 50
1000
0000
0010
0000
1000
0001
0000
0001
0100
0000
0010
0000
1000
0001
0000
0001
,  // measure 51
0010
0000
0000
0010
0100
0000
0100
1000
0001
0000
0000
0001
0100
0000
0010
0000
,  // measure 52
0100
0000
0001
0000
0010
0000
1000
0000
0010
0000
0001
1000
0000
0000
1000
0001
,  // measure 53
0010
0000
1000
0000
0010
0000
0001
0000
0010
0100
0000
0110
0000
0010
0001
1000
,  // measure 54
0001
0000
0100
0000
0010
0000
0100
0000
1000
0100
0000
0010
0000
0000
0010
1000
,  // measure 55
0001
0000
0010
0000
0001
0000
1000
0010
1000
0000
0010
0000
0100
0000
0010
0000
,  // measure 56
0220
0000
0330
0000
2020
0000
3030
0000
0022
0000
0033
0000
0001
1000
0001
1000
,  // measure 57
0100
0000
1000
0000
0001
0000
0010
0000
0001
0000
1000
0000
0100
0000
0010
0001
,  // measure 58
0100
0000
0001
0000
1000
0000
0010
0000
1000
0000
0001
0000
0100
0000
0010
1000
,  // measure 59
0001
0000
0010
0000
0100
0000
0001
0000
0100
0000
0010
0000
0001
0000
0100
0010
,  // measure 60
1000
0000
0010
0000
0100
0000
1000
0000
0100
0000
0010
0000
1000
0010
1000
0001
,  // measure 61
0100
0000
0010
0000
1000
0000
0100
0000
0001
0000
0100
0000
1000
0000
0001
0010
,  // measure 62
0001
0000
0100
0000
0010
0000
0100
0000
1000
0000
0100
0000
0001
0000
0001
0010
,  // measure 63
0100
0000
0010
0000
0100
0000
1000
0000
0100
0000
0001
0000
0100
0010
0001
0000
,  // measure 64
0011
0001
1001
0001
0101
0110
1010
0110
,  // measure 65
1001
0000
0000
0001
0100
0000
0010
0100
0001
0000
0000
1000
0100
0000
0010
0100
,  // measure 66
1000
0000
0000
0010
0100
0000
0100
0001
0010
0000
0000
0010
0100
0000
0100
1000
,  // measure 67
0010
0000
0000
0100
0001
0000
0010
0001
1000
0000
0000
0100
1000
0000
0010
1000
,  // measure 68
0001
0000
0000
0001
1000
0000
0001
0000
0100
0000
0100
0000
0010
1000
0001
0010
,  // measure 69
0100
0000
1000
0000
0100
0010
0000
0100
1000
0000
0001
0000
0100
0000
0010
0100
,  // measure 70
0001
0100
0001
0000
1000
0100
1000
0100
0000
1000
0100
0010
0002
0000
0000
0000
,  // measure 71
1003
0000
1000
0000
0001
0100
0000
0010
0000
0010
1000
0000
0010
0000
0100
0000
,  // measure 72
0001
1000
0001
0100
0010
1000
0001
0010
0000
0010
0100
0000
10M0
0000
01M0
0000
,  // measure 73
10M0
0000
00M0
1000
00M1
0000
00M0
0000
01M0
0000
00M0
0100
10M0
0000
0001
0100
,  // measure 74
0001
0000
0000
0001
1000
0000
0010
0000
0100
0000
0000
0100
0010
1000
0001
0000
,  // measure 75
0100
0000
0000
0000
0000
0000
00M0
00M0
,  // measure 76
10M0
0000
01M0
0000
10M0
0000
00M0
1000
00M1
0000
00M0
0000
01M0
0000
0000
0100
,  // measure 77
1000
0000
0001
0100
0001
0000
0000
0001
1000
0000
0010
0000
0100
0000
0000
0100
,  // measure 78
0010
1000
0001
0000
0100
0000
0000
0000
0000
0000
0000
0000
00M0
0000
00M0
0000
,  // measure 79
00M0
0000
00M0
0000
10M0
0000
01M0
0000
10M0
0000
00M0
1000
00M1
0000
0010
0000
,  // measure 80
0100
0000
0000
0100
1000
0000
0001
0100
0001
0000
0000
0001
1000
0000
0010
0000
,  // measure 81
0100
0000
0000
0100
0010
1000
0001
0000
0100
0000
0000
0000
00M0
0000
00M0
0000
,  // measure 82
00M0
0000
00M0
0000
00M0
0000
00M0
0000
10M0
0000
01M0
0000
10M0
0000
0000
1000
,  // measure 83
0001
0000
0010
0000
0100
0000
0000
0100
1000
0000
0001
0100
0001
0000
0000
0001
,  // measure 84
1000
0000
0010
0000
0100
0000
0000
0100
0010
1000
0001
0000
0100
0000
0000
0000
,  // measure 85
00M0
00M0
00M0
00M0
00M0
00M0
10M0
0100
,  // measure 86
1000
0000
0000
1000
0001
0000
0010
0000
0100
0000
0000
0100
1000
0000
0001
0100
,  // measure 87
0001
0000
0000
0001
1000
0000
0010
0000
0100
0000
0000
0100
0010
1000
0001
0000
,  // measure 88
1000
0000
0000
1000
0100
0000
1000
0000
0010
0000
0000
0010
0100
0000
0010
1000
,  // measure 89
0001
0000
0000
0001
0010
0000
0001
0000
2000
0000
3002
0000
0023
0000
0230
0000
,  // measure 90
1300
0000
0100
1000
0001
0000
1000
0000
0001
0000
0100
0001
1000
0000
0001
0000
,  // measure 91
1000
0000
0010
1000
0100
0000
0010
0000
0001
0000
0010
0001
0100
0000
0010
0000
,  // measure 92
1000
0000
0010
1000
0010
0000
0100
0001
0100
0000
0001
0010
0100
0000
1000
0001
,  // measure 93
0100
0000
0000
0100
0010
0000
0100
0000
0002
0000
0203
0000
0320
0000
2030
0000
,  // measure 94
3000
0000
0000
0000
;
