#TITLE:Born To Be Alive;
#SUBTITLE:;
#ARTIST:P. Hernandez & B. Thomas;
#TITLETRANSLIT:;
#SUBTITLETRANSLIT:;
#ARTISTTRANSLIT:;
#GENRE:;
#CREDIT:;
#MUSIC:Born to Be Alive.ogg;
#BANNER:bn.png;
#BACKGROUND:bg.png;
#CDTITLE:;
#SAMPLESTART:23.324;
#SAMPLELENGTH:15.002;
#SELECTABLE:YES;
#OFFSET:-0.173;
#BPMS:0.000=124.401;
#STOPS:;
#BGCHANGES:-1.500=Born To Be Alive.avi=1.000=0=0=0=StretchNoLoop====,
99999.000=-nosongbg-=1.000=0=0=0=StretchNoLoop====
;
#FGCHANGES:;

//--------------- dance-single - eataninja ----------------
#NOTES:
     dance-single:
     eataninja:
     Beginner:
     2:
     0,0,0,0,0:
0000
0000
0000
0000
,
0000
0000
0000
0000
,
0000
0000
0000
0000
,
0000
0000
0000
0000
,
1000
0000
0000
0000
,
0001
0000
0000
0000
,
0100
0100
0000
0000
,
0110
0000
0000
0000
,
1000
0000
0000
0000
,
0001
0000
0000
0000
,
0010
0010
0000
0000
,
0110
0000
0000
0000
,
1000
0000
0001
0000
,
1000
0000
1000
0000
,
0010
0000
0100
0000
,
0002
0000
0003
0000
,
1000
1000
0000
0000
,
0100
0100
0000
0000
,
0010
0010
0000
0000
,
0100
0000
0000
0000
,
2002
0000
3003
0000
,
2002
0000
3003
0000
,
2002
0000
3003
0000
,
1000
0000
0001
0000
,
0220
0000
0330
0000
,
0220
0000
0330
0000
,
0220
0000
0330
0000
,
1000
0000
0001
0000
,
0020
0000
0030
0000
,
0100
0100
0100
0000
,
1000
0000
0001
0000
,
1000
0000
0010
0000
,
0100
0000
0010
0000
,
0200
0000
0300
0000
,
0001
0001
0000
0000
,
1000
1000
0000
0000
,
0100
0100
0000
0000
,
0010
0000
0000
0000
,
0100
0000
1000
0000
,
0001
0000
1000
0000
,
0010
0000
0010
0000
,
0100
0000
0000
0000
,
0001
0001
0000
0000
,
1000
1000
0000
0000
,
0100
0100
0000
0000
,
1000
0000
0000
0000
,
0001
0001
0001
0000
,
1000
1000
1000
0000
,
0010
0000
0100
0000
,
0001
0000
0000
0000
,
1000
1000
0000
0000
,
0001
0001
0000
0000
,
0010
0010
0000
0000
,
1001
0000
0000
0000
;

//--------------- dance-single - eataninja ----------------
#NOTES:
     dance-single:
     eataninja:
     Easy:
     5:
     0,0,0,0,0:
0000
0000
0000
0000
,
0000
0000
0000
0000
,
0000
0000
0000
0000
,
0000
0000
0000
0000
,
1000
1000
0001
0001
,
0010
1000
0010
0001
,
0100
0100
0100
0000
,
0020
0000
0130
0000
,
0001
0001
1000
0100
,
0010
0001
1000
0010
,
0100
0100
0100
0000
,
2002
3003
0000
0000
,
0001
1000
0100
0000
,
1000
0001
0100
0000
,
0010
0000
0100
0001
,
0020
0000
0030
0000
,
0001
0110
0000
0000
,
0100
1001
0000
0000
,
1000
0110
0010
0001
,
0100
0100
0100
0100
,
0010
1000
0100
0000
,
0001
0100
1000
0000
,
0010
0100
0001
0000
,
1000
1000
0001
0001
,
0010
0001
0100
0000
,
1000
0100
0001
0000
,
0010
0100
1000
0000
,
0001
0001
1000
1000
,
0010
0010
0200
0000
,
0001
0001
0001
0301
,
1000
1001
0010
0100
,
1000
0001
0100
0100
,
0010
0000
0001
0010
,
1000
0001
0010
0100
,
1000
0110
0010
0000
,
0010
1001
1000
0000
,
0001
0110
0100
0010
,
1000
1000
0001
0000
,
1000
1001
0010
0100
,
0001
1000
0100
0100
,
0010
0000
0100
0001
,
0100
0010
0001
1000
,
0010
1001
1000
0000
,
0100
1001
0001
0000
,
1000
0110
0001
1000
,
0100
0100
0100
0100
,
0010
0001
0100
0000
,
0010
1000
0100
0000
,
0010
0100
1000
1000
,
0001
0001
0100
0010
,
1000
1010
0001
0000
,
0010
0011
1000
0000
,
0001
1001
0100
0010
,
1000
0002
0000
0000
0000
0000
0003
0000
;

//--------------- dance-single - eataninja ----------------
#NOTES:
     dance-single:
     eataninja:
     Medium:
     8:
     0,0,0,0,0:
0000
0000
0000
0000
,
0000
0000
0000
0000
,
0000
0000
0000
0000
,
0000
0000
0000
0000
,
1000
0000
1000
0000
0100
0001
0100
0000
,
0010
0001
0010
0000
0001
1000
0010
0000
,
0100
0000
0000
0100
0000
0000
0100
0000
0000
0000
0000
0000
0000
0000
0000
0000
,
1001
0000
0010
0000
0100
0010
1000
0000
,
0001
1000
0001
0000
0010
1000
0010
0000
,
0100
1000
0001
0000
1000
0010
0100
0000
,
0010
0000
0000
0010
0000
0000
0010
0000
0000
0000
1001
0000
0000
0000
0000
0000
,
1000
0100
1000
0000
0001
0010
0100
1000
,
0010
0000
0110
0000
0100
0001
1000
0000
,
0100
0000
0110
0000
0010
0001
1000
0001
,
0100
0000
0000
0000
0001
0100
1000
0100
,
0002
0000
0003
0000
0010
0100
1000
0001
,
0100
0000
0101
0000
1000
1000
1000
0000
,
0010
0000
1010
0000
0001
0001
0001
0000
,
0010
0000
0011
0000
1000
0100
0010
0001
,
1000
1000
0001
0100
,
2000
0000
3100
0001
0000
0101
0000
0100
,
2000
0000
3100
0001
0000
0011
0000
0010
,
2000
0000
3010
0001
0000
1000
0010
0000
,
0100
0000
0010
1000
0100
0000
0000
0000
,
0002
0000
0103
1000
0000
1100
0000
0100
,
0002
0000
0103
1000
0000
1010
0000
0010
,
0002
0000
0013
1000
0000
0001
0010
0000
,
0100
0000
0010
0001
0100
0000
0000
0000
,
0010
0010
0100
0100
,
0001
1000
0001
1000
0100
1000
0100
1000
,
0010
0100
0001
0000
1000
0000
1100
0000
,
0001
1000
0010
0000
0100
0100
0010
0010
,
1000
0000
0000
0000
0001
0010
1000
0010
,
0002
0000
2003
0000
3010
0100
0001
0000
,
1000
0000
1100
0000
0001
0001
1000
0000
,
0010
0000
1010
0000
0001
0001
1000
0000
,
0100
0000
0110
0000
0001
1000
0001
0000
,
0100
0010
0100
0010
1000
0001
0010
0000
,
0100
1000
0001
0000
0100
0000
0110
0000
,
1000
0001
0010
0000
0100
0100
0010
0010
,
0001
0000
0000
0000
1000
0010
0001
0010
,
2000
0000
3020
0000
0130
0001
1000
0000
,
0001
0000
0011
0000
1000
1000
0001
0000
,
0100
0000
0101
0000
1000
1000
0001
0000
,
0010
0000
0110
0000
1000
0001
1000
0000
,
0010
0100
0001
0100
0010
1000
0001
0000
,
1000
0100
0001
0100
0010
0000
0000
0000
,
0001
0100
1000
0100
0010
0000
0000
0000
,
1000
0000
1001
0000
0010
0100
1000
0000
,
0001
0100
0001
0000
1000
0100
1000
0000
,
0001
0000
0101
0000
1000
0001
0010
0000
,
0100
0000
1100
0000
0001
1000
0010
0000
,
0100
0000
1001
0000
0001
1000
0001
1000
,
0100
0020
0000
0000
0000
0000
0030
0000
;

//--------------- dance-single - eataninja ----------------
#NOTES:
     dance-single:
     eataninja:
     Hard:
     14:
     0,0,0,0,0:
0000
0000
0000
0000
,
0000
0000
0000
0000
,
0000
0000
0000
0000
,
0000
0000
0000
0000
,
1000
0000
0001
0000
1000
0000
0100
0002
0000
0000
0103
0000
0010
0000
0001
0000
,
1000
0000
0010
0000
0100
0000
0010
2000
0000
0000
3001
0000
0010
0000
0100
0000
,
1100
0000
0000
1001
0000
0000
0101
0000
0000
0000
1000
0000
0001
0000
0100
0000
,
1000
0000
0100
0000
0001
0000
1000
0100
0000
0010
0000
0100
1000
0000
0010
0000
,
0100
0000
0001
0000
0001
0000
0010
2000
0000
0000
3010
0000
0100
0000
1000
0000
,
0001
0000
0100
0000
0010
0000
0100
0002
0000
0000
1003
0000
0100
0000
0010
0000
,
0011
0000
0000
1001
0000
0000
1010
0000
0000
0000
0110
0000
0000
0000
0100
0000
,
0001
1000
0100
1000
0001
0000
0000
0000
0010
0001
0010
0001
1000
0001
1000
0001
,
0100
0000
0010
0000
1001
0000
0000
0000
1000
0000
0001
0010
0000
0010
0100
0000
,
1000
0001
0101
0000
1000
0010
0001
0010
,
1000
0000
0001
0020
0100
0130
0001
0100
,
1000
0001
0100
0000
0010
1000
0001
0001
,
0010
0000
0100
0000
1001
0000
0000
0000
0001
0000
0100
0010
0000
0010
1000
0000
,
0001
0000
0010
0000
1001
0000
0000
0000
1000
0000
0100
0010
0000
0010
0001
0000
,
1000
0000
0010
0000
1001
0000
0000
0000
1000
0010
0100
0001
0010
0100
0010
0001
,
1000
0010
1000
0000
0001
0100
0001
0000
1000
0100
1000
0100
0010
0001
0010
0001
,
0200
0000
0301
1000
0010
0110
0100
0001
,
0020
0000
0031
1000
0100
1100
0001
1000
,
0020
0000
0000
0000
0130
0000
0001
0000
0000
0000
1000
0100
1000
0001
0010
0000
,
0000
0000
0001
0000
1000
0010
1000
0001
0010
0100
1000
0000
0001
0000
0001
0000
,
0200
0000
0310
1000
0001
0011
0010
0001
,
0200
0000
0310
1000
0100
1100
0001
1000
,
0020
0000
0000
0000
0130
0000
0001
0000
0000
0000
1000
0010
1000
0001
0010
0000
,
0000
0000
0100
0000
0010
0001
1000
0010
0100
0010
1000
0000
0001
0000
0001
0000
,
1000
0000
0000
1000
0100
0000
0000
0100
0010
0000
0000
0010
0001
0000
0000
0001
,
1000
0010
1000
0010
0100
0010
0100
0010
0100
0001
0100
0001
1000
0100
0010
0001
,
1000
0000
0010
0000
1000
0001
0000
0001
0010
0000
0100
0010
0000
0100
1000
0000
,
0001
0000
1000
0000
0010
0100
0000
0100
0001
0000
1000
0100
0000
0001
0100
0000
,
0010
0000
0001
1000
0001
0000
1000
0010
0100
0000
0100
0000
1000
0000
0100
0000
,
0001
0020
0000
0130
0001
0100
1000
0001
,
0100
0000
0010
0000
1000
0001
0000
0100
1000
0000
0100
0010
0000
0100
0001
0000
,
0010
0000
0100
0000
1000
0001
0000
1000
0010
0000
0001
0010
0000
0100
0010
0000
,
1000
0000
0001
0000
0010
0100
0000
0100
1000
0001
1000
0010
0100
0001
0010
0100
,
1000
0100
1000
0000
0001
0100
0001
0000
1000
0001
1000
0001
0010
0100
1000
0001
,
0100
0000
1000
0000
0100
0001
0000
0100
0010
0000
1000
0001
0000
0010
0100
0000
,
0010
0000
1000
0000
0010
0001
0000
0010
0100
0000
1000
0001
0000
0100
0010
0000
,
1000
1000
0010
0002
0000
0013
0100
0001
,
0010
0000
1000
0000
0010
0100
0010
0000
0001
0000
1000
0010
0000
0100
0010
0000
,
1000
0000
0001
0000
0010
0100
0000
0010
1000
0000
0001
0100
0000
0010
0001
0000
,
1000
0000
0001
0000
0100
1000
0000
0001
0010
0000
0100
0001
0000
1000
0100
0000
,
0010
0000
0001
0000
1000
0010
0000
0010
0100
0001
1000
0001
0010
0100
1000
0001
,
0100
0010
0100
0000
0001
1000
0001
0000
1000
0100
1000
0001
0100
0010
1000
0100
,
0010
0000
0001
0000
1001
0000
1000
0010
0000
0100
0010
0100
0001
0000
1000
0000
,
0001
0000
0100
0000
0110
0000
0010
1000
0000
0001
0010
0100
1000
0000
0001
0000
,
0100
0000
1000
0000
0100
0000
0001
0000
0010
0000
0100
0010
0000
0010
0001
0000
,
1000
0000
0100
0000
0001
0000
0100
0000
0010
0000
0001
1000
0000
1000
0010
0000
,
0100
0000
0001
0000
1000
0100
0000
1000
0001
0000
0100
0010
0100
0001
1000
0000
,
0100
0000
0010
0000
0001
1000
0000
0010
0100
0000
0001
1000
0001
0010
0100
0000
,
1000
0000
0001
0000
0100
1000
0000
0100
0010
0000
0100
0001
1000
0100
0010
0001
,
0100
2002
0000
0000
0000
0000
3003
0000
;
