#TITLE:BloodyMare;
#SUBTITLE:;
#ARTIST:Tatsh Assault X;
#TITLETRANSLIT:;
#SUBTITLETRANSLIT:;
#ARTISTTRANSLIT:;
#GENRE:;
#CREDIT:;
#MUSIC:BloodyMare.ogg;
#BANNER:;
#BACKGROUND:;
#CDTITLE:;
#SAMPLESTART:78.982;
#SAMPLELENGTH:15.000;
#SELECTABLE:YES;
#OFFSET:-0.100;
#BPMS:0.000=170.000
,75.000=85.000
,90.500=170.000
;
#STOPS:;
#BGCHANGES:;
#FGCHANGES:;

//--------------- dance-single - eataninja ----------------
#NOTES:
     dance-single:
     eataninja:
     Beginner:
     6:
     0,0,0,0,0:
0000
0000
0000
0000
,
0000
0000
0000
0000
,
0000
0000
0000
0000
,
0001
0001
0001
0000
,
1000
0000
1000
0000
1000
0000
0000
0010
,
0000
0010
0000
0010
0000
0000
0000
0100
,
0000
0100
0000
0100
0000
0000
0001
0000
,
0001
0001
0000
1000
,
1000
1000
0000
0100
,
0100
0100
0000
1000
,
1000
0001
0001
0100
,
0100
0000
0100
0000
0000
0010
0000
0000
,
0000
1000
0000
1000
0000
1000
0000
0000
,
0000
0001
0000
0001
0000
0001
0000
1000
,
0000
0000
0100
0100
,
0000
1000
1000
1000
,
0001
0001
0000
0100
,
0100
0010
0010
1000
,
1000
0001
0001
0020
,
0030
0200
0300
2000
,
3000
0000
0001
0000
0000
2000
0000
3000
,
0000
0020
0000
0030
0000
0200
0000
0300
,
0000
0002
0000
0003
0000
1000
0000
0001
,
0000
1000
0000
0000
0000
0001
0000
0100
,
0000
0100
0000
0000
0000
0001
0000
1000
,
0000
0001
0000
0000
0000
1000
0000
0000
,
0000
0100
0000
0010
0000
0001
0000
1000
,
0000
1000
0000
0000
0000
0001
0000
0100
,
0000
0001
0000
0000
0000
0001
0000
1000
,
0000
1000
0000
0000
0000
0100
0000
0010
,
0000
0001
0000
0000
0000
1000
0000
0000
,
0000
0000
0000
1001
0000
0000
0000
0000
,
0000
0010
0000
0000
0000
0000
0000
0110
,
0000
0000
0000
0000
0000
0001
0000
0001
,
0000
0001
0000
1001
0000
0000
0000
0000
,
0000
0010
0000
0000
0000
0000
0000
0110
,
0000
0100
0000
0000
0000
1000
0000
0000
,
0000
0000
0000
1001
0000
0001
0000
0000
,
0000
0100
0000
0000
0000
0000
0000
0110
,
0000
0100
0000
0000
0000
0001
0000
0000
,
0000
0000
0000
1001
0000
1000
0000
0000
,
0000
0100
0000
0000
0000
0000
0000
0010
,
0000
0100
0000
0010
0000
0001
0000
1000
,
0000
0000
0000
0010
0000
0000
0000
0100
,
0000
0100
0000
0100
0000
0001
0000
0000
,
0000
1000
0000
0000
0100
0000
0100
0000
,
0000
0010
0000
0001
,
0000
1000
1000
1000
,
0000
0010
0010
0000
,
0000
0100
0000
0100
0000
0000
0000
0000
,
0001
0001
0001
0000
,
1000
1000
0001
0001
,
0010
0100
1000
0000
,
0010
0100
0001
0000
,
1000
0010
1000
0000
,
0001
0010
0100
0000
,
0010
0001
1000
0000
,
0010
0100
0100
0000
,
0001
1000
1000
0000
,
0100
0010
0100
1000
,
0001
0100
0010
0000
,
1000
0001
0010
0000
,
0100
0010
0001
0000
,
1000
0010
1000
0000
,
0010
0100
0010
0000
,
1000
0001
1000
0000
,
0001
0010
0001
0000
,
0010
0100
1000
0000
,
0001
0001
1000
1000
,
0010
0010
0100
0100
,
0001
0000
0000
0000
,
0000
0000
MMM0
M00M
M00M
MMM0
M00M
M00M
,
MMM0
0000
MMM0
M00M
M00M
MMM0
M00M
M00M
,
M00M
0000
MMM0
000M
000M
0MMM
M000
M000
,
MMMM
0000
0MM0
M00M
M00M
M00M
M00M
M00M
,
0MM0
0000
MMM0
000M
000M
0MMM
M000
M000
,
MMMM
0000
MMM0
000M
000M
MMM0
000M
000M
,
MMM0
0000
0000
0000
;

//--------------- dance-single - eataninja ----------------
#NOTES:
     dance-single:
     eataninja:
     Easy:
     10:
     0,0,0,0,0:
0000
0000
0000
0000
,
0000
0000
0000
0000
,
0000
0000
0000
0000
,
1000
0000
0010
0000
0100
0000
0001
0001
,
0001
0000
0010
0000
0100
0000
0010
0001
,
0000
1000
0000
0010
0010
0100
0100
0100
,
0000
0001
0001
0001
0000
1000
0100
0000
,
0001
0000
0100
0000
1000
1000
1000
0000
,
0010
0000
0100
0000
0001
0001
0001
0000
,
1000
0000
0100
0100
0010
0010
0002
0000
,
2003
3020
0230
1300
,
0100
0000
0001
0000
1000
0100
0000
0010
,
0000
0001
0000
1000
1000
1000
0000
0010
,
0000
0100
0100
0100
0000
0010
0000
1000
,
0000
0100
0000
0001
0100
0000
0010
0000
,
0001
0000
1000
0000
0010
0010
0010
0000
,
0100
0000
0001
0001
0001
0000
1000
0100
,
1000
0000
0001
0010
0001
0000
1000
0010
,
1000
0000
0001
0100
0001
0000
0020
0000
,
0100
0001
0130
2000
,
0010
0000
0001
0000
0100
3002
0000
0010
,
0000
1000
0000
0103
0000
0020
0000
1000
,
0000
0001
0000
0130
0000
0010
0100
0001
,
0000
0100
0000
0110
0000
0010
1000
0001
,
0000
0010
0000
0110
0000
0100
0010
0001
,
0000
1000
0000
1001
0000
0001
0100
1000
,
0000
0100
0010
1000
0000
0100
0010
0001
,
0000
0100
0000
0110
0000
0010
1000
0001
,
0000
0010
0000
0110
0000
0100
0010
0001
,
0000
1000
0000
1001
0000
0001
0010
1000
,
0000
0010
0000
0110
0000
1000
0001
1000
,
0000
0010
0000
0001
0010
0100
0000
0010
,
0000
1000
0001
0010
0000
0100
0000
0001
,
0100
1000
0000
0010
0000
0100
0010
1000
,
0000
0001
0000
0010
0100
0001
0000
0100
,
0000
0010
0001
1000
0000
0010
0000
0100
,
1000
0100
0000
0001
0000
1000
0100
1000
,
0100
0010
0000
0001
1000
0001
1000
0010
,
0000
0100
0010
0100
0010
1000
0000
0001
,
0010
0100
1000
0001
0000
1000
0010
0001
,
0010
0001
0000
0010
1000
0001
1000
0001
,
0000
0010
1000
0010
0100
0010
0000
0001
,
1000
0010
0100
0001
0000
1000
0000
0200
,
0000
0000
0320
0000
0000
0031
0000
1000
,
0010
1000
0010
0100
0000
0001
0000
1000
,
0000
0100
0000
0010
0001
0000
1000
0000
,
0010
0000
0100
1000
0100
0000
0010
0010
,
0010
0000
1000
0000
0001
0001
0010
0000
,
0100
1000
0010
0100
,
0010
1000
0000
0001
0000
0010
0000
0100
,
1000
0000
0001
0000
0100
0100
0100
0000
,
0010
1000
0010
0000
1000
0001
1000
0000
,
0100
0010
0001
1000
,
0010
0000
0000
0100
0000
0000
0002
0000
0000
0000
0000
0000
1003
0000
0000
0000
,
0100
0001
0100
1000
,
0010
0000
0000
0100
0000
0000
0020
0000
0000
0000
1000
0000
1030
0000
0000
0000
,
0001
0010
0100
1000
,
0001
0000
0000
0100
0000
0000
0002
0000
0000
0000
0000
0000
1003
0000
0000
0000
,
0001
0000
0000
0010
0000
0000
0200
0000
0000
0000
0000
0000
1300
0000
0000
0000
,
0001
0000
0100
1000
0100
0000
0010
0000
,
1000
0001
0010
0100
,
0010
0000
0000
0001
0000
0000
2000
0000
0000
0000
0000
0000
3010
0000
0000
0000
,
0100
1000
0100
0001
,
1000
0100
1000
0000
0100
0010
0001
0000
,
1000
0010
1000
0000
0001
0100
0010
0000
,
1000
0010
0001
0000
0010
0100
0001
0000
,
1000
0100
0001
0000
0100
0010
0001
0000
,
2000
3002
0203
0310
,
1000
0001
1000
0001
0010
0100
1000
0000
,
0001
0100
0001
0100
0010
1000
0100
0000
,
0010
0001
0010
0001
0100
0010
1000
0000
,
0001
0000
MMM0
M00M
M00M
MMM0
M00M
M00M
,
MMM0
0000
MMM0
M00M
M00M
MMM0
M00M
M00M
,
M00M
0000
MMM0
000M
000M
0MMM
M000
M000
,
MMMM
0000
0MM0
M00M
M00M
M00M
M00M
M00M
,
0MM0
0000
MMM0
000M
000M
0MMM
M000
M000
,
MMMM
0000
MMM0
000M
000M
MMM0
000M
000M
,
MMM0
0000
0000
0000
;

//--------------- dance-single - eataninja ----------------
#NOTES:
     dance-single:
     eataninja:
     Medium:
     13:
     0,0,0,0,0:
0000
0000
0000
0000
,
0000
0000
0000
0000
,
0000
0000
0000
0000
,
1001
0000
0001
0000
1000
0010
0100
0100
,
0001
0000
0010
0100
1000
0001
0100
0100
,
0000
0010
0100
0001
0010
1000
0010
0010
,
0000
0100
1000
0001
0000
0100
0110
0000
,
1001
0000
0001
0100
1000
0100
0010
0000
,
1000
0001
0010
0000
0100
0100
0100
0000
,
1000
0001
0100
0100
0010
0010
1000
0001
,
1000
0001
0010
0100
1000
0010
1001
0000
,
0001
0100
1000
0100
0010
1000
0100
0010
,
0000
1001
0000
0001
0010
1000
0010
0001
,
0000
1000
0010
0100
0000
0001
0010
0011
,
0000
1000
0010
0100
1001
0000
0001
0010
,
0100
1000
0010
0000
0100
0100
0010
0000
,
1000
0001
0010
0010
0100
0100
1000
0001
,
1000
0001
0100
0010
1000
0001
0010
0100
,
0010
0000
0100
0000
1000
0000
0001
0000
0100
0000
0010
0000
2000
0000
0000
0010
,
0000
0000
0001
0000
0100
0000
0000
0010
0000
0000
0100
0000
3200
0000
0000
1000
,
0000
0000
0010
0000
1000
0000
0000
0001
0000
0000
0320
0000
0000
1000
0000
0000
,
0100
0000
0001
0000
0000
0100
0000
0000
0001
0000
0032
0000
0000
1000
0000
0000
,
0010
0000
0103
0001
0000
0010
0000
0100
1000
0000
0001
0000
0100
0000
0010
0000
,
0100
0000
0001
0000
0000
1000
0000
0000
1000
0000
0100
0000
0010
0000
0001
0000
,
0001
0000
1000
0000
0000
0010
0000
0000
0010
0000
0100
0000
0001
0000
1000
0000
,
0100
0000
0010
0000
0000
0001
0000
0000
0001
0000
1000
0000
0010
0000
0100
0000
,
0100
1000
0100
0001
0010
0100
1000
0001
,
0100
0000
0100
0000
0000
0010
0000
0000
0010
0000
0100
0000
0001
0000
1000
0000
,
0100
0000
1000
0000
0000
0010
0000
0000
0010
0000
1000
0000
0001
0000
0010
0000
,
0100
0000
0100
0000
0000
1000
0000
0000
1000
0000
0001
0000
0010
0000
0100
0000
,
1000
0000
0010
0000
0000
0010
0000
0000
0010
0000
1001
0000
0001
0000
0010
0000
,
0100
1000
0000
1001
1000
0010
0100
0001
,
0000
0101
1000
0001
0010
0100
0000
1100
,
0001
1000
0010
0100
0000
0110
0010
0001
,
0010
1000
0000
1001
0001
1000
0010
0100
,
0000
0110
0100
1000
0100
0001
0000
1001
,
1000
0100
0001
0100
1000
0010
0100
0010
,
1000
0001
0010
0100
0001
1000
0010
0100
,
0000
1000
0001
0100
1000
0100
0010
1000
,
0001
0010
0100
1000
0000
0001
1000
0010
,
0001
1000
0100
0010
1000
0001
0010
0100
,
0000
1000
0001
0100
1000
0100
0010
1000
,
1000
0001
0001
0010
0010
0100
1000
0100
,
1000
0001
0100
0001
0100
0010
1000
0001
,
0010
0100
1000
0010
0100
1001
0000
0001
,
0100
1000
0100
0010
1001
0000
1000
0100
,
0010
0000
0011
1000
0010
0100
0001
1000
,
0100
0000
1000
0001
0100
0100
0010
1000
,
0100
0010
1001
0000
0001
0100
0010
1000
,
0001
0010
0000
0100
0010
0001
1000
0010
,
0100
0001
0100
0001
1000
0010
1000
0010
,
0100
0001
1000
0100
0010
0001
1000
0010
,
0100
0000
0000
0001
0000
0000
2000
0000
0000
0000
3100
0000
0010
0000
0001
0000
,
0100
0000
0000
0010
0000
0000
0200
0000
0000
0000
0010
0000
0000
0000
0301
0000
,
1000
0000
0000
0100
0000
0000
0002
0000
0000
0000
0103
0000
0010
0000
0001
0000
,
1000
0000
0000
0010
0000
0000
0200
0000
0000
0000
0002
0000
0000
0000
0303
0000
,
0001
0000
0000
0010
0000
0000
0200
0000
0000
0000
1300
0000
0001
0000
1000
0000
,
0010
0000
0000
0100
0000
0000
2000
0000
0000
0000
3100
0000
0010
0000
1000
0000
,
0001
0000
0000
0010
0000
0000
0200
0000
0000
0000
1300
0000
0001
0000
0001
0000
,
0200
1000
0010
0301
,
1000
0000
0000
0100
0000
0000
0020
0000
0000
0000
0031
0000
1000
0000
0010
0000
,
0100
0000
0000
0010
0000
0000
2000
0000
0000
0000
0010
0000
0000
0000
3001
0000
,
1000
0000
0000
0100
0000
0000
0002
0000
0000
0000
0103
0000
0010
0000
0001
0000
,
1000
0010
0100
0010
1000
0001
0010
0000
,
0100
0010
0001
1000
0010
0100
1000
0000
,
0100
0010
1000
0001
0010
1000
0010
0100
,
1000
0001
0100
0010
0001
0010
1000
0000
,
0001
0000
0000
0010
0000
0000
0200
0000
0000
0000
0000
1000
0000
0000
0310
0000
,
0001
1000
0010
0001
1000
0100
0010
1000
,
0001
0010
0100
1000
0001
0100
0010
1000
,
0100
0001
0100
1000
0010
0001
0010
1000
,
0001
0000
MMM0
M00M
M00M
MMM0
M00M
M00M
,
MMM0
0000
MMM0
M00M
M00M
MMM0
M00M
M00M
,
M00M
0000
MMM0
000M
000M
0MMM
M000
M000
,
MMMM
0000
0MM0
M00M
M00M
M00M
M00M
M00M
,
0MM0
0000
MMM0
000M
000M
0MMM
M000
M000
,
MMMM
0000
MMM0
000M
000M
MMM0
000M
000M
,
MMM0
0000
0000
0000
;

//--------------- dance-single - eataninja ----------------
#NOTES:
     dance-single:
     eataninja:
     Hard:
     16:
     0,0,0,0,0:
0000
0000
0000
0000
,
0000
0000
0000
0000
,
0000
0000
0000
0000
,
1000
0000
0000
1000
0010
0000
0000
0010
0100
0000
0001
0000
1000
0000
1000
0000
,
0001
0000
0000
0001
0010
0000
0000
0010
0100
0000
1000
0001
1000
0000
0010
0000
,
0000
0010
0100
0000
0000
0100
0001
0000
1000
0000
0100
0000
0100
0000
0100
0000
,
0000
0100
0010
0000
0001
1000
0001
0000
0100
0000
0010
0000
1001
0000
0000
0001
,
0010
0000
0000
0010
0100
0000
1000
0000
0001
0000
0001
0000
0001
0000
0000
0001
,
0100
0000
0000
0100
0010
0000
1000
0010
1000
0000
0001
0000
0001
0000
0000
0001
,
0010
0000
0000
0010
0100
0000
1000
0000
0010
0000
0010
0000
0100
0001
0100
0001
,
1000
0000
0000
0010
0000
0000
1000
0000
0000
0010
0000
0000
0100
0000
0000
0000
0001
0000
0000
0000
1000
0000
0000
0000
0100
0000
0000
0000
0010
0000
0000
0000
0001
0000
0000
0000
0100
0000
0000
0000
0000
0000
0000
0000
0000
0100
0000
0000
,
0001
0000
0000
0001
1000
0000
0010
0000
0010
0000
1000
0001
0010
0000
0100
0000
,
0010
0000
1001
0000
0000
1000
0010
0000
0100
0000
0100
0000
0001
0000
0001
0000
,
0010
0100
1000
0000
0001
0100
0010
0000
0100
0001
1000
0000
0100
0000
1001
0000
,
0000
1000
0100
0000
0010
0000
0010
0000
1001
0000
0000
0001
1000
0000
0000
1000
,
0010
0000
0000
0010
0100
0000
0001
1000
0100
0000
1000
0000
1000
0000
0001
0100
,
0010
0000
1000
0000
0001
0000
0010
0001
1000
0000
1000
0000
0100
0010
0100
0010
,
0001
0000
0000
1000
0000
0000
0001
0000
0000
1000
0000
0000
0010
0000
0000
0000
0100
0000
0000
0000
0001
0000
0000
0000
1000
0000
0000
0000
0100
0000
0000
0000
0010
0000
0000
0000
0001
0000
0000
1000
0000
0000
0001
0000
0000
1000
0000
0000
,
0010
0000
0000
0100
0000
0000
0010
0000
0000
0100
0000
0000
0001
0000
0000
0000
1000
0000
0000
0000
0010
0000
0000
0000
0100
0000
0000
0000
0001
0000
0000
0000
0010
0000
0000
0000
0200
0000
0000
0000
0000
0000
0000
0000
0000
2300
0000
0000
,
0000
0000
3002
0000
0203
0000
0000
0320
0000
0000
0100
0000
0230
0000
0000
0302
,
0000
0000
2003
0000
3200
0000
0000
0310
0000
0000
1002
0000
0000
0023
0000
0000
,
0032
0000
2000
0003
0000
3020
0000
0000
0100
0000
0230
0000
0000
0302
0000
0000
,
2003
0000
3100
0010
0100
0002
0000
0103
2000
0000
3001
0000
1000
0000
0010
0000
,
0100
0000
0100
0000
0000
0101
0000
0000
1001
0000
1000
0000
0001
0000
0010
0000
,
0010
0000
0100
0000
0000
1100
0000
0000
1100
0000
1000
0000
0001
0000
0100
0000
,
0010
0000
0100
0000
0000
0101
0000
0000
0101
0000
0001
0000
1000
0000
0100
0000
,
0100
0000
0010
0001
1000
0010
0100
0001
0010
0100
1000
0000
0001
0000
0100
0000
,
0010
0000
0010
0000
0000
1010
0000
0000
1010
0000
0001
0000
1000
0000
0100
0000
,
0010
0000
0001
0000
0000
0011
0000
0000
1001
0000
1000
0000
0010
0000
0100
0000
,
0100
0000
0001
0000
0000
0101
0000
0000
0101
0000
1000
0001
1000
0100
0010
0001
,
1000
0000
0000
0010
0000
0000
0100
0000
0000
0000
0010
0000
0000
0000
0100
0000
0000
0000
0001
0000
0000
0000
1000
0000
0000
0000
0100
0000
0000
0000
0010
0000
0000
0000
0000
0000
0001
0000
0000
0000
0000
0000
1000
0000
0000
0000
0000
0000
,
0100
0001
1000
0010
0100
1000
0001
0100
,
0010
0001
0010
0100
0001
1000
0100
0010
,
0001
0000
1000
0010
0100
0001
1000
0000
0001
0010
0100
0000
0001
0000
0100
0000
,
0010
0001
1000
0000
0010
0100
0001
0000
1000
0000
0010
0000
0001
0010
0100
0000
,
0010
1000
0001
0010
0100
0001
1000
0010
,
0100
0000
1000
0001
1000
0010
0100
0000
0001
1000
0100
0000
0001
0000
0100
0000
,
0010
0001
1000
0010
0100
1000
0100
0010
,
1000
0000
0001
0000
0010
0000
1000
0000
0001
0000
0100
0000
0010
0001
1000
0000
,
0010
0100
0010
1000
0001
0010
0100
0001
,
1000
0000
0010
0000
0100
1000
0100
0000
1000
0000
0010
0000
0100
0000
1000
0000
,
0001
0000
0010
0000
0100
0000
0001
0000
1000
0000
0100
0000
0010
0100
0001
0000
,
0100
0010
0001
2000
0000
3001
1000
0010
,
0100
0000
0000
0000
0000
0000
0001
0000
0000
0000
0010
0000
0000
0000
0001
0000
0000
0000
1000
0000
0000
0000
0100
0000
0000
0000
1000
0000
0000
0000
0001
0000
0000
0100
0000
0000
0010
0000
0000
0100
0000
0000
0001
0000
0000
1000
0000
0000
,
0100
0010
0001
1000
0100
1000
0001
0100
0010
1000
0001
0000
0000
0001
1000
0000
,
0010
0100
0010
0000
1000
0001
0010
0000
0110
0000
0000
0100
1000
0000
0001
0100
,
0001
0000
1000
0000
1010
0000
0001
0000
0010
0000
0100
0010
0001
0000
1000
0010
,
0100
0000
0100
0000
0001
0000
1000
0000
0100
0000
0100
0000
0010
0000
0001
1000
,
0010
0000
0100
0010
1000
0000
0000
1000
0001
0000
0010
0100
0010
0000
0001
1000
,
0100
0000
0110
0000
0000
0100
0010
0000
0000
0010
0001
0000
1000
0010
0100
0000
,
0100
0000
0000
0000
0000
0000
0000
0000
0000
0100
0000
0000
0001
0000
0000
0000
0000
0000
0000
0000
0000
0001
0000
0000
1000
0000
0000
0000
0100
0000
0000
0000
1000
0000
0000
0000
0001
0000
0000
0000
0010
0000
0000
0000
0001
0000
0000
0000
,
1000
0010
1000
0010
0100
0010
1000
0001
0010
0001
0010
0001
1000
0100
0010
0001
,
1000
0000
0000
0010
0000
0000
0002
0000
0000
0000
0013
0000
0100
0000
0001
0000
,
1000
0000
0100
0010
0000
0100
2000
0000
0000
0000
3001
0000
1000
0000
0010
0100
,
1000
0000
0100
0010
0000
0100
0002
0000
0000
0000
1003
0000
0100
0010
0001
1000
,
0010
0000
0000
0100
0000
0000
0002
0000
0000
0000
1000
0000
1003
0000
0000
0000
,
0001
0000
0000
0010
0000
0000
2000
0000
0000
0000
3010
0000
0100
0000
1000
0000
,
0001
0000
1000
0010
0000
0100
0020
0000
0000
0000
1030
0001
1000
0100
0010
0001
,
0010
0000
0000
0001
0000
0000
0200
0000
0000
0000
0310
1000
0001
1000
0010
0100
,
2000
0000
0000
0000
3100
0000
0001
0000
1000
0000
0000
1000
0100
0000
0000
0100
,
0010
0000
0000
0001
0000
0000
0200
0000
0000
0000
1300
0000
0100
0000
0001
0000
,
1000
0000
0100
0010
0000
0100
0002
0000
0000
0000
0103
0000
0010
0000
0001
0000
,
0100
0000
0000
0010
0000
0000
2000
0000
0000
0000
3001
0000
1000
0000
0100
0000
,
0010
0001
1000
0010
0001
0010
0100
0001
,
1000
0100
0010
0001
0100
1000
0100
0001
,
1000
0100
1000
0000
0100
0000
0010
0000
1000
0000
0001
0000
0100
0000
1000
0000
,
0001
0100
0001
0000
1000
0000
0010
0000
0001
0000
1000
0000
0100
0000
0010
0000
,
1000
0001
1000
0001
0010
0000
0200
0000
0000
0000
0310
0000
0001
0000
1000
0000
,
0010
0100
1000
0001
0010
0100
0001
1000
,
0001
0010
0001
1000
0010
0100
0001
1000
0001
0010
0100
1000
0001
0100
0010
1000
,
0001
0100
0010
0100
1000
0100
0010
0100
0001
1000
0100
0010
0001
0100
0010
1000
,
0100
0000
MMM0
M00M
M00M
MMM0
M00M
M00M
,
MMM0
0000
MMM0
M00M
M00M
MMM0
M00M
M00M
,
M00M
0000
MMM0
000M
000M
0MMM
M000
M000
,
MMMM
0000
0MM0
M00M
M00M
M00M
M00M
M00M
,
0MM0
0000
MMM0
000M
000M
0MMM
M000
M000
,
MMMM
0000
MMM0
000M
000M
MMM0
000M
000M
,
MMM0
0000
0000
0000
;
