#VERSION:0.83;
#TITLE:Believer;
#SUBTITLE:;
#ARTIST:Myrath;
#TITLETRANSLIT:;
#SUBTITLETRANSLIT:;
#ARTISTTRANSLIT:;
#GENRE:;
#ORIGIN:;
#CREDIT:;
#BANNER:banner.png;
#BACKGROUND:bg.png;
#PREVIEWVID:;
#JACKET:jacket.png;
#CDIMAGE:;
#DISCIMAGE:;
#LYRICSPATH:;
#CDTITLE:;
#MUSIC:Believer.ogg;
#OFFSET:-0.101000;
#SAMPLESTART:58.695000;
#SAMPLELENGTH:20.000000;
#SELECTABLE:YES;
#BPMS:0.000=96.000;
#STOPS:;
#DELAYS:;
#WARPS:;
#TIMESIGNATURES:0.000=4=4;
#TICKCOUNTS:0.000=4;
#COMBOS:0.000=1;
#SPEEDS:0.000=1.000=0.000=0;
#SCROLLS:0.000=1.000;
#FAKES:;
#LABELS:0.000=Song Start;
#BGCHANGES:;
#KEYSOUNDS:;
#ATTACKS:
;

//---------------dance-single - BU FS XO----------------
#NOTEDATA:;
#CHARTNAME:;
#STEPSTYPE:dance-single;
#DESCRIPTION:BU FS XO;
#CHARTSTYLE:;
#DIFFICULTY:Challenge;
#METER:15;
#RADARVALUES:0.608532,0.595401,0.054876,0.548757,0.987763,621.000000,613.000000,8.000000,80.000000,14.000000,0.000000,0.000000,0.000000,0.000000,0.608532,0.595401,0.054876,0.548757,0.987763,621.000000,613.000000,8.000000,80.000000,14.000000,0.000000,0.000000,0.000000,0.000000;
#CREDIT:Kingly;
#NOTES:
0000
0000
0000
0000
,
0000
0000
0000
0000
,
1000
0001
0000
1000
0010
1000
0100
0000
0010
0001
0000
1000
0001
0100
1000
0000
,
0100
0001
0000
1000
0010
1000
0100
0000
1000
0010
0M00
0010
0001
0100
0001
1000
,
0100
1000
0000
0001
0010
0001
0100
0000
0010
1000
0000
0001
1000
0100
0001
0000
,
0100
1000
0000
0001
0010
0001
0100
0000
0010
0000
1000
0001
0010
0000
0100
1000
,
0002
0000
0000
0000
0000
0000
1003
0010
0200
0000
0000
1300
0100
0010
0100
0001
,
2000
0000
0000
0000
0000
0000
0000
0000
0000
0000
0000
0000
0000
0000
0000
0000
3100
0000
0010
0001
0010
0000
0100
0000
1000
0000
0001
0000
1000
0000
0010
0000
,
0100
0000
0001
0000
0100
0000
1000
0000
0100
0000
0010
1000
0010
0000
0100
0000
0002
0000
0000
0000
0000
0000
1003
0000
0100
0000
00M0
0000
0100
0000
0001
0000
,
0020
0000
0000
0000
0000
0000
1030
0000
0010
0000
0100
1000
0100
0000
0010
0000
0001
0000
0000
0000
0001
0000
0000
0000
1000
0000
0010
0000
0100
0000
0001
0000
,
2000
0000
0000
0000
0000
0000
3001
0010
0200
0000
0000
0301
0100
0010
0100
1000
,
0001
0000
0100
0010
1000
0000
0100
1000
0001
0100
0010
0100
0001
0010
0001
1000
,
0020
0000
0000
0130
0001
1000
0100
1000
0020
0000
0130
0001
0000
0010
0001
1000
,
0020
0000
0000
0230
0000
0000
1300
0100
0001
1000
0100
0010
0001
0010
0100
0000
,
1001
0000
0001
0000
0010
0001
0000
0100
0001
0000
0000
0010
0100
1000
0100
0000
,
0001
0100
0010
0100
1000
0002
0000
0000
0103
0000
0000
0010
1000
0010
0100
0001
,
0020
0000
0000
0130
1000
0001
0100
0001
0020
0000
0130
1000
0000
0010
1000
0001
,
0020
0000
0000
0230
0000
0000
1300
0100
0001
0000
0100
0010
0001
0000
0100
0000
,
0010
1000
0100
1000
0001
0100
0000
0000
0010
0000
1000
0001
0010
0001
0100
0000
,
1000
0000
0100
0000
0010
0000
0100
0000
0001
0000
1000
0000
0200
0000
0000
0000
0310
0000
0001
1000
0001
0000
0100
0000
0010
0000
1000
0000
0010
0000
0100
0000
,
0001
0000
1000
0100
00M0
0100
0001
0100
0020
0000
0032
0000
0023
0000
1030
0000
,
1001
0000
0001
0100
00M0
0100
1000
0100
0020
0000
2030
0000
3020
0000
0031
0000
,
1001
0000
1000
0100
00M0
0100
0001
0100
0020
0000
0000
2030
0000
0000
3001
0000
,
0010
0000
0100
1000
0100
0000
0010
0000
0001
0100
0001
0000
1000
0100
1000
0000
0002
0000
0000
0000
0000
0000
0000
0000
0000
0000
0000
0000
0000
0000
0000
0000
,
0103
0000
0001
0000
0100
0000
1000
0000
0100
0000
0010
1000
0010
0000
0100
0000
0002
0000
0000
0000
0000
0000
1003
0000
0100
0000
00M0
0000
0100
0000
0001
0000
,
0020
0000
0000
0000
0000
0000
1030
0000
0010
0000
0100
1000
0100
0000
0010
0000
0001
0000
0000
0000
0100
0000
0002
0000
1000
0000
0000
0000
0013
0000
0000
0000
,
0100
0000
1000
0000
0100
0000
0001
0000
0100
0000
0010
0001
0010
0000
0100
0000
2000
0000
0000
0000
0000
0000
3001
0000
0100
0000
00M0
0000
0100
0000
1000
0000
,
0020
0000
0000
0000
0000
0000
0031
0000
0010
0000
0100
0001
0100
0000
0010
0000
1000
0000
0000
0000
0001
0000
0020
0000
0000
0000
2030
0000
0000
0000
3010
0000
,
0100
0000
1000
0000
0100
0000
0001
0000
0100
0000
0010
0001
0010
0000
0100
0000
2000
0000
0000
0000
0000
0000
3001
0000
0100
0000
00M0
0000
0100
0000
1000
0000
,
0020
0000
0000
0000
0000
0000
0031
0000
0010
0000
0100
0001
0100
0000
0010
0000
1000
0000
0000
0000
1000
0000
0000
0000
0001
0000
0010
0000
0100
0000
1000
0000
,
0002
0000
0000
0000
0000
0000
1003
0010
0200
0000
0000
0000
0301
1000
0100
1000
,
0010
0000
0100
0001
1000
0100
00M0
0100
0001
1000
0000
0010
0000
0101
0000
2100
,
0000
0000
0000
0000
,
3002
0000
0000
0000
0000
0000
0000
0000
0000
0000
0000
0000
0000
0000
0000
0000
0000
0000
0000
0000
0103
0000
0010
0000
1000
0000
0000
0100
0000
0000
1000
0000
,
0002
0000
0000
0000
0000
0000
0013
0100
2000
0000
0000
0000
0000
0000
3100
1000
,
0010
0000
0000
0000
0100
0000
0001
0000
0000
0000
0010
0000
0001
0000
1000
0000
0001
0100
0001
0000
1000
0000
0100
0010
0100
0000
1000
0000
0001
0010
0001
0000
,
1000
0002
0100
0000
0000
0000
1003
0002
0100
0000
0000
0000
1003
0100
0010
0000
,
0001
0000
2000
0000
0100
0000
0000
0000
0000
0000
0000
0000
3001
0000
1000
0000
0010
0000
0100
0000
0001
0000
0010
0000
0001
0000
0000
1000
0000
0000
0100
0000
,
1000
0002
0100
0000
0000
0000
1003
0002
0100
0000
0000
0000
1003
0001
0010
0000
,
0001
2000
0100
0000
0000
0000
3001
1000
0010
0100
0001
1000
0010
1000
0100
0010
,
0002
0000
0000
1003
0010
0100
0001
0000
2002
0000
0000
0000
3003
0000
1000
0100
,
0010
0000
0001
0200
0000
0000
0310
2000
0000
0000
3100
1000
0001
0000
0010
0100
,
2000
0000
0000
3010
0100
0010
1000
0001
0000
0010
0100
1000
0010
1000
0001
0010
,
0000
0000
0000
0100
0000
0000
1000
0000
0000
0010
0000
0000
0100
0000
0000
0000
0000
0000
0001
0000
0000
1000
0000
0000
0001
0000
0000
0100
0000
0000
00M0
0000
0000
0100
0000
0000
1000
0000
0100
0000
0010
0000
0001
0000
0010
0000
0100
0000
,
1000
0000
0001
0100
00M0
0100
1000
0100
0020
0000
2030
0000
3020
0000
0031
0000
,
1001
0000
1000
0100
00M0
0100
0001
0100
0020
0000
0032
0000
0023
0000
1030
0000
,
1001
0000
0001
0100
00M0
0100
1000
0100
0020
0000
0000
0032
0000
0000
1003
0000
,
0010
0100
0001
1000
0100
0010
0100
1000
0010
1000
0001
0100
0002
0000
0000
0000
0000
0000
0023
0000
0000
0000
0000
0000
,
0130
0000
1000
0000
0100
0000
0001
0000
0100
0000
0010
0001
0010
0000
0100
0000
2000
0000
0000
0000
3002
0000
0000
0000
0203
0000
0000
0000
2300
0000
0000
0000
,
0000
0000
0000
0000
3001
0000
0010
0000
1000
0000
0001
0010
0001
0000
1000
0000
0100
0000
0000
0000
0010
0000
0001
0000
1000
0000
0000
0000
0010
0000
0000
0000
,
0100
0000
0001
0000
0100
0000
1000
0000
0100
0000
0010
1000
0010
0000
0100
0000
0002
0000
0000
0000
2003
0000
0000
0000
3200
0000
0000
0000
0302
0000
0000
0000
,
0000
0000
0000
0000
1003
0000
0010
0000
0001
0000
1000
0010
1000
0000
0001
0000
0010
0000
0100
0000
1000
0000
0020
0000
0000
0000
0032
0000
0000
0000
0013
0000
,
0100
0000
0001
0000
0100
0000
1000
0000
0100
0000
0010
1000
0010
0000
0100
0000
0002
0000
0000
0000
2003
0000
0000
0000
3200
0000
0000
0000
0302
0000
0000
0000
,
0000
0000
0000
0000
1003
0000
0010
0000
0001
0000
1000
0010
1000
0000
0001
0000
0100
0000
0000
0000
0010
0000
0000
0000
1000
0000
0001
0000
0010
0000
0100
0000
,
2000
0000
0000
0000
0000
0000
3001
0010
0200
0000
0000
0301
0100
0010
0100
1000
,
0002
0000
0103
0010
1000
0100
00M0
0100
0001
0010
0001
1000
0100
1000
0010
0100
,
0001
0000
0000
0000
;

//---------------dance-single - ----------------
#NOTEDATA:;
#CHARTNAME:;
#STEPSTYPE:dance-single;
#DESCRIPTION:;
#CHARTSTYLE:;
#DIFFICULTY:Hard;
#METER:12;
#RADARVALUES:0.486042,0.499369,0.006859,0.733963,0.637930,496.000000,495.000000,1.000000,107.000000,0.000000,0.000000,0.000000,0.000000,0.000000,0.486042,0.499369,0.006859,0.733963,0.637930,496.000000,495.000000,1.000000,107.000000,0.000000,0.000000,0.000000,0.000000,0.000000;
#CREDIT:;
#NOTES:
0000
0000
0000
0000
,
0000
0000
0000
0000
,
1000
0010
0000
0100
0001
0100
0001
0000
1000
0100
0000
0010
0001
1000
0010
0000
,
0100
0001
0000
1000
0100
1000
0100
0000
0010
0000
0001
1000
0010
0000
0100
0000
,
0001
0010
0000
0100
1000
0100
1000
0000
0001
0100
0000
0010
1000
0001
0010
0000
,
0100
1000
0000
0001
0100
0001
0100
0000
0010
0000
1000
0001
0010
0000
0100
1000
,
0002
0000
0000
0000
0000
0000
0103
0010
2000
0000
0000
3001
0010
0001
0010
0100
,
2000
0000
0000
0000
0000
0000
0000
0000
0000
0000
3001
0100
0001
0100
0010
1000
,
0001
0010
0100
0010
0001
0010
0100
1000
0002
0000
0000
0000
1003
0000
0100
1000
,
0020
0000
0000
0130
0001
0100
0010
1000
0001
0000
0010
0000
0100
0000
1000
0001
,
0200
0000
0000
0000
0000
0000
0310
1000
0002
0000
0000
1003
0100
1000
0100
0010
,
0002
0000
0000
0000
0000
0000
0000
0000
0000
1003
0010
1000
0001
0010
0100
1000
,
0020
0000
0000
0000
1030
0001
0100
0001
0010
0000
0100
1000
0000
0001
0100
0001
,
0020
0000
0000
0230
0000
0000
2300
0000
3002
0000
0000
0000
0103
0000
0010
0000
,
1000
0000
1000
0000
0001
0010
0000
0001
0200
0000
0000
0320
0000
0000
1030
0000
,
0001
0010
0100
1000
0002
0000
0000
0000
0103
0000
0010
1000
0001
0000
0100
0001
,
0020
0000
0000
0000
0031
1000
0100
1000
0010
0000
0100
0001
0000
1000
0100
1000
,
0020
0000
0000
0230
0000
0000
0302
0000
2003
0000
0000
0000
3200
0000
0000
0000
,
0310
0001
0010
0001
2000
0000
0000
0000
3020
0000
0000
0230
0000
0000
0302
0000
,
1003
0100
1000
0100
0010
0001
0200
0000
0000
0000
0310
1000
0010
1000
0001
0010
,
0001
0000
1000
0010
0000
1000
0100
0010
0001
0000
1000
0000
0001
0000
0100
0000
,
0010
0000
0100
0001
0000
1000
0010
0100
0001
0000
0010
0000
0001
0000
1000
0000
,
0010
0000
0100
0001
0000
0010
0001
1000
0020
0000
0000
0230
0000
0000
0302
0000
,
0023
0000
0000
0000
0000
0000
0031
1000
0020
0000
0230
0000
0302
0000
2003
0000
,
3001
0100
0010
0100
0001
0010
0100
1000
0020
0000
0000
0000
0130
0000
0001
1000
,
0200
0000
0000
0310
0001
0100
0001
1000
0020
0000
0230
0000
0302
0000
2003
0000
,
3001
0010
0100
0010
0001
0100
0010
1000
0200
0000
0000
0000
0310
0000
0001
1000
,
0020
0000
0000
0130
0001
0010
0001
1000
0010
0000
0100
0001
0000
0020
0000
0000
,
0031
0100
0010
0100
0001
0010
0100
1000
0020
0000
0000
0000
0130
0000
0001
1000
,
0200
0000
0000
0310
0001
0100
0001
1000
0200
0000
0320
0000
0032
0000
0203
0000
,
0320
0000
0000
0000
0000
0000
1030
0001
0020
0000
0000
0000
0000
0000
0031
1000
,
0020
0000
0000
0000
0000
0000
0000
0000
1030
0100
0000
0010
0000
0001
0000
1002
,
0000
0000
0000
0000
,
0203
0000
0000
0000
0000
0000
0000
0000
0000
0000
0000
0000
0000
0000
0000
0000
0000
0000
0000
0000
0000
0000
0000
0000
0310
0000
0000
1000
0000
0000
0001
0000
,
0020
0000
0000
0130
2000
0000
0000
3001
,
0100
0000
0010
1000
0000
0010
1000
0000
0001
0010
0001
0010
0100
1000
0100
2000
,
0001
0100
0000
0001
3200
0000
0310
0002
,
1000
0000
0000
0000
0100
0000
0000
0000
0000
0000
0000
0000
1000
0000
0000
0000
0203
0000
0000
0000
0000
0000
0000
0000
0310
0000
0000
1000
0000
0000
0002
0000
,
0010
1000
0000
0010
2003
0000
3100
2000
,
0010
0000
0001
0000
0000
0000
0010
0000
3002
0000
0000
0000
0013
0100
1000
0001
,
0200
0000
0000
0320
0000
0000
2030
0000
0000
0000
0000
0000
3001
0000
0010
0100
,
1000
0000
0001
0200
0000
0000
0310
2000
0000
0000
3001
0020
0000
0000
0000
0000
,
0230
0000
0000
1300
0010
0000
1000
0001
0000
0010
0001
0000
1000
0010
1000
0010
,
0000
0100
0001
0100
0001
0000
1000
0000
0001
0010
0000
0100
1000
0001
1000
0001
,
0100
0000
0001
0010
0000
0001
0100
0010
1000
0000
0001
0000
1000
0000
0100
0000
,
0010
0000
0100
1000
0000
0001
0010
0100
1000
0000
0010
0000
1000
0000
0001
0000
,
0010
0000
0100
1000
0000
0010
1000
0001
0020
0000
0000
0230
0000
0000
2300
0000
,
3020
0000
0000
0000
0000
0000
1030
0001
0020
0000
0230
0000
2300
0000
3002
0000
,
1003
0100
0010
0100
1000
0010
0100
0001
0020
0000
0032
0000
0203
0000
2300
0000
,
3200
0000
0000
0310
1000
0100
1000
0001
0020
0000
0230
0000
2300
0000
3002
0000
,
1003
0010
0100
0010
1000
0100
0010
0001
0200
0000
0302
0000
0023
0000
2030
0000
,
3020
0000
0000
0130
1000
0010
1000
0001
0010
0000
0100
1000
0000
0020
0000
0000
,
1030
0100
0010
0100
1000
0010
0100
0001
0020
0000
0032
0000
0203
0000
2300
0000
,
3200
0000
0000
0310
1000
0100
1000
0001
0200
0000
0320
0000
2030
0000
3200
0000
,
0320
0000
0000
0000
0000
0000
0031
1000
0020
0000
0000
0130
0001
0100
0001
1000
,
0200
0000
0000
0000
0000
0000
0000
0000
0310
0001
0010
0001
1000
0010
0100
0001
,
0010
0000
0000
0000
;

//---------------dance-single - ----------------
#NOTEDATA:;
#CHARTNAME:;
#STEPSTYPE:dance-single;
#DESCRIPTION:;
#CHARTSTYLE:;
#DIFFICULTY:Medium;
#METER:10;
#RADARVALUES:0.386090,0.403336,0.061735,0.521319,0.312106,394.000000,385.000000,9.000000,76.000000,0.000000,0.000000,0.000000,0.000000,0.000000,0.386090,0.403336,0.061735,0.521319,0.312106,394.000000,385.000000,9.000000,76.000000,0.000000,0.000000,0.000000,0.000000,0.000000;
#CREDIT:;
#NOTES:
// measure 0
0000
0000
0000
0000
,  // measure 1
0000
0000
0000
0000
,  // measure 2
1000
0000
0001
0000
0010
0100
0010
0000
0001
0000
1000
0000
0010
0100
0010
0000
,  // measure 3
1000
0000
0001
0000
0010
0100
0010
0000
0001
0000
0010
0000
1000
0000
0010
0000
,  // measure 4
0100
0000
1000
0000
0010
0100
0010
0000
1000
0000
0001
0000
0010
0100
0010
0000
,  // measure 5
0001
0000
1000
0000
0010
0100
0010
0000
1000
0000
0001
0000
0010
0000
0100
0000
,  // measure 6
2000
0000
0000
0000
0000
0000
3001
0100
0002
0000
0000
0000
0000
0000
1003
0100
,  // measure 7
2000
0000
0000
0000
0000
0000
0000
0000
3010
0000
1000
0100
1000
0000
0001
0100
,  // measure 8
0001
0000
1000
0000
0100
0000
0010
0001
0200
0000
0000
0000
0310
0000
1000
0001
,  // measure 9
0020
0000
0000
0130
1000
0000
0001
0000
0100
0000
0010
0000
1000
0000
0001
0010
,  // measure 10
0002
0000
0000
0000
0000
0000
1003
0010
2000
0000
0000
0000
3100
0000
0010
0001
,  // measure 11
2000
0000
0000
0000
0000
0000
0000
0000
3010
0000
0100
0001
1000
0000
0100
0000
,  // measure 12
0020
0000
0000
0000
0031
0000
1000
0010
2000
0000
0000
0000
3100
0000
0010
0001
,  // measure 13
2000
0000
0000
3020
0000
0000
0230
0000
0302
0000
0000
0000
1003
0000
0100
0000
,  // measure 14
0020
0000
0000
0000
0001
0000
0000
0000
0032
0000
0000
2003
0000
0000
3010
0000
,  // measure 15
0100
0001
1000
0000
0200
0000
0000
0000
1000
0000
0000
0000
1300
0000
0001
0100
,  // measure 16
0020
0000
0000
0000
1030
0000
0001
0010
0002
0000
0000
0000
0103
0000
0010
1000
,  // measure 17
0002
0000
0000
0023
0000
0000
0230
0000
2300
0000
0000
0000
3001
0000
0100
0000
,  // measure 18
0020
0000
0000
0000
1000
0000
0000
0000
2030
0000
0000
3002
0000
0000
0013
0000
,  // measure 19
0100
1000
0001
0000
0200
0000
0000
0000
0001
0000
0000
0000
0301
0000
1000
0100
,  // measure 20
0010
0000
0001
1000
0000
0001
1000
0000
0010
0000
0100
0000
0001
0000
0010
0000
,  // measure 21
0100
0000
1000
0001
0000
1000
0001
0000
0100
0000
0010
0000
1000
0000
0100
0000
,  // measure 22
0010
0000
0001
1000
0000
0001
1000
0000
0020
0000
0000
0230
0000
0000
0302
0000
,  // measure 23
2003
0000
0000
0000
0000
0000
3100
0010
0002
0000
0000
0000
0000
0000
0000
0000
,  // measure 24
1003
0010
1000
0000
0100
0000
0010
0001
0020
0000
0000
0000
0130
0000
1000
0001
,  // measure 25
2000
0000
0000
0000
3010
0000
0100
0001
0200
0000
0000
0000
0320
0000
0000
0000
,  // measure 26
1030
0100
1000
0000
0010
0000
0100
0001
0200
0000
0000
0000
0310
0000
1000
0001
,  // measure 27
2000
0000
0000
0000
3100
0000
0010
0001
0010
0000
0100
1000
0000
0100
1000
0000
,  // measure 28
0001
0010
0001
0000
0100
0000
0010
1000
0020
0000
0000
0000
0130
0000
0001
1000
,  // measure 29
0002
0000
0000
0000
0013
0000
0100
1000
0100
0000
0010
0000
0001
0000
1000
0000
,  // measure 30
0020
0000
0000
0000
0000
0000
0130
0001
2000
0000
0000
0000
0000
0000
3100
1000
,  // measure 31
0002
0000
0000
0000
0000
0000
0000
0000
0103
0000
0000
0010
0000
0100
0000
1001
,  // measure 32
0000
0000
0000
0000
,  // measure 33
0000
0000
0000
0000
,  // measure 34
2000
0000
0000
3001
0200
0000
0000
0310
,  // measure 35
1000
0000
0000
0001
0000
0000
1000
0000
0200
0000
0000
0000
0310
0000
0000
0000
,  // measure 36
0011
0001
0000
0011
0001
0000
1000
0010
,  // measure 37
1010
1000
0000
1010
1000
0000
0001
0010
,  // measure 38
1100
1000
0000
1100
1000
0000
0001
0100
,  // measure 39
0101
0001
0000
0101
0002
0000
2003
0000
,  // measure 40
3200
0000
0000
0320
0000
0000
0032
0000
0000
0000
0000
0000
1003
0000
0010
0100
,  // measure 41
0020
0000
0000
2030
0000
0000
3001
0010
0000
0001
0020
0000
0000
0000
0130
0000
,  // measure 42
2000
0000
0000
3020
0000
0000
2030
0000
0000
3002
0000
0000
0013
0000
0100
0000
,  // measure 43
1000
0000
0010
0000
2000
0000
0000
0000
3001
0000
0010
0100
1000
0000
0001
1000
,  // measure 44
0010
0000
1000
0001
0000
1000
0001
0000
0010
0000
0100
0000
1000
0000
0010
0000
,  // measure 45
0100
0000
0001
1000
0000
0001
1000
0000
0100
0000
0010
0000
0001
0000
0100
0000
,  // measure 46
0010
0000
1000
0001
0000
1000
0001
0000
0020
0000
0000
0230
0000
0000
2300
0000
,  // measure 47
3002
0000
2003
0000
,  // measure 48
3001
0010
0001
0000
0100
0000
0010
1000
0020
0000
0000
0000
0130
0000
0001
1000
,  // measure 49
0002
0000
0000
0000
0013
0000
0100
1000
0200
0000
0000
0000
0320
0000
0000
0000
,  // measure 50
0031
0100
0001
0000
0010
0000
0100
1000
0200
0000
0000
0000
0310
0000
0001
1000
,  // measure 51
0002
0000
0000
0000
0103
0000
0010
1000
0010
0000
0100
0001
0000
0100
0001
0000
,  // measure 52
1000
0010
1000
0000
0100
0000
0010
0001
0020
0000
0000
0000
0130
0000
1000
0001
,  // measure 53
2000
0000
0000
0000
3010
0000
0100
0001
0100
0000
0010
0000
1000
0000
0001
0000
,  // measure 54
0020
0000
0000
0000
0000
0000
0130
1000
0002
0000
0000
0000
0000
0000
0103
0001
,  // measure 55
2000
0000
0000
0000
0000
0000
0000
0000
3100
0000
0010
0000
0001
1000
0001
1000
,  // measure 56
0001
0000
0000
0000
;
