#VERSION:0.83;
#TITLE:Beep Beep Inside;
#SUBTITLE:;
#ARTIST:ino.;
#TITLETRANSLIT:;
#SUBTITLETRANSLIT:;
#ARTISTTRANSLIT:;
#GENRE:;
#CREDIT:;
#MUSIC:Beep Beep Inside.ogg;
#BANNER:Beep Beep Inside.png;
#BACKGROUND:Beep Beep Inside-bg.png;
#CDTITLE:;
#SAMPLESTART:74.265;
#SAMPLELENGTH:15.000;
#SELECTABLE:YES;
#OFFSET:0.836;
#BPMS:0.000=149.000;
#STOPS:;
#BGCHANGES:;
#FGCHANGES:;

//--------------- dance-single - chrononical ----------------
#NOTEDATA:;
#STEPSTYPE:dance-single;
#DESCRIPTION:chrononical;
#DIFFICULTY:Beginner;
#METER:4;
#RADARVALUES:0,0,0,0,0;
#NOTES:
0000
0000
0000
0000
,
0000
0000
0000
0000
,
0000
0000
0000
0000
,
0000
0000
0000
0000
,
0001
0000
1000
1000
,
0001
0000
0001
0000
,
1000
0000
0001
0001
,
1000
0000
1000
0100
,
1000
0000
0100
0000
,
0010
0000
0001
0000
,
1000
0000
0010
0000
,
2002
0000
0000
3003
,
0001
0010
0010
0000
,
0100
1000
1000
0001
,
1000
0010
0010
0000
,
0100
0001
0001
0000
,
1001
0000
0001
0010
,
0100
0000
1000
0010
,
0100
0000
0001
1000
,
0000
0001
0000
0001
0000
0000
0000
0000
,
1000
0000
0100
0000
,
0100
0000
0010
0000
,
0001
0000
0100
0000
,
0100
0000
0010
0000
,
1001
0000
1000
0100
,
0010
0000
0010
0001
,
1000
0000
0000
0000
0001
0000
0000
0100
,
0000
0010
1000
0000
,
0001
0001
0001
1000
,
0001
0000
0010
0000
,
2001
0000
3001
0000
,
0100
0000
0010
0000
,
2001
0000
3100
0000
,
0110
0000
1001
0000
,
2001
0000
3010
0010
,
0010
0000
0100
0100
,
0001
0000
0010
0000
,
0110
0000
1001
0000
,
0001
0000
0100
0000
,
0010
0000
0010
0000
,
1000
0000
0100
0000
,
0010
0000
0010
0000
,
0001
0000
0100
0000
,
0010
0000
1000
0000
,
0001
0000
0010
0000
,
0100
0000
1000
0000
,
0002
0000
0000
0003
,
0001
0000
0010
0010
,
0010
0000
0100
0000
,
1000
0000
0010
0010
,
0010
0000
0100
0000
,
0001
0000
0010
0000
,
1000
0000
0100
0000
,
0001
0000
0000
0000
1000
0000
0000
0002
,
0000
0000
0000
0003
,
1000
0000
0010
0010
,
0010
0000
0100
0100
,
0100
0000
0001
0000
,
1000
0000
0100
0010
,
0001
0000
0010
0100
,
1000
0000
0010
0100
,
0001
0000
0000
1000
0000
0000
0000
0002
,
0000
0000
0000
0003
,
2002
0000
0000
0000
3003
0000
0000
0220
,
0000
0000
0000
0330
,
1001
0000
1000
0000
,
0100
0000
0010
0000
,
1002
0000
0103
0000
,
0110
0000
2002
0000
,
3003
0000
0000
0000
,
1000
0000
0100
0000
,
0010
0000
0000
0010
0000
0000
0010
0000
;

//--------------- dance-single - chrononical ----------------
#NOTEDATA:;
#STEPSTYPE:dance-single;
#DESCRIPTION:chrononical;
#DIFFICULTY:Easy;
#METER:9;
#RADARVALUES:0,0,0,0,0;
#NOTES:
0000
0000
0000
0000
,
0000
0000
0000
0000
,
0000
0000
0000
0000
,
0000
0000
0000
0000
,
1000
0000
0001
0200
0000
0301
0000
1000
,
0200
0000
0310
0001
,
0001
0000
1000
0020
0000
1030
0000
0001
,
0020
0000
0000
0130
0000
0000
1000
0000
0001
0000
1000
0000
,
0001
0000
0100
0020
0000
1030
0000
0001
,
0000
0010
0100
2000
0000
3001
1000
0000
,
0020
0000
0130
0001
0000
0010
0002
0000
,
2000
0000
3003
0000
,
1000
0000
0100
0010
0100
0000
1000
0001
,
1000
0000
0010
0100
0010
0000
1001
0000
,
0001
0000
0100
0010
0100
0000
0001
1000
,
0001
0010
0110
1001
,
1000
0010
0100
0000
0010
0100
0001
0000
,
1000
0100
0010
0000
0100
0010
0001
0000
,
1000
0010
1000
0000
0001
0010
0200
0000
,
0000
1300
0000
1002
0000
0000
0103
0000
,
0001
0000
0100
0000
0010
0000
0100
0001
,
0000
0001
1000
0000
0100
0000
0010
0000
,
0001
0000
0100
0010
0000
0010
1000
0000
,
0100
0000
0010
0100
0000
0100
1000
0000
,
1100
0000
0100
0000
0010
0000
0100
1000
,
0000
1000
0001
0000
0100
0000
0010
0000
,
1000
0001
0100
0000
0100
0000
0010
1000
,
0000
0001
0010
0000
0100
0000
1000
0000
,
0001
0100
0001
0000
0101
0000
1001
0000
,
1100
0100
0010
0001
,
2001
3010
0001
0010
,
1000
0100
0001
0101
,
1200
0310
1000
0010
,
1010
0000
0000
0011
0000
0000
0000
0000
,
1002
0000
0103
0010
1000
0000
0100
0010
,
0001
0100
1000
1100
,
0101
0000
1001
0000
,
1100
0000
0000
2020
0000
0000
3030
0000
,
1000
0000
0010
0000
,
0100
0000
0000
0001
0000
0001
0000
0001
,
1000
0000
0100
0000
,
0010
0001
0000
0001
0000
0001
0000
0001
,
1000
0010
0010
0100
,
0001
0010
0010
0100
,
1000
0001
1000
0010
,
1000
0100
0010
0001
,
2000
0000
0000
3000
,
0001
0100
0010
0000
0100
0000
0001
0010
,
0100
1000
0001
1000
,
1000
0010
0100
0000
0010
0000
1000
0100
,
0010
0001
1000
0001
,
0001
0010
0100
0000
0010
0000
1000
0000
,
0001
0100
0010
0100
,
1000
0000
0001
0100
0000
0010
0000
2002
,
0000
0000
0000
3003
,
1000
0100
0010
1000
,
0010
0001
0100
1000
,
0100
0001
1000
0100
,
0001
0100
1000
0001
,
2001
3010
0100
0010
,
1002
0013
0100
0010
,
0011
0000
0000
1001
0000
0000
0000
1020
,
0000
0100
0100
0130
,
1002
0000
0000
0013
0000
0100
0000
1200
,
0000
0010
0310
0001
,
1002
0103
1000
0001
,
0010
0100
1000
1100
,
0102
0013
0100
0001
,
0101
0000
0000
1100
0000
0000
0000
0000
,
2002
0000
0000
3003
,
1000
0010
0100
0100
,
0001
0000
0000
0010
0000
0000
0110
0000
;

//--------------- dance-single - chrononical ----------------
#NOTEDATA:;
#STEPSTYPE:dance-single;
#DESCRIPTION:chrononical;
#DIFFICULTY:Medium;
#METER:13;
#RADARVALUES:0,0,0,0,0;
#NOTES:
0000
0000
0000
0000
,
0000
0000
0000
0000
,
0000
0000
0000
0000
,
0000
0000
0000
0000
,
0001
0010
0001
0200
0000
0301
0100
0001
,
0020
0000
0000
0001
0000
0130
1000
0001
,
1000
0010
1000
0200
0000
1300
0100
1000
,
0020
0000
0000
0130
0010
1000
0001
0000
0010
0000
0100
0000
,
1000
0001
0100
0020
0000
2030
0000
3002
,
0000
0013
0100
0002
0000
0103
1000
0001
,
0200
0000
0301
0020
0000
0130
1000
0020
,
0000
0000
0000
0000
0000
0000
0000
0000
0130
0010
1000
0001
2000
0000
0000
0000
,
3001
0000
0010
0000
0100
0000
1000
0001
0000
1000
0001
0000
0100
0000
0010
0100
,
0000
0010
0100
0000
0001
0000
1000
0100
0000
0010
0001
0000
0200
0000
0000
0000
,
0301
0000
0100
0000
0010
0000
1000
0001
0000
1000
0001
0000
0010
0000
0100
0010
,
0000
0100
0010
0000
0001
0000
1000
0010
0000
0100
0001
0000
0010
0000
0010
0000
,
0001
0000
1000
0000
0001
0000
0010
0100
1000
0000
0001
0000
1000
0000
0010
0100
,
0001
0000
1000
0000
0001
0000
0010
0100
0010
0000
0001
0000
0100
0000
0010
0000
,
1000
0000
1000
0000
0100
0000
0010
0100
0000
0000
1000
0000
0001
0000
0100
0000
,
0000
0110
0000
2001
0000
0000
3100
0000
,
1000
0000
0010
0100
0001
1000
0100
0002
,
0000
1003
0010
0002
0000
0103
0010
1000
,
0200
0000
0310
0002
0000
0103
0001
0020
,
0000
0130
1000
0020
0000
0000
0230
0000
,
0302
0000
0103
0010
1000
0001
0010
2000
,
0000
3001
0100
2000
0000
3010
0100
0001
,
0010
0100
0001
0100
0010
0100
1000
0020
,
0000
0130
0001
1000
0100
1000
0001
0100
,
0010
1000
0001
0010
0110
0000
1100
0000
,
1000
0000
0000
0100
0000
0000
0010
0000
0001
0000
0100
0010
0000
1000
0001
0000
,
2001
0000
0000
0000
3010
0000
0100
0010
0000
1000
0001
1000
0000
0100
0010
0100
,
0000
0010
0001
0010
0000
0001
0010
0001
0000
0010
0001
0000
0011
0000
0000
0000
,
1002
0000
0000
0000
0103
0000
0010
0100
0000
0001
1000
0001
0000
0010
0100
0000
,
0010
0000
0001
1000
0000
0010
0200
0000
0000
0000
0310
0000
1000
0000
0001
0000
,
2001
0000
3100
0010
0001
0010
0100
1000
,
0001
0000
0100
0000
0000
0010
0000
0000
0100
0000
0001
0000
1000
0001
0000
0000
,
1001
1000
0100
0000
1001
0001
0100
0000
,
0110
0000
0000
0110
0000
0000
2002
0000
0000
0000
0000
0000
3003
0000
0000
0000
,
0001
0010
0100
1000
,
0001
0000
0100
0001
0000
0100
0000
0010
,
1000
0100
0010
0001
,
1000
0010
0000
0100
0000
0010
0100
0001
,
1000
0000
0100
0000
0100
0000
0100
1000
,
0010
0000
0010
0000
0010
0000
0010
0100
,
0001
0000
1000
0001
0000
0001
1000
0000
0100
0000
0010
0100
0000
0100
0010
0000
,
0001
1000
0001
0100
0010
1000
0001
0010
,
0100
0000
0010
0100
0000
0010
0001
0000
1000
0000
0010
0000
0100
0000
0010
0000
,
1000
0100
0010
2000
0000
3001
0100
1000
,
0020
0000
1000
0000
1030
0010
0100
0010
,
1000
0010
0100
2000
0000
3001
0010
1000
,
0200
0000
1000
0000
1300
0100
0010
0100
,
1000
0100
0010
1000
0000
1010
0000
0110
,
0000
0011
0000
1001
0000
1010
0000
0010
,
0200
0000
1300
0001
0010
0100
0001
0020
,
0000
0100
0100
0031
,
1000
0000
0010
0100
0000
0001
1000
0000
0100
0000
0000
0010
0000
0001
0000
1000
,
0000
0000
0001
0000
0100
0000
0010
0000
0100
0000
0000
0010
0000
1000
0000
0001
,
0000
0000
1000
0000
0000
0100
0000
0000
0001
0000
0000
1000
0000
0000
0010
0000
,
0000
0001
0000
0000
0100
0000
0010
0000
0200
0000
0301
0000
0020
0000
0130
0000
,
1100
0000
1000
0001
0100
0010
0100
0000
,
0110
0000
0100
0001
1000
0001
0010
0000
,
0011
0000
0001
1001
0000
1000
0010
1010
,
0000
0010
0100
0001
1000
0001
0100
0000
,
0102
0000
0000
1003
0000
0001
0010
0021
,
0000
0000
0100
0000
0130
1000
0001
0000
,
1002
0000
0000
0000
0103
0000
0001
0100
0000
0010
0100
0010
0000
0100
0010
1000
,
0000
0001
0010
0100
0000
0010
0100
0010
0000
0100
0010
0000
0110
0000
0000
0000
,
2001
0000
0000
0000
3010
0000
1000
0010
0000
0100
0010
0100
0000
0010
0100
0000
,
0010
0000
1000
0001
0000
0010
0200
0000
0010
0000
0000
0000
1300
0000
0000
0000
,
2002
0000
0000
3003
,
1000
0000
0010
0000
0100
0000
0000
0010
0000
0000
1001
0000
1000
0000
0100
0000
,
0110
0000
0000
0011
0000
0000
1001
0000
0000
1010
0000
0000
0010
0000
0110
0000
;

//--------------- dance-single - chrononical ----------------
#NOTEDATA:;
#STEPSTYPE:dance-single;
#DESCRIPTION:chrononical;
#DIFFICULTY:Hard;
#METER:16;
#RADARVALUES:0,0,0,0,0;
#NOTES:
0000
0000
0000
0000
,
0000
0000
0000
0000
,
0000
0000
0000
0000
,
0000
0000
0000
0000
0000
0000
0000
0000
0000
0000
0000
0000
1000
0100
0010
0001
,
1000
0010
0100
0020
0000
1030
0100
0010
,
0200
0000
0000
0310
0001
1000
0010
1000
,
0001
0100
0010
0200
0000
0301
0010
0100
,
0020
0000
0000
0130
1000
0001
0100
0001
1000
0010
1000
0001
,
0100
0010
1000
0200
0000
0320
0000
0031
,
0010
0100
1000
0020
0000
0130
0001
1000
,
1002
0000
0013
0000
0100
0000
0002
0000
0103
0000
0010
0000
0100
1000
0001
1000
,
0020
0000
0000
0000
0000
0000
0130
0010
0100
0001
1000
0001
0010
0000
0100
1000
,
0001
0000
0100
0000
0010
1000
0001
0010
0000
0010
0100
0000
0010
0001
1000
0010
,
0000
0010
0100
0000
0010
1000
0001
0010
0000
0010
0100
0000
0001
0000
0100
0000
,
1000
0000
0010
0000
0100
0001
1000
0100
0000
0100
1000
0000
0100
1000
0001
0100
,
0000
0100
0010
0000
0100
0001
1000
0100
0000
0100
0010
0000
0110
0000
0011
0000
,
2001
0000
3010
0000
0100
0001
0010
0100
0000
0100
1000
0000
0100
1000
0010
0100
,
0000
0100
0001
0000
0100
0001
0010
0100
0000
0100
0010
0000
1000
0000
0010
0000
,
0011
0000
1001
0000
1000
0010
0100
2000
0000
0000
3100
0010
1000
0001
0010
0100
,
0001
0000
0101
0000
0000
0000
0120
0000
0000
0000
0130
1000
0010
0000
0000
0000
,
1001
0000
0000
0000
0001
0100
0010
1000
0001
0000
0010
0000
0100
1000
0020
0000
,
0000
0000
0130
0000
0010
1000
0200
0000
0000
0000
0310
0000
0001
0000
0100
0000
,
2000
0000
0000
0000
3100
0000
0020
0000
0000
0000
1030
0001
0010
0100
0002
0000
,
0000
0000
0103
0000
0010
0000
0200
0000
0310
0100
1000
0001
1000
0010
0100
0010
,
1000
0000
0000
0000
1000
0010
0100
0001
1000
0000
0100
0000
0010
0001
0200
0000
,
0000
0000
0310
0000
0100
0001
0020
0000
0000
0000
0130
0000
1000
0000
0010
0000
,
0001
0000
0010
0100
0001
0000
0010
0100
0001
0000
0100
0010
0001
0000
0011
0000
,
0000
0000
1001
0000
1000
0010
0100
0000
0001
0010
0100
0000
1000
0010
0100
0000
,
0001
0000
0000
0010
0000
0000
0100
0000
0000
0010
0000
0000
0001
0000
0000
1000
0000
0000
0010
0000
0000
0100
0000
0000
0020
0000
0000
0000
0000
0000
1030
0000
0010
0000
0100
0000
0002
0000
0000
0000
0000
0000
1003
0000
0100
0000
0010
0000
,
0001
0010
0100
0010
0100
1000
0001
0100
0010
0100
0001
1000
0000
1000
0100
0000
,
0210
0000
0000
0000
0310
0001
1000
0010
0000
0010
1000
0001
0000
0001
1000
0100
,
0000
0100
1000
0001
0000
0001
1000
0010
0000
0010
1000
0000
1010
0000
0000
0000
,
0210
0000
0000
0000
0310
1000
0001
0010
0000
0010
0001
1000
0000
1000
0001
0000
,
0101
0000
0001
0010
0000
0000
0120
0000
0000
0000
0130
0010
0001
1000
0001
0000
,
2001
0000
0000
0000
3001
1000
0100
0010
0001
1000
0010
0100
0001
1000
0100
0010
,
0001
0010
0100
1000
0010
0100
0001
0010
0100
1000
0100
0010
0001
1000
0000
0000
,
1001
0000
0000
1001
0000
0000
0001
0100
0010
1000
0000
0000
1001
0000
0000
1001
0000
0000
1000
0100
0010
0001
0000
0000
,
0011
0000
0001
0100
0000
0000
0210
0000
0000
0000
0310
0000
1000
0000
0001
0000
,
1000
0100
0010
0001
,
0100
0000
0020
1000
0000
0100
0000
0001
,
1030
0010
0100
0001
,
1000
0001
2000
0000
3100
0010
0001
1000
0001
0000
2000
0000
3010
0100
0001
0000
,
1001
0000
1100
0000
0110
0000
0011
0001
,
1001
0000
1010
0000
0110
0000
0101
0001
,
1000
0100
0010
0100
0000
0100
1000
0000
0001
0100
0010
0100
0000
0100
0001
0000
,
1000
0100
0010
0100
1000
0100
0010
0100
0010
0001
0010
0100
0010
0001
0010
0100
,
1000
0000
0001
0100
0000
0100
0010
0100
0001
1000
0100
0010
0001
0100
0010
0100
,
0001
0010
0100
0002
0103
1000
0010
0100
,
2000
0000
3100
0000
0010
0000
0100
0000
0001
0100
0010
0100
0001
0010
0100
1000
,
0001
0100
0010
0002
0013
1000
0100
0010
,
2000
0000
3010
0000
0001
0000
1000
0000
0001
0100
0010
0100
0001
0010
0100
0010
,
0001
0010
0100
0002
0103
0101
0000
1100
,
0000
1010
0000
0110
0000
0101
0000
2001
,
3010
0100
2000
3002
0013
2000
3001
0012
,
0000
0000
0013
0100
1000
0001
0100
0010
0100
0001
1000
0100
0010
0001
0000
0001
,
1000
0010
0100
1000
0000
0100
0010
1000
0001
0000
0001
0010
0000
0010
0000
1000
,
0000
0010
0100
1000
0001
0100
0010
1000
0001
0000
0001
0100
0000
0100
0000
1000
,
0000
0100
0010
1000
0001
0100
0001
1000
0010
1000
0001
0010
0001
1000
0100
1000
,
0001
0010
0001
0100
0010
1000
0100
0010
2000
0000
3010
0001
0200
0000
0310
0000
,
2001
0000
0000
0000
3010
0100
0001
1000
0100
0010
0002
0000
0103
0000
0010
0000
,
1002
0000
0000
0000
0103
0010
1000
0001
0010
0100
2000
0000
3010
0000
0100
0000
,
1001
1000
0100
0210
0000
0310
0001
1002
,
0000
0000
1003
0010
0100
0000
0010
0100
0001
0000
1000
0000
0001
1000
0001
0000
,
2002
0000
0003
0010
0000
3100
1000
1200
,
0000
0000
0000
0000
0010
0000
0000
0000
0310
0001
1000
0001
0100
0000
0000
0000
,
0201
0000
0000
0000
0310
1000
0001
1000
0100
1000
0010
1000
0001
1000
0100
1000
,
0010
1000
0001
1000
0100
1000
0010
1000
0001
1000
0100
0000
1100
0000
0000
0000
,
1020
0000
0000
0000
0130
0001
0010
0001
1000
0001
0100
0001
0010
0001
1000
0000
,
0101
0000
0001
0010
0000
0000
1100
0000
1000
0100
0010
0100
0010
0001
0100
0010
,
2000
0000
0000
0000
,
3001
0100
0010
1000
0001
0010
0100
0010
0000
0000
0110
0000
0010
0100
0001
0000
,
0101
0000
0000
0110
0000
0000
1100
0000
0000
1010
0000
0000
0110
0000
1001
0000
;
