#TITLE:Bad Man (Skrillex Remix);
#SUBTITLE:;
#ARTIST:Ragga Twins;
#TITLETRANSLIT:;
#SUBTITLETRANSLIT:;
#ARTISTTRANSLIT:;
#GENRE:;
#CREDIT:;
#MUSIC:Bad Man (Skrillex Remix).mp3;
#BANNER:Bad Man (Skrillex Remix).png;
#BACKGROUND:Bad Man (Skrillex Remix) - bg.png;
#CDTITLE:cdtitle.png;
#SAMPLESTART:26.032;
#SAMPLELENGTH:12.800;
#SELECTABLE:YES;
#OFFSET:-0.032;
#BPMS:0.000=150.000;
#STOPS:57.000=2.400
,211.000=2.400
;
#BGCHANGES:;
#FGCHANGES:;

//--------------- dance-single - ----------------
#NOTES:
     dance-single:
     :
     Medium:
     11:
     0.493052,0.527376,0.28066,0.204806,0,455,418,37,27,0,0,0.493052,0.527376,0.28066,0.204806,0,455,418,37,27,0,0:
0000
0000
0000
0000
,
0000
0000
0000
0000
,
0000
0000
0000
0000
,
0000
0000
0000
0000
,
0000
2000
3002
0203
,
0310
0000
0010
0000
0010
1000
0001
0000
,
0001
0000
2000
0000
3002
0000
0013
0100
,
0000
0100
0010
0000
0000
0001
0010
0100
,
1000
0010
0110
0000
1010
0000
0110
0000
,
1000
0100
0110
0000
1100
0000
0110
0000
,
0001
0100
0110
0000
0101
0000
0110
0000
,
0001
0010
0110
0000
0011
0000
0110
0000
,
1000
0001
0100
0010
0100
0010
0001
0010
,
0001
0010
0100
0010
0100
0010
1000
0010
,
1000
0010
0100
0000
1001
0000
1000
0000
,
0100
0000
0010
0001
0100
0000
0001
0010
,
0100
0010
0001
0100
0010
0000
1000
0010
,
0100
0010
1000
0100
0010
0000
0001
1000
,
0010
1000
0100
1000
0010
0100
0110
0000
,
0100
0000
0001
1000
0100
0000
1000
0010
,
0100
0001
0010
0100
1000
0000
0001
0100
,
0010
1000
0100
0010
0001
0000
2002
0000
,
0000
0000
3003
1000
,
0001
0000
0010
0100
1000
0000
0001
0100
,
1000
0100
0001
0010
0100
0000
1000
0100
,
0001
0100
1000
0010
0100
0000
0001
0100
,
0010
0100
1000
0100
0010
0100
0001
0000
,
1000
0000
0001
1000
0010
0000
0100
0001
,
0010
0001
0100
0010
1000
0000
0100
1000
,
0010
1000
0100
0010
0001
0000
1000
0001
,
1000
0001
1000
0001
1000
0001
1000
0010
,
0010
0000
0101
0000
0010
0010
1001
0000
,
0010
0000
0101
0000
2000
0000
3001
0100
,
0001
1000
0100
1000
0001
0010
0001
1000
,
0010
1000
1001
0000
2000
0000
3001
0010
,
0001
1000
0010
1000
0001
0100
0001
1000
,
0100
0110
2000
3001
,
0100
0000
0010
1000
0100
0010
0001
0000
,
1000
1000
0001
0001
0100
0010
2000
0000
,
3002
0023
0130
0100
,
0100
1000
0001
0000
0001
0000
2000
0000
,
3002
0000
0103
0010
0000
0010
0100
0000
,
0000
1000
0001
1000
0100
0010
0002
0000
,
2003
3020
0130
0100
,
0100
0001
1000
0000
1000
0000
0002
0000
,
2003
0000
3100
0010
0000
0010
0100
0000
,
0000
1000
0100
0010
0001
0100
0110
0000
,
1001
0000
0110
0000
0001
0010
0110
0000
,
1001
0000
0110
0000
1000
0010
0110
0000
,
1001
0000
0110
0000
1000
0100
0110
0000
,
1001
0000
0110
0000
0001
1000
0010
0100
,
0010
0100
1000
0100
1000
0100
0010
0100
,
0010
0100
0001
0100
0001
0100
0010
0000
,
1001
0000
1000
0000
1000
0001
1000
0000
,
1000
0001
1000
1000
0001
0001
1000
0000
,
0011
0000
0001
0100
0010
0100
0001
0000
,
1000
0000
1000
0001
0100
0001
0010
0001
,
0100
0010
0110
0000
0010
1000
0001
0000
,
0010
0000
0001
0100
0010
1000
0100
0000
,
0010
0000
0100
1000
0010
0100
0001
0000
,
0010
2002
0000
0000
,
3003
0000
0001
0000
1000
0000
0100
0010
,
0001
0000
1000
0010
0001
0010
1000
0100
,
0010
0000
0001
0010
1000
0010
0001
0100
,
0010
0000
1000
0010
0100
0010
0001
0010
,
0100
0010
1000
0000
0001
0000
1000
0001
,
0100
0000
0010
1000
0100
1000
0010
0100
,
0001
0000
0010
0001
0100
0001
0010
0100
,
1000
0220
0000
0000
,
0330
0000
1000
0100
1000
0100
0000
0000
,
0000
1000
0010
1000
0010
1000
0000
0000
,
0000
0001
0100
0001
0100
0001
0000
0000
,
0000
0100
0010
0100
0010
0100
0000
0000
,
0000
0000
0001
0100
0001
0100
0000
0000
,
0000
0001
0010
0001
0010
0001
0000
0000
,
0000
0000
2000
0000
3020
0000
0130
0010
,
1000
0100
0010
0001
0000
0001
0020
0000
,
0100
0130
0000
0000
;

//--------------- dance-single - ----------------
#NOTES:
     dance-single:
     :
     Hard:
     13:
     0.584077,0.673869,0.356514,0.750956,0.208599,539,492,47,99,0,0,0.584077,0.673869,0.356514,0.750956,0.208599,539,492,47,99,0,0:
0000
0000
0000
0000
,
0000
0000
0000
0000
,
0000
0000
0000
0000
,
0000
0000
0000
0000
,
0000
2000
3020
0230
,
0301
0000
0000
0000
2000
0000
0000
3200
0000
0000
2300
0000
3002
0000
0003
0000
,
1000
0000
0020
0030
0020
0030
2000
3002
,
0003
0000
0020
0000
0230
0000
0300
0000
1000
0000
0001
0010
0001
0000
0100
0000
,
0010
0000
1000
0000
1002
0000
0000
0000
0203
0000
0000
0000
2300
0000
3000
0100
,
0001
0000
1000
0000
0002
0000
0000
0000
0023
0000
0000
0000
2030
0000
3000
0010
,
0001
0000
1000
0000
0002
0000
0000
0000
0203
0000
0000
0000
2300
0000
3000
0100
,
0001
0000
1000
0000
0002
0000
0000
0000
0023
0000
0000
0000
2030
0000
3000
0010
,
0001
1000
0001
0100
0010
0100
0001
0010
,
0100
0010
0001
1000
0010
1000
0100
1000
,
0001
1000
1010
0000
0110
0000
1001
0000
,
1000
0000
1100
1000
0010
0000
0110
0010
,
1000
0000
0001
0000
1000
0100
1000
0000
0010
0000
0000
0000
0110
0000
0100
0000
,
0001
0000
1000
0000
0001
0010
0001
0000
0100
0000
0000
0000
0011
0000
0001
1000
,
0010
0000
0100
0000
0010
1000
0001
0000
0010
0000
0100
0000
1100
0000
0000
0000
,
1000
0000
1010
0010
0100
0000
1001
0001
,
0010
0000
0001
0000
0100
0010
0100
0000
0001
0000
0000
0000
1001
0000
1000
0000
,
0010
0000
0000
0000
0000
0000
1000
0000
0000
0000
0000
0000
0100
0000
0000
0010
0000
0000
0100
0000
0000
0000
0000
0000
1000
0000
0000
0000
0000
0000
0000
0000
0000
0001
0000
0000
2000
0000
0000
0000
0000
0000
3000
0000
0002
0000
0000
0000
,
0003
0000
0000
0000
2000
0000
0000
0000
3000
0000
0000
0000
0200
0000
0000
0000
0000
0000
0000
0000
0000
0300
0000
0000
0200
0000
0000
0000
0000
0000
0000
0000
0000
0300
0000
0000
1001
0000
0000
0000
0000
0000
0000
0000
0000
0000
0000
0000
,
0001
0000
0011
0001
0100
0000
1001
1000
,
0100
0000
0001
0000
0100
1000
0010
0000
0100
0000
0000
0000
1001
0000
0001
0000
,
0100
0000
1000
0000
0100
0001
0010
0000
0100
0000
0000
0000
1010
0000
1000
0100
,
0010
0000
0100
0000
1000
0010
0100
0000
0001
0000
1000
0000
1001
0000
0000
0000
,
1000
0000
1010
1000
0100
0000
0110
0100
,
1000
0000
0010
0000
1000
0001
1000
0000
0100
0000
0000
0000
0110
0000
0010
0000
,
0001
0000
0100
0000
0001
1000
0001
0000
0010
0000
0000
0000
1001
0000
0000
0000
,
0000
0000
1000
0001
1000
0000
0010
0000
0100
0000
0000
0000
1001
0000
0001
0000
,
0100
0000
0110
0000
0001
0001
1100
0000
,
0001
0000
1010
0000
0002
0000
1003
0100
,
0001
1000
0010
0001
0100
0010
0100
0001
,
0010
0100
0110
0000
2000
0000
3001
0100
,
1000
0001
0010
1000
0100
0010
0100
1000
,
0001
1010
0002
1003
,
0100
0000
0011
0001
1000
0010
0100
0000
,
0001
0000
1000
0010
1000
0000
0100
0000
0010
0000
0100
0000
2000
0000
0000
0000
,
3020
0000
0000
0000
0230
0000
0000
0000
0301
0000
0000
0000
2000
0000
0000
3200
,
0000
2300
3002
0003
1000
0000
0020
0030
,
0020
0030
2000
3002
0003
0020
0230
0300
,
1000
0010
0100
0010
1000
1000
0002
0000
,
0023
0000
0000
0000
0230
0000
0000
0000
1300
0000
0000
0000
0002
0000
0000
0203
,
0000
0302
2003
3000
0001
0000
0020
0030
,
0020
0030
0002
2003
3000
0020
0230
0300
,
0001
0000
1000
0010
1000
0000
0100
0000
0010
0000
0001
0000
2001
0000
0000
0000
,
3200
0000
0000
0000
0302
0000
0003
0100
1000
0000
0001
0000
2000
0000
0000
0000
,
3020
0000
0000
0000
0032
0000
0003
0010
1000
0000
0001
0000
2000
0000
0000
0000
,
3200
0000
0000
0000
0302
0000
0003
0100
1000
0000
0001
0000
2000
0000
0000
0000
,
3020
0000
0000
0000
0032
0000
0003
0010
1000
0000
0001
0000
1000
0000
0100
0000
,
0010
0100
1000
0010
0100
0010
1000
0001
,
0010
0001
0100
0001
1000
0001
0011
0000
,
0110
0000
0001
0000
0001
1000
0001
0000
,
0001
0000
1000
0000
0001
0010
0001
0000
0100
0000
0010
0000
1000
0000
0000
0100
,
0010
0000
0001
0000
1000
0100
1000
0000
0010
0000
0100
0000
0101
0000
0000
0000
,
0001
0000
1000
0000
1100
0000
0100
1000
0001
0000
1000
0000
0010
0100
0001
0000
,
0010
0001
1001
0000
1000
0100
0110
0000
,
1000
0000
0001
0000
1000
0010
1000
0000
0001
0000
0010
0000
0110
0000
0000
0000
,
0001
0000
1000
0000
0001
0100
0001
0000
0010
0000
0100
0000
1100
0000
0000
0000
,
0001
0000
0000
0000
0000
0000
0100
0000
0000
0000
0000
0000
0002
0000
0000
0003
2000
0000
3000
0000
0002
0000
0003
0000
2000
0000
3000
0000
0000
0000
0002
0000
0000
0003
0000
0000
0020
0000
0000
0000
0000
0000
0000
0000
0000
0030
0000
0000
,
0020
0000
0000
0030
1001
0000
0000
0000
1000
0000
0000
0000
1100
0000
1000
0000
,
0010
0000
0000
0000
1001
0000
0001
0000
0010
0000
1000
0000
0010
0001
0100
0000
,
0010
0000
0000
0000
1001
0000
1000
0000
0010
0000
0001
0000
0010
1000
0100
0000
,
0010
0000
0000
0000
0101
0000
0001
0010
0100
0000
0010
0000
0001
0100
0010
0000
,
1000
0001
1001
0000
0001
0000
0101
0001
,
0010
0000
0000
0000
0110
0000
0010
0000
0001
0000
0100
0000
0001
1000
0001
0000
,
0010
0000
0000
0000
0110
0000
0100
0000
1000
0000
0010
0000
1000
0001
1000
0000
,
0100
0000
0000
0000
0000
0000
0000
0000
0000
1000
0000
0000
0002
0000
0003
0000
0200
0000
0300
0000
0020
0000
0030
0000
2000
0000
3000
0000
0200
0000
0300
0000
0020
0000
0030
0000
0002
0000
0003
0000
0020
0000
0030
0000
0200
0000
0300
0000
,
2000
3000
0020
0030
0200
0300
0001
0000
0000
0001
0000
0000
1000
0000
0000
1000
0000
0000
0100
0000
0000
0000
0000
0000
,
0000
1000
0001
0001
1000
1000
0010
0000
,
0000
1000
0100
0100
0010
0010
0100
0000
,
0000
1000
0010
0010
0100
0100
0010
0000
,
0000
0000
1000
1000
0001
0001
0010
0000
,
0000
0001
1000
1000
0001
0001
0100
0000
,
0000
0001
0020
0000
0230
0000
0320
0032
,
2003
0000
3020
0000
0230
0000
0300
0002
0000
0003
1000
0100
1000
0000
0001
0000
,
0200
0310
0000
0000
;
