#TITLE:BRING HER DOWN;
#SUBTITLE:;
#ARTIST:Akira Yamaoka;
#TITLETRANSLIT:;
#SUBTITLETRANSLIT:;
#ARTISTTRANSLIT:;
#GENRE:Tribal Bass;
#CREDIT:;
#MUSIC:BRING HER DOWN.ogg;
#BANNER:BRING HER DOWN.png;
#BACKGROUND:BRING HER DOWN-bg.png;
#CDTITLE:cdtitle.png;
#SAMPLESTART:14.911;
#SAMPLELENGTH:14.545;
#SELECTABLE:YES;
#OFFSET:-0.366;
#BPMS:0.000=66.000
,14.000=132.000
,79.000=66.000
,80.000=132.000
,82.000=66.000
,83.000=132.000
,85.000=66.000
,86.000=132.000
,88.000=66.000
,89.000=132.000
,123.000=66.000
,138.500=132.000
,167.000=66.000
,168.000=132.000
;
#STOPS:14.000=0.341
,14.250=0.341
,14.500=0.341
,14.750=0.341
,138.500=0.227
,167.000=0.909
;
#BGCHANGES:;
#FGCHANGES:;

//--------------- dance-single - ----------------
#NOTES:
     dance-single:
     :
     Beginner:
     2:
     0.149071,0.173623,0.087689,0.113995,0,119,109,10,13,0,0,0.149071,0.173623,0.087689,0.113995,0,119,109,10,13,0,0:
0000
0000
0000
0000
,
0000
0000
0000
0000
,
2000
3000
0002
0003
,
2000
3000
0001
1000
,
0000
0100
0000
0010
,
0000
0001
0000
0100
,
0000
0010
0000
1000
,
0000
0001
0000
0010
,
0010
0010
0000
0100
,
0100
0100
0000
1000
,
1000
1000
0000
0001
,
0001
0001
0000
1001
,
0000
0001
0000
0100
,
0000
0001
0000
1001
,
0000
0001
0000
0010
,
0000
0001
0000
1001
,
0000
1000
0000
0010
,
0000
1000
0000
1001
,
0000
1000
0000
0100
,
0000
1000
0000
0002
,
0003
0000
0200
0300
,
0000
0020
0030
0000
,
2000
3000
0000
0001
,
0000
0001
0000
1000
,
0000
1000
0000
0100
,
0000
0100
0000
0010
,
0000
0001
0000
1000
,
1000
1000
0000
0010
,
0010
0010
0000
0100
,
0100
0100
0000
0001
,
0001
0001
0000
2000
,
3000
0002
0003
2000
,
3000
0002
0003
0010
,
0010
0020
0030
0100
,
0100
0200
0300
1001
,
0000
1000
0000
0001
,
0001
0001
0000
1001
,
0000
0001
0000
1000
,
0000
0100
0000
0010
,
0010
0010
0000
0001
,
0001
0001
0000
1000
,
1000
1000
0000
0010
,
1001
0000
0001
0000
,
0100
0000
0010
0000
,
1001
0000
1000
0000
,
0100
0000
0010
0000
,
1001
0000
0001
0000
,
0100
0000
1000
0000
,
1001
0000
1000
0000
,
0010
0000
0001
0000
;

//--------------- dance-single - ----------------
#NOTES:
     dance-single:
     :
     Easy:
     8:
     0.30691,0.32801,0.131533,0.482287,0.008769,245,230,15,55,0,0,0.30691,0.32801,0.131533,0.482287,0.008769,245,230,15,55,0,0:
0000
0000
0000
0000
,
0000
0000
0000
0000
,
2000
3001
0002
1003
,
2000
0000
0000
0000
3001
0000
0000
0000
0002
0203
0320
2030
3001
0000
0000
0000
,
0001
0010
0100
0000
1000
0000
1000
0000
,
1000
0010
0100
0000
0001
0000
1001
0000
,
1000
0100
0010
0000
0001
0000
1001
0000
,
0001
0100
0010
0000
1000
0000
0200
0000
,
1000
0310
0001
0200
,
0001
0310
1000
0200
,
1000
0310
0001
0100
,
0100
0000
0100
0000
0010
0010
0020
0000
,
2030
0000
3001
0100
0001
0000
1000
0100
,
1000
0000
0001
0100
0001
0000
0020
0000
,
0032
0000
1003
0100
1000
0000
0001
0100
,
0001
0100
1001
0002
,
0023
0000
0130
1000
0100
0000
1000
0001
,
1000
0000
0010
1000
0010
0000
2000
0000
,
3020
0000
0130
0001
0100
0000
0001
1000
,
0001
0000
0010
0001
0010
0000
0200
0000
,
1300
0001
0200
0301
,
1000
0200
0310
0010
,
0200
1300
0001
1002
,
0100
0103
0010
2001
,
0100
3100
0010
0012
,
1000
0103
0010
2010
,
0001
0000
3100
0000
0010
0100
0020
0000
,
0001
0200
0330
0200
,
1000
0020
0330
0002
,
0100
2000
3003
2000
,
0010
0002
3003
0002
,
0013
2000
3010
0002
,
0103
0000
2000
0000
3100
0000
0001
0100
,
0010
1000
0200
0000
0300
0000
1000
0100
,
0010
0001
0200
0000
0310
0010
2000
0000
,
3020
0000
0130
0001
0010
0000
0011
0000
,
1100
1010
0101
0002
,
0023
0000
0130
1000
0010
0000
0100
0100
,
0100
0000
0010
0010
0010
0000
2000
0000
,
0100
3001
0010
0002
,
0100
1003
0010
2000
,
0100
0000
3001
0000
0010
0100
0010
0000
,
1002
0000
0203
0000
0301
0100
0010
0000
,
1000
0100
0010
0000
0001
0100
0010
0000
,
2001
0000
3200
0000
0310
0100
1000
0000
,
0010
0100
0001
0000
1000
0001
1000
0001
,
2000
0000
3200
0000
0310
0001
0100
0000
,
0010
1000
0100
0000
0110
0000
1001
0000
,
0002
0000
0203
0000
0310
1000
0100
0000
,
0010
0001
0100
0000
0100
0100
0100
0010
;

//--------------- dance-single - ----------------
#NOTES:
     dance-single:
     :
     Medium:
     10:
     0.400862,0.502949,0.263066,0.578744,0.100842,320,290,30,66,0,0,0.400862,0.502949,0.263066,0.578744,0.100842,320,290,30,66,0,0:
0000
0000
0000
0000
,
0000
0000
0000
0000
,
2001
0010
3000
0000
1002
0010
0003
0000
,
2001
0000
0010
0000
3000
0000
0000
0000
2000
3200
0320
0032
2003
0000
0000
0000
,
3001
0100
0010
1000
0010
0100
0002
0000
,
1003
0100
0010
0001
1000
0100
0002
0000
,
0103
0010
0001
1000
0001
0100
2000
0000
,
3100
0000
0010
0000
1000
0000
0001
0000
1000
0000
0100
0000
0020
0000
0000
0100
,
0000
0000
0130
0000
1000
0000
0000
0000
0001
0000
0100
0000
0020
0000
0000
0100
,
0000
0000
0130
0000
0001
0000
0000
0000
1000
0000
0100
0000
0020
0000
0000
0001
,
0000
0000
0130
0000
1000
0000
0000
0000
0001
0000
1000
0000
0020
0000
0000
1000
,
0000
0130
0001
0000
0100
0100
2001
0000
,
3200
0000
0310
0100
0020
0000
0001
0001
,
0032
0000
1000
1000
1003
0000
1002
0000
,
0203
0000
0310
0100
0020
0000
1000
1000
,
2030
0000
3001
0100
1000
0100
0002
0000
,
0023
0000
0130
1000
0002
0000
1000
1000
,
2003
0000
0010
0010
3010
0000
2001
0000
,
3020
0000
0130
0001
2000
0000
0001
0001
,
3002
0000
0013
1000
0010
0001
2000
0000
,
3001
0001
0001
0000
0002
0000
0103
0100
,
0100
0000
0200
0000
0310
0100
0010
0000
,
0020
0000
0000
0000
1030
0000
1000
0000
1000
0000
0000
0000
0001
0000
0000
0010
,
0000
0000
0200
0000
0000
0000
0310
0000
0010
0000
0100
0000
2000
0000
0000
3020
,
0000
0000
0230
0000
0000
0000
0310
0000
1000
0000
0010
0000
0001
0000
0000
0010
,
0000
0000
2000
0000
0000
0000
3001
0000
0001
0000
0010
0000
1000
0000
0000
0010
,
0000
0000
0002
0000
0000
0000
1003
0000
0010
0000
0100
0000
0001
0000
0000
0101
,
0000
0000
0021
0000
0000
0000
0130
0000
0010
0000
0100
0000
1000
0000
0000
1100
,
0000
0000
1020
0000
0000
0000
0130
0000
0001
0000
1000
0000
0100
0000
0000
0011
,
0000
0000
2100
0000
0000
0000
3100
0000
1000
0000
0001
0000
0100
0000
0000
1010
,
0000
0202
0000
0000
0303
0000
2001
0010
,
3001
0000
1002
0010
1003
0000
1002
0100
,
1003
0000
0000
0000
2001
0000
0010
0000
3001
0000
0000
0000
1000
0100
0000
1000
,
0100
0000
0110
0000
0002
0000
1000
0000
0000
0000
1003
0000
0001
0100
0000
0001
,
0100
0000
0110
0000
1000
0000
0010
1000
0100
0000
0110
0000
2001
0000
0000
0000
,
3020
0000
0031
0010
1000
0000
0110
0000
,
1001
0000
0000
0000
0010
0000
0000
0010
0000
0000
0010
0000
1002
0000
0000
0000
,
0023
0000
1030
0010
0001
0000
1000
1000
,
1000
0000
0000
0000
0001
0000
0001
0000
0001
0000
0000
0000
2000
0000
0000
0010
,
0000
0000
3001
0000
0100
0000
0000
0000
0010
0000
1000
0000
0002
0000
0000
0010
,
0000
0000
1003
0000
0100
0000
0000
0000
0010
0000
0001
0000
2000
0000
0000
0010
,
0000
3001
0100
0000
0001
1000
0100
0000
,
1200
0000
0001
0000
1000
1000
1300
0001
,
1000
0010
0200
0000
1300
0100
0001
0000
,
0201
0000
1000
0000
0001
0001
0301
1000
,
0001
0010
0200
0000
1300
0001
0100
0010
,
1020
0000
0001
0000
0100
0100
0130
0010
,
1000
0100
0020
0000
0130
0100
0100
0010
,
0021
0000
1000
0000
0100
0100
0130
0010
,
0001
0100
0020
0000
0130
0010
0100
1001
;

//--------------- dance-single - ----------------
#NOTES:
     dance-single:
     :
     Hard:
     12:
     0.501077,0.546683,0.368292,0.675202,0.311294,400,358,42,77,0,0,0.501077,0.546683,0.368292,0.675202,0.311294,400,358,42,77,0,0:
0000
0000
0000
0000
,
0000
0000
0000
0000
,
2001
3010
1000
0000
1002
0013
0001
0000
,
2001
0000
3010
0000
0100
0000
0001
0000
2000
3200
0320
0032
2003
0000
0000
3010
,
0100
0000
0001
0000
1000
0000
1000
0000
0100
0000
0010
0000
0002
0000
0000
0013
,
0100
0000
1000
0000
0001
0000
0001
0000
0100
0000
0010
0000
0002
0000
0000
0013
,
1000
0000
0001
0000
1000
0000
1000
0000
0100
0000
0010
0000
2000
0000
0000
3010
,
0001
0000
1000
0000
0001
0000
0001
0000
0100
0000
0010
0000
0200
0000
0000
0001
,
0000
0000
0310
0000
1000
0001
0000
1000
0001
0000
0010
0000
0200
0000
0000
1000
,
0000
0000
0310
0000
0001
1000
0000
0001
1000
0000
0010
0000
0200
0000
0000
1000
,
0000
0000
0310
0000
0100
0001
0000
0100
0001
0000
1000
0000
0200
0000
0000
0001
,
0000
0000
0310
0000
0100
0010
0000
0000
0110
0000
0110
0000
2001
0000
0000
0000
,
3020
0000
0000
0000
1000
0000
1000
0000
0230
0000
0000
0000
0301
1000
0001
0000
,
0020
0000
0001
0001
0130
1100
0002
0000
,
0203
0000
0000
0000
0001
0000
0001
0000
0320
0000
0000
0000
1030
0001
1000
0000
,
0200
0000
1300
0010
0110
0000
0002
0000
,
0023
0000
0000
0000
0001
0000
0001
0000
0230
0000
0000
0000
1300
0001
1000
0000
,
0020
0000
1000
1000
0130
0101
2000
0000
,
3200
0000
0000
0000
1000
0000
1000
0000
0320
0000
0000
0000
0031
1000
0001
0000
,
0200
0000
0000
0000
0310
0100
0010
0100
0010
0000
1001
0000
2000
0000
0000
0000
,
3001
0010
0100
1000
0002
0000
1003
0100
,
0010
0001
2000
0000
3001
0100
1000
0100
,
0002
0000
0000
0000
0103
0000
0010
0000
0100
0000
0010
0000
1002
0000
0000
0023
,
0000
0000
0230
0000
0310
0100
1000
0000
0001
0000
0001
0000
2000
0000
0000
3020
,
0000
0000
0230
0000
0310
0100
0001
0000
1000
0000
1000
0000
0200
0000
0000
0302
,
0000
0000
0203
0000
1300
0100
1000
0000
0001
0000
0001
0000
0200
0000
0000
2300
,
0000
0000
3200
0000
0301
0100
0001
0000
1000
0000
0001
0000
0011
0000
0000
0110
,
0000
0000
2200
0000
3300
0000
0001
0000
0100
0000
0010
0000
1010
0000
0000
0110
,
0000
0000
0202
0000
0303
0000
0001
0000
0010
0000
1000
0000
1010
0000
0000
0110
,
0000
0000
0022
0000
0033
0000
1000
0000
0010
0000
0001
0000
0011
0000
0000
0110
,
0000
2020
0000
0000
3030
0000
2001
0010
,
3001
0000
0000
0000
2001
0000
0100
0000
3001
1000
0001
0000
1002
0000
0010
0000
,
1003
0000
0000
0000
1002
0000
0100
0000
1003
0001
1000
0000
0002
0010
0000
1000
,
1000
0000
0103
0010
0200
0000
0001
0000
0310
1000
0001
0000
2000
0010
0000
0001
,
0001
0000
3100
0010
0100
0000
1000
0100
0001
0100
1000
0000
1001
0000
0000
1000
,
0010
0000
0000
0010
0001
0000
0010
0000
1000
0000
0000
0000
0101
0000
0000
0000
,
1100
0000
0000
0000
0001
0000
1000
0010
0000
0100
0001
0000
1001
0000
0000
0001
,
0010
0000
0000
0010
1000
0000
0010
0000
0001
0000
0000
0000
1000
0001
0100
0000
,
0010
0000
0000
0000
1000
0000
1000
0000
0001
0000
0001
0000
2000
0000
0000
0100
,
0000
0000
3001
0000
0010
0100
0000
0010
1000
0000
0010
0000
0002
0000
0000
0100
,
0000
0000
1003
0000
0010
0100
0000
0010
0001
0000
0010
0000
2000
0000
0000
0100
,
0000
0000
3001
0000
1000
0100
0000
0010
0001
0000
0100
0000
0110
0000
0001
0001
,
1002
0000
0023
0000
0001
0100
0031
0011
,
1000
0001
1000
0000
0020
0000
0000
0000
0130
0000
0010
0000
0100
0000
0101
0000
,
2000
0000
3020
0000
1000
0100
1030
1010
,
0001
1000
0001
0000
0020
0000
0000
0000
0130
0000
0100
0000
1001
0000
1001
0000
,
0002
0000
0203
0000
1000
0010
0301
0101
,
1000
0010
1000
0000
0002
0000
0000
0000
1003
0100
1000
0000
0001
0100
0001
0000
,
2001
0000
3200
0000
0001
0010
1300
1100
,
0001
0010
0001
0000
2000
0000
0000
0000
3010
0100
0010
0100
0010
0000
1001
0000
;

//--------------- dance-single - ----------------
#NOTES:
     dance-single:
     :
     Challenge:
     15:
     0.687729,0.854963,0.569975,0.605051,0.776043,549,484,65,69,0,0,0.687729,0.854963,0.569975,0.605051,0.776043,549,484,65,69,0,0:
0000
0000
0000
0000
,
0000
0000
0000
0000
,
2001
0000
0000
0000
3010
0000
0000
0010
0100
0000
0100
0000
0000
0000
0001
0000
1000
0000
0000
0000
0100
0000
0000
0010
0000
0001
0100
0000
0010
0000
1000
0000
,
1002
0000
0000
0000
0013
0000
0000
0010
0100
0000
0100
0000
0000
0000
0010
0000
0011
0000
1100
0000
1010
0000
0101
0000
1002
0000
0000
0000
0000
0000
0013
0000
,
0100
0000
0010
0001
0000
0001
1000
0001
0100
0000
0001
0000
2001
0000
0000
3010
,
0100
0000
0010
1000
0000
1000
0001
1000
0100
0000
0010
0000
0021
0000
0000
1030
,
0010
0000
0100
1000
0000
0001
0100
0010
1000
0000
0010
0000
1020
0000
0000
0031
,
0010
0000
0100
0000
0001
1000
0100
0000
0010
0000
0001
0000
1000
0000
0010
0100
,
0000
0010
0001
0000
0010
0100
0000
0010
1000
0000
1010
0000
0001
0000
0010
0100
,
0000
0010
1000
0000
0010
0100
0000
0010
0001
0000
0011
0000
1000
0000
0100
0010
,
0000
0100
0001
0000
0100
0010
0000
0100
1000
0000
1001
0000
0001
0000
0100
0010
,
0000
0100
1000
0000
0100
0010
0100
0001
1000
0000
1000
0000
2001
0000
0000
0000
,
3200
0000
0000
0000
0310
0100
0010
0000
0001
0000
0011
0000
1000
0001
0100
0000
,
0001
0000
0001
0000
0100
0001
1000
0001
0010
0000
0011
0000
0002
0000
0000
0000
,
0203
0000
0000
0000
0310
0100
0010
0000
1000
0000
1010
0000
0001
1000
0100
0000
,
1000
0000
1000
0000
0100
1000
0010
0000
1010
0000
0001
0000
0021
0000
0000
0000
,
0230
0000
0000
0000
0310
0001
0100
0000
0001
0000
0101
0000
1000
0100
0010
0000
,
0100
0000
0100
0000
0010
0001
1000
0001
0100
0000
0101
0000
0020
0000
0000
0000
,
0230
0000
0000
0000
0310
1000
0100
0000
1000
0000
1100
0000
0001
0100
0010
0000
,
0100
0000
0100
0000
0010
1000
0010
1000
0001
1000
0100
0000
0020
0000
0000
0000
,
0031
0010
0001
0010
0001
0010
0002
0000
0000
0000
0000
0000
1003
0010
1000
0010
,
1000
0010
2000
0000
0000
0000
0000
0000
3001
0100
0010
1000
0100
0010
0002
0000
,
0000
0000
0000
0000
0103
0010
0100
0010
0100
0010
1000
0000
1002
0000
0000
0023
,
0000
0000
2030
3010
0100
0010
0100
0010
0001
1000
0100
0000
0002
0000
0000
0203
,
0000
0000
2300
0000
3001
0010
0100
1000
0001
0100
0010
0000
2000
0000
0000
3020
,
0000
0000
0032
0013
0100
0010
0100
0010
1000
0001
0100
0000
2000
0000
0000
3200
,
0000
0000
0302
0000
1003
0010
0100
0001
1000
0100
0010
0000
0011
0000
0000
0110
,
0000
0000
2200
0000
3300
0000
1000
0001
0100
0000
0101
0000
1010
0000
0000
0110
,
0000
0000
0202
0000
0303
0000
0001
1000
0100
0000
1100
0000
0011
0000
0000
1001
,
0000
0000
2020
0000
3030
0000
0010
0100
0010
0000
1010
0000
0101
0000
0000
0011
,
0000
0000
2200
0000
0000
0000
3300
0000
0001
1000
0001
0000
2000
0010
3002
0100
,
1003
0000
0010
0000
1000
0000
0010
0000
1000
0000
0010
0000
2000
0000
0000
0010
0000
0000
3002
0000
0000
0010
0000
0000
0003
0000
0000
0000
0000
0000
1001
0000
0000
1001
0000
0000
0002
0000
0000
0010
0000
0000
2003
0000
0000
0100
0000
0000
,
3001
0000
0000
0000
0010
0000
0000
0000
0001
0000
0000
0000
0010
0000
0000
0000
0001
0000
0000
0000
0010
0000
0000
0000
0002
0000
0000
0000
0000
0000
0010
0000
0000
0000
0000
0000
2003
0000
0000
0000
0000
0000
0010
0000
0000
0000
0000
0000
3001
0000
0000
0000
0000
0000
0000
0000
0000
0000
0000
0000
1001
0000
0000
0000
0000
0000
0110
0000
0000
0000
0000
0000
1001
0000
0000
0000
0000
0000
1000
0000
0000
0000
0000
0000
0000
0000
0000
0010
0000
0000
0000
0000
0000
1000
0000
0000
,
0010
0000
0100
0001
0010
0000
0100
0000
2000
0000
0001
0000
3020
0000
0100
0000
0030
0000
0000
0000
0101
0000
1001
0000
1100
0000
0001
0000
0000
0010
0000
0001
,
0010
0000
0100
1000
0010
0000
0100
0000
0002
0000
0000
0000
0100
0000
1000
0000
0013
0100
0010
0000
0100
0000
0000
0000
2001
0000
0000
0000
3000
0000
0001
0000
,
0200
0000
0300
0001
1000
0001
0010
0000
0100
0000
0100
0000
0011
0000
1000
0000
,
1010
0000
0001
0000
1001
0000
0100
0010
0000
0010
0100
0000
1002
0000
0003
1000
,
0200
0000
0300
1000
0001
1000
0010
0000
0100
0000
0100
0000
0001
1000
0100
0000
,
0020
0000
0000
0000
0031
0000
0100
0000
0010
0000
1000
0000
0001
0000
0010
1000
,
0000
0010
0001
0000
0100
1000
0000
0100
0001
0000
0101
0000
1000
0000
0010
0001
,
0000
0010
1000
0000
0100
0001
0000
0100
1000
0000
1100
0000
0001
0000
0010
1000
,
0000
0010
0001
0000
0100
1000
0000
0100
0001
0000
0110
0000
1001
0000
0001
0001
,
0021
0000
0000
0000
2030
0000
0000
0000
3010
0100
0010
0001
1000
0000
2001
0000
,
3010
0100
0010
0000
0100
0000
0100
0000
1000
0100
0010
0100
0001
0000
2001
0000
,
3020
0000
0000
0000
0032
0000
0000
0000
0013
0100
0010
1000
0001
0000
1002
0000
,
0013
0100
0010
0000
0100
0000
0100
0000
0001
0100
0001
0100
1000
0001
0010
0100
,
2000
0000
0000
0000
3020
0000
0000
0000
0031
0010
0100
0010
1000
0000
2001
0000
,
3100
0010
0100
0000
0001
0000
0100
0010
0001
1000
0010
0100
0001
0010
0100
1000
,
0002
0000
0000
0000
0023
0000
0000
0000
1030
0010
0100
0010
0001
0000
1002
0000
,
0103
0010
0100
0000
1000
0000
0100
0010
1000
0010
0100
0001
0010
0000
0220
0000
,
0330
0000
0000
0000
;
