#TITLE:BEYOND THE EARTH;
#SUBTITLE:;
#ARTIST:猫叉Master;
#TITLETRANSLIT:;
#SUBTITLETRANSLIT:;
#ARTISTTRANSLIT:;
#GENRE:;
#CREDIT:;
#BANNER:Beyond The Earth.png;
#BACKGROUND:Beyond The Earth-bg.png;
#LYRICSPATH:;
#CDTITLE:;
#MUSIC:Beyond The Earth.ogg;
#OFFSET:-0.949000;
#SAMPLESTART:98.450996;
#SAMPLELENGTH:15.000000;
#SELECTABLE:YES;
#BPMS:0.000000=140.000000
;
#STOPS:65.500000=0.429000
;
#BGCHANGES:;
#KEYSOUNDS:;
#ATTACKS:;

//---------------dance-single - ----------------
#NOTES:
     dance-single:
     :
     Beginner:
     3:
     0.124021,0.249049,0.065111,0.000000,0.000000,120.000000,111.000000,9.000000,0.000000,0.000000,0.000000,0.124021,0.249049,0.065111,0.000000,0.000000,120.000000,111.000000,9.000000,0.000000,0.000000,0.000000:
0000
0000
0000
0000
,
0000
0000
0000
0000
,
0000
0000
0000
0000
,
0000
0000
0000
0000
,
0000
0000
0000
0000
,
1000
0000
0000
0000
,
0001
0000
0100
0000
,
0001
0000
0000
0000
,
0010
0000
0010
0000
,
1001
0000
0000
0000
,
1000
0000
0100
0000
,
1000
0000
0000
0000
,
0001
0000
0010
0000
,
0001
0000
0000
0000
,
1000
0000
0010
0000
,
1000
0000
0000
0000
,
0100
0000
0000
1001
,
0000
0000
0000
0001
,
0000
0000
0000
0100
,
0000
0000
0000
0010
,
0000
1000
0000
0010
,
0000
0000
0000
1000
,
0000
0000
0000
0100
,
0000
0000
0000
0010
,
0000
0001
0000
0010
,
0000
0000
0000
0001
,
0000
0000
0000
0100
,
0000
0001
0000
0100
,
0000
0000
0000
0010
,
0000
0000
0000
1000
,
0000
0100
0000
1000
,
0000
0000
0000
0001
,
0000
0100
0000
1001
,
0000
0000
0000
1000
,
0000
0100
0000
1000
,
0000
0000
0000
0001
,
0000
0010
0000
0001
,
0000
0000
0000
1000
,
0000
0010
0000
1000
,
0000
0000
0000
0001
,
0000
0001
0000
0100
,
0000
0010
0000
1000
,
0000
0010
0000
0100
,
0000
0001
0000
0010
,
0000
0001
0000
0100
,
0000
0010
0000
1000
,
0000
0001
0000
1001
,
0000
0110
0000
1000
,
0001
1000
0000
1001
,
0000
0000
0000
0001
,
0000
0000
0000
0100
,
0000
0000
0000
0010
,
0000
0000
0000
1001
,
0000
0000
0000
1000
,
0000
0000
0000
0100
,
0000
0000
0000
0110
,
0000
0000
0000
1000
,
0000
0001
0000
0100
,
0000
0010
0000
1000
,
0000
0001
0000
0010
,
0000
0000
0000
0100
,
0000
1000
0000
0001
,
0000
0100
0000
0001
,
0000
0000
0000
0010
,
0000
0100
0000
1000
,
0000
0010
0000
1000
,
0000
0100
0000
0010
,
0000
0001
0000
0100
,
0000
0000
0000
0010
,
0000
1000
0000
0001
,
0000
0010
0000
0001
,
0000
0000
0000
0100
,
0000
0000
0000
1001
,
0000
1000
0000
0001
,
0000
1000
0000
0100
,
0000
0010
0000
0001
,
0000
0100
0100
0000
;

//---------------dance-single - ----------------
#NOTES:
     dance-single:
     :
     Easy:
     6:
     0.201533,0.249863,0.065111,0.217036,0.000000,195.000000,186.000000,9.000000,30.000000,0.000000,0.000000,0.201533,0.249863,0.065111,0.217036,0.000000,195.000000,186.000000,9.000000,30.000000,0.000000,0.000000:
0000
0000
0000
0000
,
0000
0000
0000
0000
,
0000
0000
0000
0000
,
0000
0000
0000
0000
,
0000
0000
0000
0000
,
1000
0000
0001
0100
,
0001
0010
0001
0000
,
1000
0000
0010
0000
,
0100
0100
0100
0000
,
1001
0000
1000
0100
,
1000
0001
0010
0000
,
0100
0000
0010
0001
,
1000
1000
1000
0000
,
1001
0000
0001
0100
,
0001
1000
0010
0000
,
0100
0000
0001
0000
,
0010
0010
0000
0002
,
0000
1003
0000
0200
,
0000
1300
0000
0002
,
0000
0013
0000
0001
,
0100
0002
0000
2003
,
0000
3010
0000
2000
,
0000
3100
0000
2000
,
0000
3001
0000
0100
,
0001
0100
0100
0002
,
0003
0200
0300
0020
,
0030
1000
0001
2000
,
3000
0200
0300
0020
,
0000
0000
0030
0002
,
0003
0020
0030
0200
,
0300
1000
0001
2000
,
0000
0000
3000
0010
,
0100
0001
1000
0100
,
0000
0010
0000
0001
,
0100
0001
0000
1000
,
0010
1000
0000
0100
,
0100
0100
0000
0110
,
0000
0010
0000
0001
,
1000
0001
0000
0100
,
0000
0010
0000
1000
,
1000
1000
0000
1001
,
0000
0001
0100
0001
,
0000
0001
0010
0001
,
0000
0001
1000
0001
,
0000
0001
0100
0010
,
0000
1000
0000
0001
,
0000
0010
0000
1001
,
0000
0110
0000
1000
,
0001
1001
0000
2000
,
0000
3000
0000
0002
,
0000
0003
0000
0200
,
0000
0300
0000
0020
,
0030
0200
0300
0002
,
0000
0003
0000
2000
,
0000
3000
0000
0200
,
0000
0300
0000
0110
,
0000
1000
0001
1000
,
0100
1000
0010
1000
,
0001
0010
0100
0010
,
0001
0100
0001
2000
,
0000
0000
3000
0001
,
0100
0001
0010
0001
,
1000
0010
0100
0010
,
1000
0100
1000
0002
,
0000
0000
0003
0010
,
0100
1000
0100
0010
,
0001
0100
0001
1000
,
0100
0010
0001
0200
,
0000
0000
0300
0010
,
0100
0001
0100
0010
,
1000
0100
1000
0001
,
0100
0010
1000
0200
,
0000
0000
0300
1001
,
0000
1000
0100
1000
,
0000
0001
0100
0001
,
0000
0010
0000
0100
,
0000
1000
0002
0003
;

//---------------dance-single - ----------------
#NOTES:
     dance-single:
     :
     Medium:
     10:
     0.379296,0.471963,0.217036,0.448541,0.065111,367.000000,337.000000,30.000000,62.000000,0.000000,0.000000,0.379296,0.471963,0.217036,0.448541,0.065111,367.000000,337.000000,30.000000,62.000000,0.000000,0.000000:
0000
0000
0000
0000
,
0000
0000
0000
0000
,
0000
0000
0000
0000
,
0000
0000
0000
0000
,
0000
0000
0000
0000
,
2002
3003
0001
1000
,
0100
0000
0010
0001
0010
0000
0100
0000
,
2000
0000
3010
0100
,
0001
0000
0000
0001
0000
0000
0001
0000
0000
0000
0000
0000
1001
0000
0000
0000
,
0220
0000
0330
0000
1000
0100
1000
0000
,
0001
0000
0010
0000
0001
0100
0001
0000
,
0010
0000
0100
0000
1000
0001
1000
0000
,
0010
0000
0000
0010
0000
0000
0010
0000
0000
0000
0000
0000
0100
0000
0000
0000
,
2002
0000
3003
0000
1000
0100
1000
0000
,
0010
0000
0100
0000
0001
0010
0001
0000
,
2000
0000
3010
0100
,
0001
0000
0000
1000
0000
0000
1001
0000
0000
0000
0000
0000
1000
0000
0000
0000
,
0100
1000
0100
0000
0010
0000
0001
0000
,
0100
0001
0100
0000
0010
0000
1000
0000
,
0001
0010
0001
0000
0100
0000
0220
0000
,
0330
2002
0000
3003
0000
0000
0001
0000
,
0100
0010
0100
0000
0001
0000
1000
0000
,
0100
0010
0100
0000
1000
0000
0001
0000
,
0010
0100
0010
0000
0001
0000
0220
0000
,
0330
2002
0000
3003
0000
1000
0020
0000
,
0030
0100
0002
0000
0003
0010
0200
0000
,
0300
1000
0001
1000
0001
0000
0200
0000
,
0300
0010
2000
0000
3000
0001
0020
0000
,
0000
0000
0000
0000
0030
0100
2000
0000
,
3000
0001
0200
0000
0300
0010
2000
0000
,
3000
0001
0010
0001
0100
0000
0020
0000
,
1000
0000
1000
0000
0030
1000
0002
0000
,
0023
0230
1300
1001
,
0001
0100
0001
0000
0010
0000
0100
0000
,
1000
0010
1000
0000
0001
0010
0001
0000
,
0100
0000
0010
0000
0100
0000
0000
0000
0001
0000
0000
0000
0010
0000
0000
0010
,
0000
0010
0000
0000
0110
0000
1000
0000
,
0100
1000
0100
0000
0010
0000
0001
0000
,
0100
0001
0100
0000
0010
1000
0020
0000
,
1000
0000
0000
0000
1030
0000
0000
0000
0001
0000
0000
0000
0010
0000
0000
0100
,
0000
0110
0000
0000
0000
0000
1000
0100
,
1000
0000
1000
0010
1000
0000
1000
0001
,
1000
0000
0100
0010
0001
0000
0001
0100
,
0001
0100
0001
1000
0001
1000
0001
0010
,
0001
0000
0010
0000
0001
0000
1000
0000
0001
0000
0000
0000
0100
0000
0000
0100
,
0000
0000
0000
0000
0010
0000
0000
0010
0000
0000
0000
0000
1000
0000
0000
1000
,
0000
0000
0000
0000
0001
0000
0000
0001
0000
0000
0000
0000
1001
0000
0000
1001
,
0000
0000
0000
0000
0000
0000
0000
0000
0000
0000
0000
0000
0110
0000
0000
0000
0000
0000
0000
0000
0000
0110
0000
0000
0000
0000
0000
0000
0000
0000
0000
0000
0000
0000
0000
0000
1000
0000
0000
0000
0001
0000
0000
0000
1000
0000
0000
0000
,
0001
1001
0110
0001
,
1000
0100
1000
0001
,
0100
0001
0010
0001
,
1000
0010
0100
0220
,
0330
2002
0000
3003
0000
0000
0001
0000
,
0010
0001
0100
0010
,
1000
0001
0010
0100
,
1000
0001
1000
0110
,
0000
0000
0000
0000
0001
0000
0000
0001
0000
0000
0100
0000
0002
0000
0000
0000
,
0013
0100
2000
0000
3010
0100
0002
0000
,
1003
0100
1000
0001
0200
0000
0320
0000
,
1030
0001
0020
0000
0130
1000
0020
0000
,
0100
0000
0130
0000
1000
0001
0020
0000
,
0130
0010
0002
0000
1003
0001
0200
0000
,
0310
1000
0001
1000
0200
0000
0320
0000
,
0001
0000
0031
0000
0100
1000
0002
0000
,
0100
0000
1000
0000
0013
0001
0200
0000
,
0310
1000
0002
0000
0013
0100
2000
0000
,
3001
0100
0010
1000
0002
0000
0023
0000
,
0130
1000
0002
0000
0103
0010
2000
0000
,
0100
0000
3100
0000
0010
0001
2000
0000
,
3010
0100
0002
0000
1003
0100
2000
0000
,
3001
0100
0010
1000
0002
0000
0023
0000
,
0100
0000
0130
0000
0001
1000
0020
0000
,
0100
1030
0110
1001
,
1000
0100
1000
0000
0001
0100
0001
0000
,
0010
0000
0100
0000
0010
0000
0000
0000
0001
0000
0000
0000
1100
0000
0000
1100
,
0000
0000
0000
0000
0101
0000
0000
0101
0000
0000
0000
0000
0110
0000
0000
0110
,
0000
0000
0000
0000
1000
0001
0000
0000
2002
0000
0000
0000
3003
0000
0000
0000
;

//---------------dance-single - ----------------
#NOTES:
     dance-single:
     :
     Hard:
     14:
     0.581863,0.666300,0.267678,0.267678,0.347257,563.000000,526.000000,37.000000,37.000000,0.000000,0.000000,0.581863,0.666300,0.267678,0.267678,0.347257,563.000000,526.000000,37.000000,37.000000,0.000000,0.000000:
// measure 0
0000
0000
0000
0000
,  // measure 1
0000
0000
0000
0000
,  // measure 2
0000
0000
0000
0000
,  // measure 3
0000
0000
0000
0000
,  // measure 4
0000
0000
0000
0000
0000
0000
0000
1000
,  // measure 5
0100
0000
2000
0000
3000
0001
0010
0000
0001
0000
0100
0000
0010
0000
1000
0000
,  // measure 6
0100
0000
0010
0000
0001
0000
1000
0000
0010
0000
0000
0010
0100
0000
0001
0000
,  // measure 7
0020
0000
0000
0000
0000
0000
0030
0100
1000
0000
0000
1000
0010
0000
0000
0010
,  // measure 8
0100
0000
0000
0110
0000
0000
1001
0000
0000
0000
0001
0000
0010
0000
0100
0000
,  // measure 9
1000
0000
0200
0000
0300
1000
0010
0000
0100
0000
0001
0000
0010
0000
0001
0000
,  // measure 10
0100
0000
0010
0000
1000
0000
0001
0000
0010
0000
0000
0010
0100
0000
1000
0000
,  // measure 11
0010
0000
0000
0010
0100
0000
0001
0000
1000
0000
0000
1000
0100
0000
0010
0000
,  // measure 12
0001
0000
0000
0101
0000
0000
0010
0000
1000
0000
1000
0000
0100
0000
0010
0000
,  // measure 13
1001
0000
0002
0000
0003
0100
0010
0000
1000
0000
0100
0000
1000
0000
0010
0000
,  // measure 14
0100
0000
0001
0000
0010
0000
0001
0000
0100
0000
0000
0100
0010
0000
1000
0000
,  // measure 15
0002
0000
0000
0000
0000
0000
0003
0010
0100
0000
0000
1000
0100
0000
0010
0000
,  // measure 16
0001
0000
0000
0110
0000
0000
1001
0000
0000
0000
0000
0000
1000
0000
0010
0000
,  // measure 17
1000
0100
1000
0010
0100
0001
0010
0100
,  // measure 18
1000
0100
0010
0001
1000
0010
0100
0001
,  // measure 19
0010
0001
0100
0010
1000
0001
0010
0200
,  // measure 20
0000
1300
0002
0000
0003
0000
0100
0010
,  // measure 21
0100
0001
0010
0001
1000
0010
1000
0100
,  // measure 22
0010
0001
0100
0010
1000
0001
0010
0100
,  // measure 23
1000
0001
0100
0010
1000
0100
0010
0002
,  // measure 24
0000
0000
1003
0000
0020
0000
0000
0000
0030
0000
0100
0001
0200
0000
0000
0000
,  // measure 25
0300
0000
0010
1000
0020
0000
0000
0000
0030
0000
1000
0100
2000
0000
0000
0000
,  // measure 26
3000
0000
0001
0010
0001
0000
1000
0000
0010
0000
0000
0010
0200
0000
0000
0000
,  // measure 27
0300
0000
0001
0010
0002
0000
0000
0000
0003
0000
1000
0010
2000
0000
0000
0000
,  // measure 28
0100
0000
0000
0000
0001
0000
0000
0000
3010
0000
1000
0010
2000
0000
0000
0000
,  // measure 29
3000
0000
0001
0010
0002
0000
0000
0000
0003
0000
0100
0010
0200
0000
0000
0000
,  // measure 30
0300
0000
0001
1000
0001
0000
0010
0000
0100
0000
0000
0100
0020
0000
0000
0000
,  // measure 31
0001
0000
0000
0000
0100
0000
0000
0000
0031
0000
1000
0100
1000
0000
1000
0000
,  // measure 32
0001
0001
0100
0010
1001
0000
0001
0200
,  // measure 33
0300
0010
1000
0000
0001
0000
0010
0000
0100
0000
0010
0000
0001
0000
0100
0000
,  // measure 34
1000
0000
0100
0000
0010
0000
0000
0010
1000
0000
0001
0000
0010
0000
0000
0010
,  // measure 35
0100
0000
1000
0000
0001
0000
0000
0001
0100
0000
0010
0000
1000
0000
0000
1100
,  // measure 36
0000
0001
0010
0010
0001
0100
1001
2000
,  // measure 37
3000
0010
0100
0000
0001
0000
0010
0000
0001
0000
1000
0000
0010
0000
0001
0000
,  // measure 38
0010
0000
1000
0000
0100
0000
0000
0100
1000
0000
0001
0000
0200
0000
0000
0000
,  // measure 39
0010
0000
0300
0001
1000
0000
0000
0100
0010
0000
0000
0001
0100
0000
0000
0110
,  // measure 40
0000
0000
1001
0000
0000
0000
1000
0000
0100
0000
0010
0000
0001
0000
0100
0001
,  // measure 41
0100
0000
0010
0000
1000
0000
0010
1000
0010
0000
0100
0000
0001
0000
0010
0001
,  // measure 42
0010
0000
0100
0000
1000
0000
1000
0000
1000
0000
0010
0000
0100
0001
0100
0000
,  // measure 43
0001
0010
0001
0000
1000
0010
1000
0000
0100
1000
0100
0000
0010
0100
0000
0100
,  // measure 44
1000
0000
1000
0001
0000
0001
0100
0000
0100
0000
0010
0000
1001
0000
0000
1001
,  // measure 45
0000
0000
0000
0000
1000
0100
0000
1100
0000
0000
0000
0000
1001
0000
0000
1001
,  // measure 46
0000
0000
0000
0000
0001
0100
0000
0101
0000
0000
0000
0000
1010
0000
0000
1100
,  // measure 47
0000
0000
0000
0000
0000
0000
0000
0000
0000
0000
0000
0000
0011
0000
0000
0000
0000
0000
0000
0000
0000
0101
0000
0000
0000
0000
0000
0000
0000
0000
0000
0000
0000
0000
0000
0000
0010
0000
0000
0000
0100
0000
0000
0000
0010
0000
0000
0000
,  // measure 48
0100
0010
0110
0000
1001
0000
2010
0000
,  // measure 49
3100
1000
0010
0200
,  // measure 50
0301
0010
0001
0200
,  // measure 51
0310
0000
1000
0000
0001
0000
0010
0200
,  // measure 52
0000
1300
0002
0000
0003
0000
0012
0000
,  // measure 53
0103
0010
1000
0200
,  // measure 54
0310
0001
1000
0020
,  // measure 55
0130
0001
0010
0220
,  // measure 56
0330
0000
0000
0000
1001
0000
0000
0110
0000
0000
1000
0100
1000
0000
0001
0000
,  // measure 57
0010
0000
0001
0100
0001
0000
1000
0000
0100
0000
1000
0010
1000
0000
0001
0000
,  // measure 58
0100
0000
0001
0010
0001
0000
0100
0000
0010
0000
0000
0010
1000
0000
0100
0000
,  // measure 59
1000
0000
0010
0100
0010
0000
1000
0000
0001
0000
0010
0100
1000
0000
0010
0000
,  // measure 60
1000
0000
0001
0000
0010
0000
0100
0000
0010
0000
0001
1000
0001
0000
0100
0000
,  // measure 61
0010
0000
1000
0010
1000
0000
0001
0000
0010
0000
0100
1000
0100
0000
0010
0000
,  // measure 62
0001
0000
1000
0010
1000
0000
0001
0000
0010
0000
0000
0010
0100
0000
1000
0000
,  // measure 63
0001
0000
1000
0000
0010
0000
0100
0000
0001
0000
1000
0100
0020
0000
0000
0000
,  // measure 64
0032
0000
0000
0000
2003
0000
0000
0000
3010
0000
0100
0001
1000
0000
0100
0000
,  // measure 65
0010
0000
0001
1000
0010
0000
0100
0000
0001
0000
1000
0100
0010
0000
0100
0000
,  // measure 66
1000
0000
0001
0100
0010
0000
1000
0000
0001
0000
0000
0001
0010
0000
0100
0000
,  // measure 67
1000
0000
0001
0100
0010
0000
1000
0000
0001
0000
0010
0100
1000
0000
0001
0000
,  // measure 68
0100
0000
0010
0000
1000
0000
0001
0000
0010
0000
0100
1000
0001
0000
0100
0000
,  // measure 69
0010
0000
1000
0001
0010
0000
0100
0000
0010
0000
0001
0100
0010
0000
1000
0000
,  // measure 70
0001
0000
1000
0100
0010
0000
0100
0000
1000
0000
0000
1000
0010
0000
0100
0000
,  // measure 71
0001
0000
0010
0000
0001
0000
1000
0000
0010
0000
0100
0001
1000
0000
1000
0000
,  // measure 72
0100
0000
0100
0000
0010
0000
0001
0000
1001
0000
0000
0000
0001
0000
0100
0001
,  // measure 73
0100
0000
0010
0000
1000
0000
0010
1000
0010
0000
0100
0000
0001
0000
0010
0001
,  // measure 74
0010
0000
0100
0000
1000
0000
0100
1000
0100
0000
0010
0000
0011
0000
0000
0101
,  // measure 75
0000
0000
0010
0000
1010
0000
0000
1100
0000
0000
0010
0000
0110
0000
0000
1001
,  // measure 76
0000
0000
0110
0000
0010
0100
0000
0000
2002
0000
0000
0000
3003
0000
0000
0000
;
