#TITLE:BEAT PRISONER;
#SUBTITLE:;
#ARTIST:AJURIKA;
#TITLETRANSLIT:;
#SUBTITLETRANSLIT:;
#ARTISTTRANSLIT:;
#GENRE:;
#CREDIT:;
#MUSIC:BEAT PRISONER.ogg;
#BANNER:BEAT PRISONER.png;
#BACKGROUND:BEAT PRISONER-bg.png;
#CDTITLE:CDtitle.png;
#SAMPLESTART:13.465;
#SAMPLELENGTH:12.403;
#SELECTABLE:YES;
#OFFSET:0.470;
#BPMS:0.000=155.000
,129.000=77.500
,145.000=38.750
,149.000=155.000
;
#STOPS:31.750=1.161
,160.750=1.548
;
#BGCHANGES:4.000=BEAT PRISONER.mp4=1.000=0=0=1,
99999.000=-nosongbg-=1.000=0=0=0=StretchNoLoop====
;
#FGCHANGES:;

//--------------- dance-single - ----------------
#NOTES:
     dance-single:
     Pandemonium X:
     Beginner:
     4:
     0.129693,0.347835,0.133262,0,0,109,93,16,0,0,0,0.129693,0.347835,0.133262,0,0,109,93,16,0,0,0:
0000
0000
0000
0000
,
0000
0000
0000
0000
,
0000
0000
0000
0000
,
0000
0000
0000
0000
,
0000
0000
0000
0000
,
0001
0000
0001
0000
,
1000
0000
1000
0000
,
0010
0000
0010
0010
,
0000
0100
0000
0000
,
0000
0010
0000
0000
,
0000
1000
0000
0000
,
0000
0001
0000
0000
,
0000
0010
0000
0000
,
0000
0001
0000
0000
,
0000
1000
0000
0000
,
0000
0010
0000
0000
,
0000
0110
0000
0000
,
0000
1001
0000
0000
,
0000
0001
0000
0000
,
0000
1000
0000
0000
,
0000
0010
0000
0000
,
0000
0100
0000
0000
,
0000
0010
0000
0000
,
0000
1000
0000
1000
,
0000
0001
0000
0000
,
0000
0001
0000
0000
,
0000
0001
0000
0000
,
0000
0001
0000
0000
,
0000
1000
0000
0000
,
0000
1000
0000
0000
,
0000
1000
0000
0000
,
0000
1000
0000
1001
,
0110
1001
0001
1000
,
0001
0100
0010
1000
,
1000
0001
1000
0100
,
0010
0001
0010
0100
,
0100
1001
1001
1001
,
1001
0001
0000
1000
,
0000
0010
0000
0100
,
0000
0010
0000
1000
,
0001
1001
0000
0000
,
0000
0001
0000
0000
,
0000
0100
0000
0000
,
0000
0010
0000
1000
,
0000
1001
0000
0000
,
0000
0001
0000
0000
,
0000
0100
0000
0000
,
0000
0010
0000
0100
,
0000
1001
0000
0000
,
0000
0001
0000
0000
,
0000
1000
0000
0000
,
0000
0010
0000
0100
,
0000
0110
0000
0000
,
0000
0001
0000
0000
,
0000
1000
0000
0000
,
0000
0100
0000
1000
,
0000
0110
0000
0000
,
0000
0001
0000
0000
,
0000
1000
0000
0000
,
0000
0100
0000
1000
,
0000
1001
0000
0000
,
0000
0001
0000
0000
,
0000
0100
0000
0010
,
0000
1000
0000
0001
,
0000
0110
0000
0000
;

//--------------- dance-single - ----------------
#NOTES:
     dance-single:
     Pandemonium X:
     Easy:
     7:
     0.286752,0.456631,0.199893,0.124933,0,241,217,24,15,0,0,0.286752,0.456631,0.199893,0.124933,0,241,217,24,15,0,0:
0000
0000
0000
0000
,
0000
0000
0000
0000
,
0000
0000
0000
0000
,
0000
0000
0000
0000
,
0000
0000
0000
0000
,
0001
1001
1000
1001
,
0001
1001
1000
1001
,
0101
0000
1010
0000
1100
0000
0100
0010
,
0000
0100
1000
0010
,
0100
0001
0010
0001
,
0100
0010
1000
0001
,
0010
0100
1000
0100
,
1000
0010
0100
0001
,
0100
0001
0010
0100
,
0010
0100
1000
0001
,
1000
0000
0001
0000
0000
0001
0000
0000
,
0000
1000
0010
0100
,
0010
1000
0001
1000
,
0001
0010
0100
0010
,
0001
0100
0010
0100
,
0010
1000
0010
0001
,
0010
1000
0001
1000
,
0001
0100
1000
0100
,
0001
1000
0001
0100
,
0010
2000
0000
0000
,
3000
0002
0000
0000
,
0003
0020
0000
0000
,
0030
0200
0000
0000
,
0300
2000
0000
0000
,
3000
0200
0000
0000
,
0300
0020
0000
0000
,
0030
0000
0002
0000
0000
0000
1003
0100
,
0010
0001
1000
0000
0001
0000
0100
0001
,
0100
0000
0010
0000
1000
0100
2000
0000
,
0002
3000
1003
0000
0001
0000
1000
0010
,
1000
0000
0010
0000
0100
0001
0200
0000
,
0020
0330
1001
0000
1001
0000
1001
0000
,
1001
0110
0001
0000
1001
0000
1000
0000
,
1001
0010
0110
0100
,
0110
0101
1001
1100
,
1000
0001
0010
0000
0001
0000
0100
0000
,
1000
0100
0010
1000
,
0001
0000
0010
0000
0000
0010
0000
0000
,
0000
0100
1000
0010
,
0100
0001
1000
0100
,
0001
0100
0010
0001
,
0100
0010
1000
0001
,
1000
0200
0000
0000
,
0300
1000
0010
0001
,
0100
0001
1000
0100
,
1000
0000
0110
0000
0000
0110
0000
0000
,
0001
1000
0100
1000
,
0020
0031
0010
1000
,
0100
0010
0001
0100
,
0010
1000
0001
0010
,
0100
1000
0100
0010
,
0001
1001
0001
1000
,
0100
0001
0100
0010
,
1001
1000
0100
1000
,
0001
1000
1000
0001
,
0001
1001
1000
0001
,
0010
1000
0010
0100
,
1000
0010
1000
0010
,
0100
0010
0100
0001
,
1000
0001
2000
0000
3000
0000
0000
0000
;

//--------------- dance-single - ----------------
#NOTES:
     dance-single:
     Pandemonium X:
     Medium:
     11:
     0.390268,0.40291,0.116604,0.316498,0.229044,328,314,14,38,0,0,0.390268,0.40291,0.116604,0.316498,0.229044,328,314,14,38,0,0:
0000
0000
0000
0000
,
0000
0000
0000
0000
,
0000
0000
0000
0000
,
0000
0000
0000
0000
,
0000
0000
0000
0000
,
0000
0001
0100
0010
0000
0100
0010
1000
,
0000
0001
0010
0100
0000
0010
0001
1000
,
0100
0000
1000
0000
0010
0000
1000
0000
0010
0000
0100
0000
0002
0000
0000
0003
,
0000
0000
0000
0000
1000
0000
0000
0100
0000
0000
1000
0000
0000
0010
0000
0000
,
0100
0000
0001
0000
0010
0000
0000
0100
0000
0000
0010
0000
0000
0001
0000
0000
,
1000
0000
0001
0000
0100
0000
0000
0001
0000
0000
1000
0000
0000
0100
0000
0000
,
0010
0000
0100
0000
1000
0000
0000
0100
0000
0000
1000
0000
0000
0010
0000
0000
,
0100
0000
0010
0000
1000
0000
0000
0001
0000
0000
0010
0000
0000
0100
0000
0000
,
0010
0000
0001
0000
0100
0000
0000
0010
0000
0000
0100
0000
0000
0001
0000
0000
,
1000
0000
0001
0000
1000
0000
0000
0010
0000
0000
1000
0000
0000
0100
0000
0000
,
1000
0010
1010
0000
0000
0101
0000
0000
,
1001
0000
0000
0000
0001
0000
0000
0001
0000
0000
0010
0000
0000
0100
0000
0000
,
1000
0000
0001
0000
1000
0000
0000
0001
0000
0000
0100
0000
0000
0100
0000
0000
,
0010
0000
1000
0000
0100
0000
0000
0010
0000
0000
0100
0000
0000
1000
0000
0000
,
0001
0000
0100
0000
0010
0000
0000
1000
0000
0000
0001
0000
0000
0010
0000
0000
,
0100
0000
0010
0000
0001
0000
0000
0001
0000
0000
1000
0000
0000
1000
0000
0000
,
0001
0000
0100
0000
0010
0000
0000
0010
0000
0000
0100
0000
0000
0100
0000
0000
,
0010
0000
1000
0000
0001
0000
0000
0010
0000
0000
0100
0000
0000
1000
0000
0000
,
0100
0010
0100
0000
1000
0000
0010
0000
,
0100
0000
0002
0000
0000
1000
0000
1003
,
0000
0000
0200
0000
0000
0010
0000
0310
,
0000
0000
0002
0000
0000
0100
0000
0103
,
0000
0000
0020
0000
0000
1000
0000
1030
,
0000
0000
0200
0000
0000
0010
0000
0310
,
0000
0000
0002
0000
0000
0100
0000
0103
,
0000
0000
0020
0000
0000
1000
0000
1030
,
0000
0000
0002
0000
0000
1003
0100
0010
,
0100
1000
0002
0000
2003
3020
2030
0000
,
0000
3002
0023
0000
0230
0320
0032
0000
,
2000
0003
3020
0000
2030
3002
2003
0000
,
0000
3020
0230
0000
0320
2030
3200
0000
,
0020
0300
0230
0300
0200
0300
0200
0300
,
0200
0320
0031
1000
0001
0100
0000
0010
,
1000
0100
0000
0010
0100
1000
0000
0001
,
0010
0100
1000
0001
0100
0010
1000
0001
,
0020
0000
0000
0030
0100
0000
0000
0100
0000
0000
1000
0000
0000
1000
0000
0000
,
1001
0000
0001
1000
0010
0000
1000
0001
,
0100
0000
0000
0000
0101
0000
0000
0000
0000
0000
1010
0000
0000
1010
0000
0000
,
0010
0000
0000
0000
1000
0000
0000
0001
0000
0000
0010
0000
0000
0100
0000
0000
,
0010
0000
0001
0000
0100
0000
0000
0100
0000
0000
0010
0000
0000
0010
0000
0000
,
1000
0000
0001
1000
0010
0000
1000
0000
,
1100
0000
0000
0000
0100
0000
0000
0000
1000
0000
0010
0000
0000
0100
0000
0000
,
0001
0000
0000
0000
0010
0000
0001
0000
0100
0000
0010
1000
0000
1000
0000
0000
,
0000
0000
0000
0000
0001
0000
0000
1000
0000
0000
0010
0000
0000
1000
0000
0000
,
0001
0000
0010
0001
0100
0000
0010
0000
,
1010
0000
1000
0010
0100
0000
0010
0100
,
0001
0000
0000
0000
1000
0000
0000
0001
0000
0000
0010
0000
0000
0100
0000
0000
,
0010
0000
0001
0000
0100
0000
0000
0010
0000
0000
1000
0000
0000
0001
0000
0000
,
0010
0000
0100
0010
0001
0000
0010
0000
,
1001
0000
0001
1000
0010
0000
1000
0001
,
0100
0000
0001
0100
0010
1000
0001
0010
,
1000
0000
0010
0000
0001
0000
0000
1000
0000
0000
0010
0000
0000
1000
0000
0000
,
0100
0000
1000
0010
0100
0000
0010
0000
,
0110
0000
0000
0000
0100
0000
0000
0000
0010
0000
1010
0000
0000
1010
0000
0000
,
1000
0000
0000
0000
0001
0000
0000
1000
0000
0000
0100
0000
0000
1000
0000
0000
,
0002
0000
0000
0000
0103
0000
0000
0010
0000
0000
1000
0000
0000
0001
0000
0000
,
0010
0000
0100
1000
0010
0000
0100
0001
,
0010
0000
0100
1000
0010
0000
0100
0001
,
0010
0000
0000
0000
0100
0000
0000
0010
0000
0000
0001
0000
0000
1000
0000
0000
,
0010
0100
2002
0000
3003
0000
0000
0000
;

//--------------- dance-single - ----------------
#NOTES:
     dance-single:
     Pandemonium X:
     Hard:
     13:
     0.515201,0.564074,0.441431,0.699627,0.362307,433,380,53,84,0,0,0.515201,0.564074,0.441431,0.699627,0.362307,433,380,53,84,0,0:
0000
0000
0000
0000
,
0000
0000
0000
0000
,
0000
0000
0000
0000
,
0000
0000
0000
0000
,
0000
0000
0000
0000
,
1000
0000
0001
0010
0100
0000
0010
0000
0001
0000
1000
0100
0010
0000
0100
0000
,
1000
0000
0001
0010
0100
0000
0010
0000
0001
0000
1000
0100
0010
0000
0100
0000
,
1000
0000
0010
0000
0100
0000
0001
0000
1000
0000
0001
0000
1000
0010
0100
0001
,
0000
0000
0000
0000
1001
0000
0000
1000
0000
0000
1100
0000
0000
0110
0000
0000
,
0100
0000
1000
0000
0001
0000
0000
0100
0000
0000
0110
0000
0000
0101
0000
0000
,
0001
0000
0010
0000
0100
0000
0000
0010
0000
0000
0011
0000
0000
1100
0000
0000
,
1000
0000
0001
0000
0100
0000
0000
0010
0000
0000
2010
0000
0000
0100
0000
0000
,
3001
0000
1000
0000
0100
0000
0000
0010
0000
0000
0011
0000
0000
0101
0000
0000
,
0001
0000
1000
0000
0100
0000
0000
1000
0000
0000
1010
0000
0000
0101
0000
0000
,
0100
0000
0010
0000
1000
0000
0000
0001
0000
0000
0011
0000
0000
1100
0000
0000
,
1000
0000
0010
0000
1002
0000
0000
0000
0013
0000
2001
0000
0000
0001
0000
0000
,
3001
0000
0100
0000
1010
0000
0000
0101
0000
0000
0011
0000
0000
0110
0000
0000
,
0100
0000
1000
0000
1001
0000
0000
1100
0000
0000
0011
0000
0000
0101
0000
0000
,
0001
0000
1000
0000
0010
0000
0000
1000
0000
0000
1100
0000
0000
1010
0000
0000
,
0010
0000
0100
0000
0001
0000
0000
0010
0000
0000
0110
0000
0000
1100
0000
0000
,
1000
0000
0001
0000
0001
0000
0000
0100
0000
0000
1010
0000
0000
0101
0000
0000
,
0001
0000
1000
0000
0100
0000
0000
0010
0000
0000
0011
0000
0000
1100
0000
0000
,
0100
1000
0001
0000
1000
1100
0000
0001
,
0101
0000
0002
0000
0103
0020
0000
1030
,
0002
1003
1000
1000
,
1000
0001
0001
0001
,
0001
0100
0100
0100
,
0100
0010
0010
0010
,
0010
1000
0001
1000
,
0001
0010
0100
0010
,
0100
1000
0100
1000
,
0100
0000
0010
0000
0001
0000
1002
0023
,
0230
0000
2300
0000
3001
0000
1000
0000
1010
0000
0000
1000
0010
0000
0100
0000
,
0001
0010
0002
0000
0023
0230
2300
0000
,
0002
0000
3000
0000
1003
0000
0010
0000
1010
0000
0000
1000
0001
0000
1000
0000
,
1001
0002
0023
0000
0230
2300
3002
0000
,
2000
0000
0000
3003
0220
0000
0330
0000
2002
0000
3003
0000
0220
0000
0330
0000
,
2002
0000
3003
0000
0001
0000
1000
0010
0100
0000
0010
0000
1000
0000
0001
0100
,
0010
0000
0100
0000
0001
0000
1000
0100
0010
0000
0100
0000
0010
0000
0001
0010
,
0100
0010
0001
0100
0010
1000
0001
0010
,
0001
0100
0010
1000
0002
0000
0000
0203
0000
0000
0320
0000
0000
2030
0000
0000
,
3002
0000
0000
0000
1003
0000
0100
0000
1000
0000
0010
1000
0000
1000
0001
0000
,
0010
0100
0000
0000
1001
0000
0000
0000
1000
0000
1010
0000
0000
0010
0000
0000
,
0100
0000
0001
0000
2000
0000
0000
3200
0000
0000
2300
0000
0000
3020
0000
0000
,
0230
0000
0302
0000
0023
0000
0000
0032
0000
0000
2003
0000
0000
3020
0000
0000
,
0230
0000
0000
0000
0301
0000
1000
0000
0100
0000
0010
0001
0000
0001
0100
0000
,
0010
1000
0000
0000
0001
0000
0000
1000
0000
0000
1100
0000
0000
0110
0000
0000
,
0010
0000
0001
0000
0100
0000
0010
0000
1000
0000
0001
0010
0000
1100
0000
0100
,
1000
0000
0010
0000
0200
0000
0000
0320
0000
0000
2030
0000
0000
3002
0000
0000
,
0023
0000
0000
0000
0130
0000
0000
1100
0000
0000
1000
0000
0000
1010
0000
0000
,
0010
0100
0000
0000
0101
0000
0000
0000
0001
0000
0011
0000
0000
0010
0000
0000
,
0010
0000
0100
0000
2000
0000
0000
3020
0000
0000
0230
0000
0000
0320
0000
0000
,
2030
0000
3002
0000
0023
0000
0000
0230
0000
0000
2300
0000
0000
3002
0000
0000
,
0203
0000
0000
0000
0310
0000
1000
0000
0001
0000
0010
0001
0000
0001
0010
0000
,
0100
1000
0000
0000
0001
0000
0100
0000
0010
0000
0100
0000
0000
0100
0000
0000
,
0100
0000
0010
0000
1000
0000
0010
0000
0100
0000
0010
0000
1000
0000
0001
1000
,
0001
0000
1000
0000
0200
0000
0000
0320
0000
0000
0032
0000
0000
2003
0000
0000
,
3020
0000
0000
0000
0130
0000
0010
0000
1000
0000
0001
0010
0000
0010
0001
0000
,
1000
0010
0000
0000
0110
0000
0000
0000
0010
0000
1010
0000
0000
1000
0000
0000
,
1000
0000
0001
0000
0020
0000
0000
0230
0000
0000
0320
0000
0000
0032
0000
0000
,
2003
0000
3020
0000
0230
0000
0000
0302
0000
0000
0023
0000
0000
0230
0000
0000
,
2300
0000
3001
1000
0010
1000
0001
0010
,
1000
0010
0001
1000
0010
1000
0001
0100
,
1000
0000
0100
0000
0002
0000
0000
0203
0000
0000
0320
0000
0000
2030
0000
0000
,
3020
2030
0200
0000
3300
0000
0000
0000
;

//--------------- dance-single - ----------------
#NOTES:
     dance-single:
     Pandemonium X:
     Challenge:
     16:
     0.762688,0.886402,0.782916,1.132729,1.099414,641,547,94,136,0,0,0.762688,0.886402,0.782916,1.132729,1.099414,641,547,94,136,0,0:
0000
0000
0000
0000
,
0000
0000
0000
0000
,
0000
0000
0000
0000
,
0000
0000
0000
0000
,
0000
0000
0000
0000
,
0001
0000
1000
0010
0100
0010
1000
0001
0000
0000
1000
0001
0010
0001
0100
0001
,
0000
0000
1000
0010
0100
0010
1000
0001
0000
0000
0010
0001
0100
0010
0100
0001
,
1000
0010
1000
0010
0100
0001
0100
0001
0100
0001
1000
0001
0010
0100
1000
0001
,
0000
0000
0000
0000
1001
0000
1000
0001
0000
1000
0100
0000
1000
0010
0000
1000
,
0001
0000
1000
0000
1001
0000
0001
0100
0000
0001
1000
0000
0001
0010
0000
0001
,
1000
0000
0001
0000
1001
0000
0010
1000
0000
0010
0100
0000
0010
1000
0000
0010
,
0100
0000
0001
0000
1001
0000
1000
0001
0000
0001
1000
0000
0100
0010
0000
0010
,
0001
0000
0001
0000
1001
0000
1000
0100
0000
0010
0001
0000
0100
0010
0000
0010
,
0100
0000
0001
0000
1001
0000
0001
0010
0000
0100
1000
0000
0001
1000
0000
1000
,
0010
0000
0100
0000
0101
0000
0100
0010
0000
1000
0001
0000
0010
0100
0000
0100
,
0010
0000
0001
0000
1001
0000
0000
0000
1000
0000
1100
0000
0000
0110
0000
0000
,
0011
0000
0001
0000
1001
0000
0000
1010
0000
0000
0101
0000
0001
1000
0000
0000
,
1001
0000
1000
0000
1010
0000
0000
0110
0000
0000
1001
0000
0000
0001
0010
0000
,
0110
0000
0100
1000
0001
0000
1000
0010
0000
0100
0001
0000
0010
0001
0000
0001
,
1000
0000
0010
0000
1001
0000
0001
0010
0000
0100
1000
0000
1000
0100
0000
0100
,
1000
0000
0001
0000
0101
0000
0001
0100
0000
0010
1000
0000
0001
0010
0000
0100
,
1000
0000
0001
0000
1001
0000
1000
0100
0000
0010
0001
0000
1000
0010
0000
0100
,
0001
0000
0010
0000
0100
1000
0100
1000
0001
0010
0001
0010
0001
0100
0001
0100
,
0010
1000
0010
1000
0001
0100
0000
0010
1000
0000
0001
0100
0000
0010
1000
0000
,
1001
0110
1002
0000
0010
0000
0100
0000
,
1003
2000
0100
0010
,
3001
0002
0010
0100
,
1003
2000
0100
0010
,
3001
0002
0203
0320
,
1030
2000
3020
0230
,
0301
0002
0023
0230
,
0310
0000
0020
0000
0032
0000
0023
0230
,
2300
0000
3020
0000
0130
0000
0010
1000
1001
0000
0001
1000
1100
0000
1100
0000
,
1001
0001
0000
1000
1001
0000
0001
0100
0110
0000
0100
0001
0020
0000
0000
0000
,
0200
0000
0000
0030
1300
0000
0100
0010
0011
0000
1000
0001
0101
0000
0101
0000
,
0011
0010
0000
0100
1100
0000
0100
1000
1010
0000
0100
0001
0020
0000
0000
0000
,
0200
0000
0000
0330
2002
0000
3003
0000
0220
0000
0330
0000
2002
0000
3003
0000
,
0220
0000
0000
0330
2002
0000
0000
0003
3001
0000
0000
0000
1000
0000
0100
0000
0010
0000
0100
0000
1000
0000
0001
0000
0000
0000
0000
0000
0010
0000
0001
0000
,
0100
0001
0010
0001
0000
0000
0010
0001
0100
0010
1000
0001
0000
0000
1000
0100
,
0010
0100
1000
0001
1000
0010
1000
0010
0100
0001
0100
0001
1000
0001
0010
0001
,
1000
0000
0000
0000
0100
0000
0000
0000
0010
0000
0000
0000
0001
0000
0000
0000
2002
0000
0000
0000
0000
0000
0000
0000
0000
0000
0000
3003
0202
0000
0000
0000
0000
0000
0000
0000
0000
0000
0000
0303
2002
0000
0000
0000
0000
0000
0000
0000
0000
0000
0000
3003
0022
0000
0000
0000
0000
0000
0000
0000
0000
0000
0000
0033
,
2002
0000
0000
3003
0001
0100
0010
0000
1000
0000
0001
0010
0000
0010
0001
0000
,
0100
0010
0100
0000
2001
0000
3001
0000
1000
0000
1002
0000
1003
0100
0000
0010
,
0100
0000
0000
0000
1000
0000
0000
0000
0001
0000
0000
0000
0000
0000
0000
0000
2200
0000
0000
0000
0000
0000
0000
0000
0000
0000
0000
3300
2020
0000
0000
0000
0000
0000
0000
0000
0000
0000
0000
3030
2002
0000
0000
0000
0000
0000
0000
0000
0000
0000
0000
3003
2200
0000
0000
0000
0000
0000
0000
0000
0000
0000
0000
3300
,
2001
0000
0000
0000
0000
0000
0000
0000
3020
0000
0000
0000
0030
0000
0000
0000
0202
0000
0000
0000
0000
0000
0000
0000
0000
0000
0000
0303
0220
0000
0000
0000
0000
0000
0000
0000
0000
0000
0000
0330
0202
0000
0000
0000
0000
0000
0000
0000
0000
0000
0000
0303
0220
0000
0000
0000
0000
0000
0000
0000
0000
0000
0000
0330
,
0202
0000
0000
0303
0010
1000
0001
0000
1000
0000
0100
0010
0000
0010
0001
0000
,
0010
0100
1000
0001
0100
0000
0100
0010
0000
0010
1000
0000
1000
0001
0000
1000
,
0001
0010
0001
0010
0001
0010
0100
1000
0100
0010
0100
1000
0000
1001
0000
1000
,
0100
0000
0000
0000
1000
0000
0000
0000
0010
0000
0000
0000
2000
0000
0000
0000
0200
0000
0000
0000
0000
0000
0000
0000
0000
0000
0000
3300
2002
0000
0000
0000
0000
0000
0000
0000
0000
0000
0000
3003
2020
0000
0000
0000
0000
0000
0000
0000
0000
0000
0000
3030
2200
0000
0000
0000
0000
0000
0000
0000
0000
0000
0000
3300
,
2020
0000
0000
0000
0000
0000
0000
0000
0000
0000
0000
0000
0000
3000
0000
0000
0130
0000
0000
0000
0010
0000
0000
0000
1000
0000
0000
0000
0000
0000
0000
0000
0001
0000
0000
0000
0000
0000
0000
0000
0010
0000
0000
0000
0100
0000
0000
0000
0000
0000
0000
0000
0010
0000
0000
0000
0001
0000
0000
0000
0000
0000
0000
0000
,
1000
0100
1000
0000
1002
0000
1003
0000
0010
0000
1002
0000
0013
0100
1000
0100
,
0010
0000
0000
0000
0100
0000
0000
0000
1000
0000
0000
0000
0000
0000
0000
0000
2020
0000
0000
0000
0000
0000
0000
0000
0000
0000
0000
3030
0220
0000
0000
0000
0000
0000
0000
0000
0000
0000
0000
0330
2020
0000
0000
0000
0000
0000
0000
0000
0000
0000
0000
3030
0220
0000
0000
0000
0000
0000
0000
0000
0000
0300
0000
0000
,
1030
0000
0000
0000
0010
0000
0000
0000
0100
0000
0000
0000
0001
0000
0000
0000
0200
0000
0000
0000
0000
0000
0000
0000
0000
0000
0000
0300
0220
0000
0000
0000
0000
0000
0000
0000
0000
0000
0000
0330
0202
0000
0000
0000
0000
0000
0000
0000
0000
0000
0000
0303
0220
0000
0000
0000
0000
0000
0000
0000
0000
0000
0000
0330
,
0202
0000
0000
0300
0103
0010
1000
0000
0100
0000
0010
0001
0000
0010
0100
0000
,
0010
0001
0000
0000
1000
0000
0001
0100
0001
0000
0100
0010
0000
1000
0001
0010
,
0100
0000
0000
0010
0000
0000
0001
0000
0000
1000
0000
0000
0001
0000
0000
1000
0000
0000
0000
0000
0000
0010
0000
0000
0100
0000
0000
0001
0000
0000
0010
0000
0000
0001
0000
0000
1000
0000
0001
0000
1000
0000
0001
0000
0000
1000
0000
0000
,
0001
0000
0000
0000
0100
0000
0000
0000
0010
0000
0000
0000
1000
0000
0000
0000
0200
0000
0000
0000
0000
0000
0000
0000
0000
0000
0000
0300
0220
0000
0000
0000
0000
0000
0000
0000
0000
0000
0000
0330
2200
0000
0000
0000
0000
0000
0000
0000
0000
0000
0000
3300
0220
0000
0000
0000
0000
0000
0000
0000
0000
0000
0000
0330
,
2200
0000
0000
0300
3001
0100
0010
0000
1000
0000
1000
0100
0000
0010
0001
0000
,
0010
0100
1000
0000
1002
0000
0103
0000
0010
0000
2001
0000
3100
0010
0001
0000
,
0010
0000
0000
0000
0100
0000
0000
0000
0010
0000
0000
0000
0000
0000
0000
0000
0022
0000
0000
0000
0000
0000
0000
0000
0000
0000
0000
0033
0202
0000
0000
0000
0000
0000
0000
0000
0000
0000
0000
0303
2002
0000
0000
0000
0000
0000
0000
0000
0000
0000
0000
3003
0022
0000
0000
0000
0000
0000
0000
0000
0000
0000
0000
0033
,
0002
0000
0000
0000
0000
0000
0000
0000
1003
0000
0000
0000
0100
0000
0000
0000
2000
0000
0000
0000
0000
0000
0000
0000
0000
0000
0000
3000
2020
0000
0000
0000
0000
0000
0000
0000
0000
0000
0000
3030
2200
0000
0000
0000
0000
0000
0000
0000
0000
0000
0000
3300
2020
0000
0000
0000
0000
0000
0000
0000
0000
0000
0000
3030
,
2200
0000
0000
0300
3010
1000
0001
0010
0001
0010
0001
0010
0100
1000
0100
1000
,
0001
0100
0010
1000
0001
0010
0100
1000
0100
0010
0100
1000
0001
0010
0100
1000
,
0100
0000
0000
0000
0010
0000
0000
0000
0001
0000
0000
0000
1000
0000
0000
0000
0002
0000
0000
0000
0000
0000
0000
0000
0000
0000
0000
0003
2002
0000
0000
0000
0000
0000
0000
0000
0000
0000
0000
3003
0202
0000
0000
0000
0000
0000
0000
0000
0000
0000
0000
0303
2002
0000
0000
0000
0000
0000
0000
0000
0000
0000
0000
3003
,
0022
0000
0000
0000
0000
0000
0000
0033
2200
0000
0000
0000
0000
0000
0000
3300
2002
0000
0000
0000
0000
0000
0000
0000
0000
0000
0000
0000
0000
0000
0000
0000
3003
0000
0000
0000
0000
0000
0000
0000
0000
0000
0000
0000
0000
0000
0000
0000
0000
0000
0000
0000
0000
0000
0000
0000
0000
0000
0000
0000
0000
0000
0000
0000
;
