#TITLE:Arriba;
#SUBTITLE:;
#ARTIST:Henry Fong & JSTJR;
#TITLETRANSLIT:;
#SUBTITLETRANSLIT:;
#ARTISTTRANSLIT:;
#GENRE:;
#CREDIT:;
#BANNER:Arriba.png;
#BACKGROUND:Arriba-bg.png;
#LYRICSPATH:;
#CDTITLE:cdtitle.png;
#MUSIC:Arriba.ogg;
#OFFSET:-0.078000;
#SAMPLESTART:36.077999;
#SAMPLELENGTH:12.000000;
#LASTBEATHINT:333.978668;
#SELECTABLE:YES;
#BPMS:0.000000=160.000000
;
#STOPS:
;
#BGCHANGES:;
#KEYSOUNDS:;
#ATTACKS:;

//---------------dance-single - Pilgrimsito----------------
#NOTES:
     dance-single:
     Pilgrimsito:
     Beginner:
     4:
     0.167612,0.255268,0.166479,0.031710,0.000000,148.000000,127.000000,21.000000,4.000000,0.000000,0.000000,0.167612,0.255268,0.166479,0.031710,0.000000,148.000000,127.000000,21.000000,4.000000,0.000000,0.000000:
0000
0000
0000
0000
,
0000
0000
0000
0000
,
0000
0000
0000
0000
,
0000
0000
0000
0000
,
0000
0000
0000
0000
,
0001
0000
0000
0000
,
1000
0000
0000
0000
,
0001
0000
0000
0000
,
0010
0010
0010
0000
,
0001
0000
0000
0000
,
1000
0000
0000
0000
,
0001
0000
0000
0000
,
0100
0000
0100
0000
,
0001
0000
0000
0000
,
1000
0000
0000
0000
,
0001
0000
0000
0000
,
0010
0000
0010
0000
,
0002
0000
0000
0000
,
0003
0000
0000
0000
,
2000
0000
0000
0000
,
3000
0000
0000
0000
,
0001
0000
0001
0000
,
0001
0000
0001
0000
,
1000
0000
1000
0000
,
0010
0010
0010
0000
,
1001
0000
0000
0000
,
1001
0000
0000
0000
,
0110
0000
0000
0000
,
0110
0000
0000
0000
,
1001
0000
0001
0000
,
1001
0000
1000
0000
,
0110
0000
0100
0000
,
0010
0010
0010
0000
,
1001
0000
0100
0000
,
1001
0000
0010
0000
,
1001
0000
0100
0000
,
0010
0000
0010
0000
,
1001
0000
0100
0000
,
1001
0000
0010
0000
,
1001
0000
0100
0000
,
0010
0000
0010
0000
,
0001
0000
1000
0000
,
0001
0000
1000
0000
,
0001
0000
1000
0000
,
0100
0000
0100
0000
,
0001
0000
1000
0000
,
0001
0000
1000
0000
,
0001
0000
1000
0000
,
0010
0000
0010
0000
,
0002
0000
0000
0000
,
0003
0000
0000
0000
,
2000
0000
0000
0000
,
3000
0000
0000
0000
,
0001
0000
0001
0000
,
0001
0000
0001
0000
,
1000
0000
1000
0000
,
0010
0010
0010
0000
,
1001
0000
0100
0000
,
0010
0000
0100
0000
,
1001
0000
0010
0000
,
0100
0000
0010
0000
,
1001
0000
0001
0000
,
1000
0000
0001
0000
,
1001
0000
1000
0000
,
0001
0001
0001
0000
,
1001
0000
0010
0000
,
0100
0000
0010
0000
,
1001
0000
0100
0000
,
0010
0000
0100
0000
,
1001
0000
1000
0000
,
0001
0000
1000
0000
,
1001
0000
0001
0000
,
1000
1000
1000
0000
,
0001
0000
0000
0000
,
1000
0000
0000
0000
,
0001
0000
0000
0000
,
1000
0000
0000
0000
,
0100
0000
0000
0000
,
0010
0000
0000
0000
,
0100
0000
0000
0000
,
0010
0010
0010
0000
;

//---------------dance-single - Pilgrimsito----------------
#NOTES:
     dance-single:
     Pilgrimsito:
     Easy:
     7:
     0.368066,0.448106,0.459799,0.214044,0.000000,325.000000,267.000000,58.000000,27.000000,0.000000,0.000000,0.368066,0.448106,0.459799,0.214044,0.000000,325.000000,267.000000,58.000000,27.000000,0.000000,0.000000:
0000
0000
0000
0000
,
0000
0000
0000
0000
,
0000
0000
0000
0000
,
0000
0000
0000
0000
,
0000
0000
0000
0000
,
1100
1000
1000
1000
,
0101
0001
0001
0001
,
0110
0100
0100
0100
,
1001
1001
1001
0010
,
1001
0001
0100
0010
,
1001
1000
0100
0010
,
1001
0001
0100
0010
,
0100
0100
0100
0100
,
1001
1000
0100
0010
,
1001
0001
0100
0010
,
1001
1000
0100
0010
,
0100
0100
0100
0100
,
2002
0000
0000
0000
,
0000
0000
0000
0000
,
0000
0000
0000
0000
,
0000
0000
3003
0000
,
0001
1000
0001
1000
,
0100
0010
0100
0010
,
0001
1000
0001
1000
,
0010
0010
0010
0100
,
2002
3003
1000
0010
,
2020
3030
0001
0010
,
0022
0033
1000
0001
,
2002
3003
0001
1000
,
1100
1000
0010
0100
,
0101
0001
0010
0100
,
1100
1000
0010
0100
,
0010
0010
0010
0100
,
1001
0000
0001
0000
1000
0100
1000
0000
,
1001
0000
1000
0000
0001
0010
0001
0000
,
1001
0000
0001
0000
1000
0100
1000
0000
,
0010
0010
0010
0010
,
1001
0000
1000
0000
0001
0100
0001
0000
,
1001
0000
0001
0000
1000
0010
1000
0000
,
1001
0000
1000
0000
0001
0100
0001
0000
,
0010
0010
0020
0030
,
0001
0001
1000
1000
,
0001
0001
1000
1000
,
0001
0001
1000
1000
,
0110
0110
0110
0110
,
0001
0001
1000
1000
,
0001
0001
1000
1000
,
0001
0001
1000
1000
,
0110
0110
0110
0110
,
2002
0000
0000
0000
,
0000
0000
0000
0000
,
0000
0000
0000
0000
,
0000
0000
3003
0000
,
1000
0001
1000
0001
,
0100
0010
0100
0010
,
1000
0001
1000
0001
,
0010
0010
0010
0100
,
1001
1000
0010
0100
,
0001
0010
0100
1100
,
1010
1000
0100
0010
,
0001
1000
0010
0010
,
1001
0001
0100
0010
,
1000
0100
0010
0011
,
0101
0001
0010
0100
,
1000
1000
1000
0100
,
1002
0000
0103
0002
,
0003
0002
0103
0110
,
2001
0000
3010
2000
,
3000
2000
3100
0110
,
1002
0000
0103
0020
,
0130
0020
0130
0110
,
2001
0000
3100
0020
,
0130
0100
0200
0300
,
1100
1000
1000
1000
,
0101
0001
0001
0001
,
0110
0100
0100
0100
,
1001
0001
0001
0001
,
1010
1000
1000
1000
,
0011
0001
0001
0001
,
0110
0010
0010
0010
,
1001
1001
2002
3003
;

//---------------dance-single - Pilgrimsito----------------
#NOTES:
     dance-single:
     Pilgrimsito:
     Medium:
     11:
     0.491510,0.576136,0.626278,0.237827,0.000000,434.000000,355.000000,79.000000,30.000000,0.000000,0.000000,0.491510,0.576136,0.626278,0.237827,0.000000,434.000000,355.000000,79.000000,30.000000,0.000000,0.000000:
0000
0000
0000
0000
,
0000
0000
0000
0000
,
0000
0000
0000
0000
,
0000
0000
0000
0000
,
0000
0000
0000
0000
,
1001
0000
0001
0100
0001
0000
0010
0000
,
1001
0000
1000
0100
1000
0000
0010
0000
,
1001
0000
0001
0100
0001
0000
0010
0000
,
1001
0110
1001
0001
,
1100
0000
0001
1000
0100
0000
0010
0000
,
0101
0000
1000
0001
0100
0000
0010
0000
,
1100
0000
0001
1000
0100
0000
0010
0000
,
0011
1010
0011
1010
,
0011
0000
1000
0001
0010
0000
0100
0000
,
1010
0000
0001
1000
0010
0000
0100
0000
,
0011
0000
1000
0001
0010
0000
0100
0000
,
1100
0101
1100
0101
,
1002
0000
0000
0013
,
2000
0000
0000
3010
,
0002
0000
0000
0013
,
2000
0000
0000
3000
,
0001
0001
1000
1000
,
0001
0001
1000
1000
,
0010
0100
0010
0100
0010
0100
0010
0100
,
0010
0010
0010
0100
,
1001
0000
0001
0010
0100
0000
0010
0000
,
1001
0000
1000
0010
0100
0000
0010
0000
,
1001
0000
0001
0010
0100
0000
0010
0000
,
1001
0000
1000
0010
0100
0010
0010
0000
,
0101
0000
1000
0000
0100
0010
0100
0010
,
0011
0000
0001
0000
0100
0010
0100
0010
,
1010
0000
1000
0000
0100
0010
0100
0010
,
0110
0110
0110
0001
,
1001
0000
0001
0000
1000
0100
0001
0000
,
0110
0000
1000
0000
0001
0100
1000
0000
,
0110
0000
0001
0000
1000
0100
0001
0000
,
0110
0110
0110
0110
,
1001
0000
1000
0000
0001
0010
1000
0000
,
0110
0000
0001
0000
1000
0010
0001
0000
,
0110
0000
1000
0000
0001
0010
1000
0000
,
0110
0110
0220
0330
,
0002
0103
2000
3100
,
0002
0103
2000
3100
,
0002
0103
2000
3100
,
0110
1001
0110
1001
,
0002
0013
2000
3010
,
0002
0013
2000
3010
,
0002
0013
2000
3010
,
1001
0110
1001
0110
,
1002
0000
0000
0013
,
2000
0000
0000
3010
,
0002
0000
0000
0013
,
2000
0000
0000
3000
,
0001
0001
1000
1000
,
0001
0001
1000
1000
,
0010
0100
0010
0100
0010
0100
0010
0100
,
0010
0010
0010
0100
,
1001
0000
1000
0000
0001
0010
0100
0000
,
1000
0010
0100
0000
0001
0010
0110
0000
,
1001
0000
1000
0000
0010
1000
0100
0000
,
0010
0001
0100
0000
0010
0100
0100
0000
,
1001
0000
0001
0000
1000
0100
0010
0000
,
0001
0100
0010
0000
1000
0100
0110
0000
,
1001
0000
0001
0000
0100
0001
0010
0000
,
0100
0100
0100
0010
,
1001
0000
0001
0100
0001
0010
0001
0100
,
0001
0010
0001
0100
0001
0010
0110
0000
,
1001
0000
1000
0100
0010
0100
1000
0100
,
0010
0100
1000
0100
0010
0100
0110
0000
,
1001
0000
1000
0010
1000
0100
1000
0010
,
1000
0100
1000
0010
1000
0100
0110
0000
,
1001
0000
0001
0010
0100
0010
0001
0010
,
0110
0110
0220
0330
,
1001
0000
0001
0100
0001
0000
0010
0000
,
1001
0000
1000
0100
1000
0000
0010
0000
,
1001
0000
0001
0100
0001
0000
0010
0000
,
1001
0000
1000
0100
1000
0000
0010
0000
,
1001
0000
0001
0010
0001
0000
0100
0000
,
1001
0000
1000
0010
1000
0000
0100
0000
,
1001
0000
0001
0010
0001
0000
0100
0000
,
2002
3003
2002
3003
2002
0000
3003
0000
;

//---------------dance-single - Pilgrimsito----------------
#NOTES:
     dance-single:
     Pilgrimsito:
     Hard:
     14:
     0.667049,0.736174,0.665916,0.547003,0.186298,589.000000,505.000000,84.000000,69.000000,0.000000,0.000000,0.667049,0.736174,0.665916,0.547003,0.186298,589.000000,505.000000,84.000000,69.000000,0.000000,0.000000:
// measure 0
0000
0000
0000
0000
,  // measure 1
0000
0000
0000
0000
,  // measure 2
0000
0000
0000
0000
,  // measure 3
0000
0000
0000
0000
,  // measure 4
0000
0000
0000
0000
,  // measure 5
1001
0000
0000
0001
0100
0000
0010
0000
0100
0000
0001
0000
0010
0000
0010
0000
,  // measure 6
1001
0000
0000
1000
0100
0000
0010
0000
0100
0000
1000
0000
0010
0000
0010
0000
,  // measure 7
1001
0000
0000
0001
0100
0000
0010
0000
0100
0000
0001
0000
0010
0000
0010
0000
,  // measure 8
2002
3003
0220
0330
2001
0000
3010
0000
,  // measure 9
0101
0000
0000
0001
0010
0000
0100
0000
2000
0000
0000
0000
3010
0000
0000
0000
,  // measure 10
1100
0000
0000
1000
0010
0000
0100
0000
0002
0000
0000
0000
0013
0000
0000
0000
,  // measure 11
0101
0000
0000
0001
0010
0000
0100
0000
2000
0000
0000
0000
3010
0000
0000
0000
,  // measure 12
0101
0011
1100
1010
,  // measure 13
1100
0000
0000
1000
0010
0000
0100
0000
0002
0000
0000
0000
0013
0000
0000
0000
,  // measure 14
0101
0000
0000
0001
0010
0000
0100
0000
2000
0000
0000
0000
3010
0000
0000
0000
,  // measure 15
1100
0000
0000
1000
0010
0000
0100
0000
0002
0000
0000
0000
0013
0000
0000
0000
,  // measure 16
1100
1010
0101
0011
,  // measure 17
1002
0000
0003
0002
0000
0000
0203
0000
,  // measure 18
2300
0000
3000
2000
0000
0000
3200
0000
,  // measure 19
0302
0000
0003
0002
0000
0000
0203
0000
,  // measure 20
0320
0000
0030
0020
0000
0000
0030
0000
,  // measure 21
1000
0100
0010
0001
1000
0010
0100
0001
,  // measure 22
1000
0100
0010
0001
1000
0010
0100
0001
,  // measure 23
0010
0001
1000
0001
0100
0001
0010
0001
,  // measure 24
1000
1000
1000
0110
,  // measure 25
1001
0000
0000
0000
0001
0000
1000
0000
0100
0000
0000
1000
0000
0000
0010
0000
,  // measure 26
0110
0000
0000
0000
1000
0000
0001
0000
0100
0000
0000
0001
0000
0000
0010
0000
,  // measure 27
0110
0000
0000
0000
0001
0000
1000
0000
0100
0000
0000
1000
0000
0000
0010
0000
,  // measure 28
0110
0000
1000
0100
0010
0001
1001
0000
,  // measure 29
0011
0000
0000
1000
0100
0000
0010
0000
0001
0000
0100
0000
1000
0000
0100
0000
,  // measure 30
0101
0000
0000
1000
0010
0000
0100
0000
0001
0000
0010
0000
1000
0000
0010
0000
,  // measure 31
0011
0000
0000
1000
0100
0000
0010
0000
0001
0000
0100
0000
1000
0000
0100
0000
,  // measure 32
0202
0303
2002
3003
2100
0000
3010
0000
,  // measure 33
0101
0000
0000
0001
0010
0000
0001
0000
0100
0000
0001
1000
0001
0000
0010
0000
,  // measure 34
0110
0000
0000
0100
1000
0000
0100
0000
0010
0000
0001
0100
0001
0000
1000
0000
,  // measure 35
1010
0000
0000
1000
0001
0000
1000
0000
0100
0000
0010
0001
0010
0000
0100
0000
,  // measure 36
0110
1001
0110
1001
,  // measure 37
1100
0000
0000
1000
0010
0000
1000
0000
0100
0000
1000
0001
1000
0000
0010
0000
,  // measure 38
0110
0000
0000
0100
0001
0000
0100
0000
0010
0000
1000
0100
1000
0000
0001
0000
,  // measure 39
0011
0000
0000
0001
1000
0000
0001
0000
0100
0000
0010
1000
0010
0000
0100
0000
,  // measure 40
0220
0330
2002
3003
0220
0000
0330
0000
,  // measure 41
0001
0100
0001
0100
1000
0100
1000
0100
,  // measure 42
0001
0100
0001
0100
1000
0100
1000
0100
,  // measure 43
0001
0100
0001
0100
1000
0100
1000
0100
,  // measure 44
0101
1010
0101
1010
,  // measure 45
0001
0010
0001
0010
1000
0010
1000
0010
,  // measure 46
0001
0010
0001
0010
1000
0010
1000
0010
,  // measure 47
0001
0010
0001
0010
1000
0010
1000
0010
,  // measure 48
0011
1100
0011
1100
,  // measure 49
2001
0000
3000
2000
0000
0000
3200
0000
,  // measure 50
0302
0000
0003
0002
0000
0000
0203
0000
,  // measure 51
2300
0000
3000
2000
0000
0000
3200
0000
,  // measure 52
0320
0000
0030
0020
0000
0000
0030
0000
,  // measure 53
0001
0100
0010
1000
0001
0010
0100
1000
,  // measure 54
0001
0100
0010
1000
0001
0010
0100
1000
,  // measure 55
0010
1000
0001
1000
0100
1000
0010
1000
,  // measure 56
0001
0001
0001
0110
,  // measure 57
1001
0000
0001
0100
0001
0000
0010
0000
0001
0000
1000
0100
1000
0000
0010
0000
,  // measure 58
0100
0000
0001
1000
0001
0000
0010
0000
0001
0100
0001
0000
2002
0000
3003
0000
,  // measure 59
0011
0000
0001
1000
0001
0000
0010
0000
0100
0000
1000
0010
1000
0000
0100
0000
,  // measure 60
1000
0000
0010
0100
0010
0000
1000
0000
0100
0000
0010
0000
0220
0000
0330
0000
,  // measure 61
1001
0000
1000
0100
1000
0000
0010
0000
1000
0000
0001
0100
0001
0000
0010
0000
,  // measure 62
0100
0000
1000
0001
1000
0000
0010
0000
1000
0100
1000
0000
2002
0000
3003
0000
,  // measure 63
1010
0000
1000
0001
1000
0000
0010
0000
0100
0000
0001
0010
0001
0000
0100
0000
,  // measure 64
0001
0000
0001
0000
0001
0000
0220
0330
,  // measure 65
1001
0001
0100
0001
0010
1000
0010
0100
,  // measure 66
1000
0010
0100
0001
0010
1000
2020
3030
,  // measure 67
0110
0100
1000
0001
0100
1000
0100
0010
,  // measure 68
1000
0100
0010
1000
0010
0100
2200
3300
,  // measure 69
1001
0001
0010
0001
0100
1000
0100
0010
,  // measure 70
1000
0100
0010
0001
0100
1000
2200
3300
,  // measure 71
0110
0100
0001
1000
0100
0001
0100
0010
,  // measure 72
0022
0033
2002
3003
2010
0000
3100
0000
,  // measure 73
1001
0000
0000
1000
0100
0000
0010
0000
0100
0000
1000
0000
0010
0000
0010
0000
,  // measure 74
1001
0000
0000
0001
0100
0000
0010
0000
0100
0000
0001
0000
0010
0000
0010
0000
,  // measure 75
1001
0000
0000
1000
0100
0000
0010
0000
0100
0000
1000
0000
0010
0000
0010
0000
,  // measure 76
1001
0000
0000
0001
0100
0000
0010
0000
0100
0000
0001
0000
0010
0000
0010
0000
,  // measure 77
1001
0000
0000
1000
0010
0000
0001
0000
0010
0000
1000
0000
0100
0000
0100
0000
,  // measure 78
1001
0000
0000
0001
0010
0000
1000
0000
0010
0000
0001
0000
0100
0000
0100
0000
,  // measure 79
1001
0000
0000
1000
0010
0000
0001
0000
0010
0000
1000
0000
0100
0000
0100
0000
,  // measure 80
2002
3003
0220
0330
2002
0000
3003
0000
;
