#VERSION:0.83;
#TITLE:Altitude Rising Pt.5;
#SUBTITLE:~Distance~;
#ARTIST:Z-I-v Sound Team "Karl with a K";
#TITLETRANSLIT:;
#SUBTITLETRANSLIT:;
#ARTISTTRANSLIT:;
#GENRE:;
#ORIGIN:;
#CREDIT:;
#BANNER:Altitude Rising Pt 5 Distance banner.png;
#BACKGROUND:Altitude Rising Pt 5 Distance bg.png;
#PREVIEWVID:;
#JACKET:Altitude Rising Pt 5 Distance jk.png;
#CDIMAGE:;
#DISCIMAGE:;
#LYRICSPATH:;
#CDTITLE:;
#MUSIC:Altitude Rising Pt 5 Distance.ogg;
#OFFSET:-0.000000;
#SAMPLESTART:36.292683;
#SAMPLELENGTH:15.000000;
#SELECTABLE:YES;
#BPMS:0.000=205.000,
217.000=192.941,
347.000=205.000,
380.000=217.812;
#STOPS:380.000=2.066;
#DELAYS:;
#WARPS:;
#TIMESIGNATURES:0.000=4=4;
#TICKCOUNTS:0.000=4;
#COMBOS:0.000=1;
#SPEEDS:0.000=1.000=0.000=0,
124.000=0.500=4.000=0,
128.000=1.000=4.000=0;
#SCROLLS:0.000=1.000,
125.000=1.500,
125.167=0.500,
125.333=1.500,
125.500=0.500,
125.667=1.500,
125.833=0.500,
126.000=1.500,
126.167=0.500,
126.333=1.500,
126.500=0.500,
126.667=1.500,
126.833=0.500,
127.000=1.500,
127.167=0.500,
127.333=1.500,
127.500=0.500,
127.667=1.500,
127.833=0.500,
128.000=1.500,
128.167=0.500,
128.333=1.500,
128.500=0.500,
128.667=1.500,
128.833=0.500,
129.000=1.500,
129.167=0.500,
129.333=1.500,
129.500=0.500,
129.667=1.500,
129.833=0.500,
130.000=1.000,
200.000=0.500,
233.000=1.000;
#FAKES:;
#LABELS:0.000=Song Start;
#BGCHANGES:;
#KEYSOUNDS:;
#ATTACKS:
;

//---------------dance-single - XO- DS- JA- XMOD RH+ STR[1@205/1@154|{1-1-4}@218] JU----------------
#NOTEDATA:;
#CHARTNAME:;
#STEPSTYPE:dance-single;
#DESCRIPTION:XO- DS- JA- XMOD RH+ STR[1@205/1@154|{1-1-4}@218] JU;
#CHARTSTYLE:;
#DIFFICULTY:Hard;
#METER:18;
#RADARVALUES:0.872792,1.383238,0.541528,0.069427,1.065698,880.000000,802.000000,78.000000,10.000000,0.000000,0.000000,0.000000,0.000000,0.000000,0.872792,1.383238,0.541528,0.069427,1.065698,880.000000,802.000000,78.000000,10.000000,0.000000,0.000000,0.000000,0.000000,0.000000;
#CREDIT:Karl with a K;
#NOTES:
// measure 0
0000
0000
0000
0000
,  // measure 1
0000
0000
0000
0000
,  // measure 2
0000
0000
0000
0000
,  // measure 3
0000
0000
0000
0000
,  // measure 4
0000
0000
0000
0000
,  // measure 5
0000
0000
0000
0000
,  // measure 6
0000
0000
0000
0000
,  // measure 7
0000
0000
0000
0000
,  // measure 8
0000
0000
0000
0000
0000
0000
0000
0000
1000
0000
0100
0000
0000
0000
0000
0010
,  // measure 9
0000
0000
0000
0010
0000
0001
0000
0000
0000
1000
0000
0010
0000
0000
0000
0000
,  // measure 10
0100
0000
0100
0001
0000
1000
0100
0000
,  // measure 11
0000
0010
0000
0000
0000
0001
0000
1000
0000
0000
0000
0001
0000
0100
0000
0000
,  // measure 12
0000
0000
0010
0000
0000
0000
1000
0000
0001
0000
0000
0000
1000
0010
1000
0010
,  // measure 13
0100
0001
0000
0010
0001
0010
0000
0001
0000
0100
0010
0100
0000
0001
0010
0001
,  // measure 14
0010
0100
1000
0000
0010
1000
0010
0000
1000
0000
0100
0010
0100
1000
0001
0100
,  // measure 15
0001
0100
0010
1000
0000
0100
1000
0100
0000
1000
0000
0010
0100
0010
0000
1000
,  // measure 16
0100
1000
0100
0010
0001
0000
0100
0001
0100
0000
0001
0000
0010
0100
0010
0000
,  // measure 17
0011
1001
0101
1100
,  // measure 18
1010
1001
1100
0101
,  // measure 19
1100
0110
0011
1001
,  // measure 20
1010
0110
0101
0110
,  // measure 21
1010
0101
1010
1001
,  // measure 22
0011
1100
0011
1001
,  // measure 23
0110
0011
1010
0110
,  // measure 24
1100
0101
0110
1001
,  // measure 25
1000
0100
0010
0001
0100
0010
1000
0001
,  // measure 26
1000
0010
0100
0001
0010
0100
1000
0001
,  // measure 27
1000
1000
0100
0100
0010
0010
0001
0001
,  // measure 28
0100
0100
0010
0010
1000
1000
0001
0001
,  // measure 29
0010
0010
0010
0010
0100
0100
0100
0100
,  // measure 30
1000
0100
0010
0001
1000
0010
0100
0001
1000
0001
0010
0100
1000
0001
0100
0010
,  // measure 31
2000
0000
0000
0000
,  // measure 32
0000
0000
0000
0000
0000
0000
0000
0000
3000
0000
0000
0000
0001
0010
1000
0010
,  // measure 33
0001
0000
0100
0000
0010
0000
0000
0100
0000
0000
0001
0010
0000
0100
0000
1000
,  // measure 34
0000
0001
0000
0010
0000
0100
0000
0000
0010
0000
0000
0001
0100
0000
0010
0000
,  // measure 35
1000
0000
1000
0000
0010
0000
0100
0000
0000
0010
0000
0000
1000
0100
0000
0010
,  // measure 36
0000
0001
0000
1000
0000
0100
0000
0010
0000
0000
0100
0000
0000
1000
0010
0000
,  // measure 37
0100
0000
0001
0000
0001
0000
0100
0000
0010
0000
0000
0100
0000
0000
1000
0100
,  // measure 38
0000
0001
0000
1000
0000
0001
0000
0010
0000
0100
0000
0000
0010
0000
0000
1000
,  // measure 39
0010
0000
0001
0000
0000
0000
2000
0000
0000
0000
0010
0000
0000
0100
0000
0000
,  // measure 40
0010
0000
0000
3002
0000
0000
0000
1000
0000
0000
0000
0010
0000
0000
0100
0000
,  // measure 41
0000
0013
0001
1000
0010
0100
0010
0100
0001
1000
0001
0010
0100
0010
0000
0001
,  // measure 42
0100
0001
0000
0100
0010
1000
0001
1000
0000
0001
1000
0001
0100
0010
0100
0000
,  // measure 43
0001
0010
0001
0000
0010
0100
1000
0001
0100
0001
1000
0001
1000
0100
0010
0100
,  // measure 44
0000
1000
0010
1000
0000
0010
0100
0001
1000
0001
0000
1000
0001
1000
0010
0100
,  // measure 45
0010
0000
0000
0000
0000
0000
1000
0000
0000
0100
0000
0000
1000
0000
0000
0000
0000
0000
0100
0000
0000
0010
0000
0000
0001
0000
0000
1000
0000
0000
0001
0000
0000
0100
0000
0000
0010
0000
0000
0000
1000
0000
0000
0000
0100
0000
0000
0000
,  // measure 46
0010
0001
0100
0010
1000
0100
0010
0000
0010
0001
0100
0010
,  // measure 47
1000
0100
0010
0001
0100
0001
0010
0100
0000
0010
0001
0100
,  // measure 48
0010
0100
0000
0100
1000
0100
0010
0100
0010
1000
0100
0010
,  // measure 49
0001
0000
0100
1000
0100
0000
0001
0000
0010
1000
0001
0100
,  // measure 50
2000
0000
0000
0000
0000
0000
0000
0100
0000
0000
0000
0000
0000
0100
0000
0000
,  // measure 51
0000
0200
0000
0000
0000
0000
0000
0000
0000
0000
0000
0000
0000
0000
0300
0000
,  // measure 52
0000
0000
3002
0000
0000
0000
0000
0000
0000
0100
0000
0000
0000
0000
0000
0100
,  // measure 53
0000
0000
0000
0200
0000
0000
0000
0000
0000
0000
0000
0000
0000
0000
0000
0000
,  // measure 54
0303
0000
1100
0000
0000
0100
0000
0010
,  // measure 55
0001
0000
0101
0000
0000
0100
0000
0010
,  // measure 56
1000
0000
1010
0000
0000
1000
0000
0100
,  // measure 57
0010
0000
0011
0000
0000
0001
0000
0100
,  // measure 58
0010
0000
1000
0000
0000
0001
0101
0000
,  // measure 59
0100
0000
0001
0000
0000
0001
0010
0000
,  // measure 60
0100
0000
0000
0000
1000
0000
0000
0000
0000
0000
0100
0010
0001
0000
0000
0000
,  // measure 61
0100
0010
0000
0000
0010
0100
0000
0000
0001
0000
0010
0000
1000
0000
0000
0000
,  // measure 62
1000
0010
0001
0000
0000
1000
1100
0000
,  // measure 63
0100
0000
1000
0000
0000
1000
0010
0000
,  // measure 64
0100
0000
0000
0000
0001
0000
0000
0000
0000
0000
0100
0010
1000
0000
0000
0000
,  // measure 65
0100
0010
0000
0000
0010
0100
0000
0000
1000
0000
0010
0000
0001
0000
0000
0000
,  // measure 66
0001
0010
1000
0000
1000
0001
0101
0000
,  // measure 67
0100
0000
0010
0000
0100
0001
0010
0000
,  // measure 68
0100
0000
0000
0000
1000
0000
0000
0000
1000
0000
0100
0010
0001
0000
0000
0000
,  // measure 69
0100
0010
0000
0000
0010
0100
0000
0000
0001
0000
0010
0000
1000
0000
0000
0000
,  // measure 70
1000
0010
0001
0000
0001
1000
1100
0000
,  // measure 71
0100
0000
0010
0000
0100
1000
0010
0000
,  // measure 72
0100
0000
0000
0000
0001
0000
0000
0000
0001
0000
0100
0010
1000
0000
0000
0000
,  // measure 73
0100
0010
0000
0000
0010
0100
0000
0000
1000
0000
0010
0000
0001
0000
0000
0000
,  // measure 74
0001
0010
1000
0000
0001
0010
0100
0000
,  // measure 75
1000
0000
0000
0000
0000
0001
0000
0000
0000
0100
0000
0010
0000
1000
0000
0000
,  // measure 76
0000
0100
0000
0000
0000
0000
1000
0000
0000
0000
0000
0100
0010
0000
0000
0000
,  // measure 77
0000
0010
0001
0000
0000
1000
0010
1000
0000
0000
0000
0000
0000
0110
0000
0000
,  // measure 78
0000
0000
0000
0001
1000
0100
1000
0001
1000
0000
0000
0000
1000
0000
0010
0000
,  // measure 79
0100
0000
0000
0000
0001
0000
0000
0000
0000
1000
0000
0000
0000
0100
0000
0010
,  // measure 80
0000
0001
0000
0000
0000
0100
0000
0000
0000
0000
0001
0000
0000
0000
0000
0100
,  // measure 81
0010
0000
0000
0000
0000
0010
1000
0000
0000
0001
0010
0001
0000
0000
0000
0000
,  // measure 82
0000
0110
0000
0000
0000
0000
0000
1000
0001
0100
0001
1000
0001
0000
0000
0000
,  // measure 83
0100
0010
0110
0000
1000
0000
0100
0000
,  // measure 84
0000
0010
0011
0000
0001
0000
1000
0000
,  // measure 85
0000
0000
0000
1000
0010
0000
0000
0000
0100
0001
0000
0000
1000
0100
0000
0000
,  // measure 86
0000
0000
0101
0000
0000
0100
0001
0000
,  // measure 87
0010
0000
0100
0000
0110
0000
0000
0000
1000
0000
0000
0000
0000
0010
0000
0000
,  // measure 88
0000
0000
0000
0100
0000
0101
0000
0000
0000
0001
0000
0000
0000
0000
1000
0000
,  // measure 89
0000
0000
0000
1000
0100
0000
0000
0000
0000
0010
0001
0000
0000
1000
0010
1000
,  // measure 90
0000
0000
0000
0000
0000
0011
0000
0000
0000
0000
0000
0010
0100
1000
0001
0100
,  // measure 91
0001
0000
0010
0100
0110
0000
0001
0000
,  // measure 92
0010
0000
0000
0100
1100
0000
1000
0000
,  // measure 93
0001
0000
0000
0000
0000
0000
0000
0001
0100
0000
0000
0000
0010
1000
0000
0000
,  // measure 94
0001
0010
0000
0000
0000
0000
0000
0000
1010
0000
0000
0000
0000
0000
0010
0000
,  // measure 95
0200
0300
0001
0010
0100
0010
0001
0100
,  // measure 96
0010
1000
0001
0010
0100
1000
0000
0100
0000
0010
0000
0100
0000
1000
0000
0010
,  // measure 97
0000
0100
0001
1000
0100
0010
0001
0000
0100
0000
0010
0000
0100
0000
0001
0000
,  // measure 98
0010
0000
0100
1000
0001
0100
0010
1000
0000
0010
0000
0100
0000
0010
0000
1000
,  // measure 99
0000
0100
0000
0010
0001
1000
0010
0100
0001
1000
0001
1000
0010
0100
0000
0001
,  // measure 100
0100
0001
0000
0000
0001
0010
0100
1000
0001
0100
0010
1000
0001
0100
0010
0000
,  // measure 101
1000
0010
1000
0000
0000
1000
0100
0010
0001
1000
0010
0100
0001
1000
0100
0010
,  // measure 102
0000
0001
0010
0001
0000
0000
0001
0100
0010
1000
0001
0010
0100
1000
0001
0010
,  // measure 103
0100
0000
1000
0100
1000
0000
0000
1000
0010
0100
0001
1000
0100
0010
0100
0010
,  // measure 104
0100
1000
0100
0010
0001
0100
0010
0100
0010
1000
0010
0100
0001
0000
0100
0000
,  // measure 105
0010
0000
1000
0000
0100
0000
0000
0000
1000
0000
0010
0000
0100
0010
0100
0010
,  // measure 106
0100
0000
0000
0001
0000
0000
0100
0000
0000
0010
0000
0000
1000
0000
0000
0100
0000
0000
0010
0000
0000
0100
0000
0000
0010
0000
0000
0001
0000
0000
0010
0000
0000
0100
0000
0000
1000
0000
0000
0000
0000
0000
0000
0000
0100
0000
0000
0000
,  // measure 107
0010
0001
1000
0010
0100
0010
1000
0000
0100
0010
0001
0100
,  // measure 108
0010
0100
0010
0100
0010
1000
0100
0010
0001
0010
0100
0010
0100
1000
0010
0100
,  // measure 109
0001
1000
0100
0010
0001
0100
0010
1000
0001
0010
0100
1000
0010
0100
0001
1000
,  // measure 110
0100
1000
0010
0100
0010
1000
0100
1000
0001
0010
0001
0100
0010
0100
0001
0010
,  // measure 111
0001
0010
0001
0010
0100
0010
0100
0010
1000
0010
1000
0010
0100
0010
0100
0010
,  // measure 112
0001
0010
0001
0010
0001
0000
0100
0000
0110
0000
0110
0000
0110
0000
0110
0000
,  // measure 113
0000
1010
1010
1010
0000
0011
0000
0110
,  // measure 114
0110
0110
0110
1001
1001
1001
1001
1001
,  // measure 115
1001
0000
1100
1100
1100
0000
0101
0000
,  // measure 116
0110
1001
0110
1001
0220
0000
0000
0000
,  // measure 117
0000
0000
0000
0000
,  // measure 118
0000
0000
0000
0000
,  // measure 119
0000
0000
0000
0000
,  // measure 120
0000
0000
0000
0330
;

//---------------dance-single - XO DS- JA- XMOD RH JU-----------------
#NOTEDATA:;
#CHARTNAME:;
#STEPSTYPE:dance-single;
#DESCRIPTION:XO DS- JA- XMOD RH JU-;
#CHARTSTYLE:;
#DIFFICULTY:Medium;
#METER:15;
#RADARVALUES:0.565331,0.880243,0.041656,0.041656,0.510286,570.000000,564.000000,6.000000,6.000000,0.000000,0.000000,0.000000,0.000000,0.000000,0.565331,0.880243,0.041656,0.041656,0.510286,570.000000,564.000000,6.000000,6.000000,0.000000,0.000000,0.000000,0.000000,0.000000;
#CREDIT:Karl with a K;
#NOTES:
0000
0000
0000
0000
,
0000
0000
0000
0000
,
0000
0000
0000
0000
,
0000
0000
0000
0000
,
0000
0000
0000
0000
,
0000
0000
0000
0000
,
0000
0000
0000
0000
,
0000
0000
0000
0000
,
0000
0000
0000
0000
0000
0000
0000
0000
1000
0000
0000
0000
0000
0000
0000
0100
,
0000
0000
0000
0010
0000
0001
0000
0000
0000
0001
0000
0000
0000
0000
0000
0000
,
0100
0000
0010
1000
0000
1000
0000
0000
,
0000
0010
0000
0000
0000
0100
0000
0001
0000
0000
0000
0001
0000
0000
0000
0000
,
0000
0010
0000
0100
1000
0000
1000
0100
,
1000
0000
0000
0001
0000
0000
0000
0100
0000
0010
0000
0000
0000
1000
0000
0010
,
0000
1000
0000
0000
0001
0000
0000
0000
0010
0000
0001
0000
0000
0000
0001
0000
,
0100
0000
0001
0000
0000
1000
0000
0000
0000
0100
0000
0010
0000
0000
0000
0001
,
0000
0010
0000
0001
0000
0000
1000
0000
0000
0000
0010
0000
1000
0000
0000
0000
,
0001
0100
0010
1000
,
1000
0100
0010
0001
,
0001
0010
0100
0010
,
0001
0100
0010
0100
,
0010
0010
1000
1000
,
0100
0100
0010
0010
,
0001
0001
0100
0100
,
0010
0010
1000
1000
,
0100
0010
0001
0010
0100
1000
0001
0100
,
0010
1000
0010
0100
0001
1000
0001
1000
,
0100
0010
0100
0010
0100
0010
0100
0010
,
0001
1000
0001
1000
0001
1000
0001
1000
,
0010
1000
0100
0010
0001
0100
0010
1000
,
0010
0000
0010
0000
0100
0000
0100
0000
0001
0100
0001
0000
1000
0100
1000
0100
,
0020
0000
0000
0000
,
0000
0000
0000
0000
0000
0000
0000
0000
0030
0000
0000
0000
0001
0010
0001
0010
,
0001
0000
0100
0000
0010
0000
0000
0100
0000
0000
0000
0010
0000
0100
0000
0001
,
0000
1000
0000
0010
0000
0100
0000
0000
0010
0000
0000
0000
0100
0000
0010
0000
,
1000
0000
0001
0000
0010
0000
0100
0000
0000
0010
0000
0000
0000
0100
0000
0010
,
0000
0001
0000
1000
0000
0100
0000
0010
0000
0000
0100
0000
0000
0000
0010
0000
,
0100
0000
1000
0000
0001
0000
0100
0000
0010
0000
0000
0100
0000
0000
0000
1000
,
0000
0100
0000
0010
0000
1000
0000
0010
0000
0100
0000
0000
0010
0000
0000
0000
,
0001
0000
0010
0000
1000
0000
0002
0000
0000
0000
0010
0000
0000
0010
0000
0000
,
0000
0000
0000
0103
0000
0001
0000
0100
0000
1000
0000
0100
0000
0000
0010
0000
,
0000
0000
1000
0000
0001
0000
1000
0001
0100
0000
0100
0000
0010
0000
0000
0100
,
0000
0000
0000
0100
0010
1000
0000
0100
0000
1000
0000
0100
0000
0010
0000
0000
,
0100
0000
0000
0000
0100
0010
0001
0000
0100
0000
0001
0000
0010
0000
0100
0000
,
0000
0010
0000
0000
0000
0010
0100
1000
0000
0010
0000
1000
0000
0010
0000
0100
,
0000
0000
0000
0000
0000
0000
0010
0000
0000
0000
0000
0000
0000
0000
0000
0000
0000
0000
0010
0000
0000
0100
0000
0000
0001
0000
0000
0000
0000
0000
0010
0000
0000
0000
0000
0000
0001
0000
0000
0000
0000
0000
0000
0000
0001
0000
0000
0000
,
0010
0000
0010
0100
1000
0100
1000
0000
1000
0010
0000
0010
,
0100
0000
0100
0001
0010
0100
1000
0001
0000
0001
0100
0001
,
0100
0010
0000
0100
0010
1000
0100
0010
0001
0010
0000
0010
,
0100
0000
0100
1000
0100
1000
0001
0000
0000
0001
1000
0001
,
2000
0000
0000
0000
,
0000
0000
0000
0000
,
0000
3002
0000
0000
0000
0000
0000
0000
,
0000
0000
0000
0000
,
0000
0000
1003
0000
0000
0010
0000
0000
,
0100
0000
0001
0000
0000
0010
0000
0000
,
0100
0000
1000
0000
0000
0100
0000
0010
,
0001
0000
0100
0000
0000
0010
0000
1000
,
0001
1000
0100
0010
,
0100
0000
0100
0000
0000
0100
0010
0000
,
0001
0000
0001
0000
0100
0010
0010
0000
,
0100
0000
0100
0000
0000
0100
0010
0000
,
1000
1000
0001
0000
0010
0000
0100
0000
,
0010
0000
0010
0000
0000
0010
0100
0000
,
1000
0000
1000
0000
0010
0100
0100
0000
,
0010
0000
0010
0000
0000
0010
0100
0000
,
0001
0001
1000
0000
0100
0010
1000
0000
,
0010
0000
0100
0000
0000
0100
0010
0000
,
0001
0000
0001
0000
0100
0010
0010
0000
,
0001
0000
0010
0000
0000
0100
0010
0000
,
1000
1000
0001
0000
0010
0100
0001
0000
,
0100
0000
0010
0000
0000
0010
0100
0000
,
1000
0000
1000
0000
0010
0100
0100
0000
,
1000
0000
0100
0000
0000
0010
0100
0000
,
0001
1000
0001
0000
0010
0000
0100
0000
,
1000
0000
0000
0000
0000
0001
0000
0000
0000
0000
0000
0100
0000
0010
0000
0000
,
0000
0100
0000
0000
0000
0000
0001
0000
0000
0000
0000
0000
1001
0000
0000
0000
,
0000
0000
1000
0000
0000
0100
0000
0100
0000
0000
0000
0000
0000
0010
0000
0000
,
0000
0000
0000
0001
0000
0000
0000
0000
1000
0000
0000
0000
0010
0000
0000
0000
,
0100
0000
0000
0000
0001
0000
0000
0000
0000
1000
0000
0000
0000
0000
0000
0100
,
0000
0010
0000
0000
0000
0100
0000
0000
0000
0000
1000
0000
0000
0000
0000
0000
,
1001
0000
0000
0000
0000
0000
0001
0000
0000
0100
0000
0100
0000
0000
0000
0000
,
0000
0010
0000
0000
0000
0000
0000
1000
0000
0000
0001
1000
0001
0000
0000
0000
,
0010
1000
0010
0010
,
0000
0010
0001
0000
1000
0000
1000
0000
,
0010
0001
0010
0010
,
0000
1000
0001
1000
,
0100
0000
0000
0000
0001
0000
0000
0000
0100
0000
0000
0000
0000
1000
0000
0000
,
0000
0000
0000
1000
0000
0001
0000
0000
0000
1000
0000
0000
0000
0000
0001
0000
,
0000
0000
0000
0000
0100
0000
0000
0000
0000
0010
0000
0000
0000
0010
0000
0100
,
0000
0000
0000
0000
0000
0001
0000
0000
0000
0000
0000
0010
0000
0000
0100
0010
,
0100
1000
0010
0001
,
0010
1000
1001
0001
,
0100
0001
0010
1000
,
0010
0000
0110
0000
,
0002
0003
1000
0000
0100
0000
0010
0100
,
1000
0000
0000
0000
0000
0001
0000
0100
0000
0010
0000
0000
0000
0010
0000
0100
,
0000
0001
0000
0000
0000
0000
0001
0000
0000
0000
0100
0000
0000
0000
0010
0000
,
0100
0000
0001
0000
0000
0000
0000
1000
0000
0100
0000
0010
0000
0000
0000
0010
,
0000
0100
0000
1000
0000
0000
0000
0000
0001
0000
0100
0000
0010
0000
1000
0000
,
0100
0000
0010
0000
0001
0000
0000
0000
0000
1000
0000
0100
0000
0010
0000
0001
,
0000
0100
0000
0010
0000
1000
0000
0000
0000
0000
1000
0000
0010
0000
0100
0000
,
0001
0000
0010
0000
0100
0000
1000
0000
0000
0000
0000
0001
0000
0010
0000
0100
,
0000
1000
0000
0010
0000
0100
0000
0001
0000
0000
0000
0000
1000
0000
0100
0000
,
0001
0100
1000
0100
0001
0100
1000
0001
,
0100
0000
0110
0000
0000
0000
0001
0100
,
1000
0000
0000
0100
0000
0000
0001
0000
0000
0100
0000
0000
1000
0000
0000
0100
0000
0000
0001
0000
0000
0000
1000
0000
,
0100
0000
0000
0110
0000
0000
0010
0000
0100
0010
0000
0000
,
0001
0010
0001
0010
0100
1000
0100
1000
,
0001
0100
0010
1000
0100
0010
0001
0100
,
1000
0100
1000
0100
0001
0100
0001
0100
,
0001
0010
1000
0010
0001
0100
1000
0100
,
0001
0010
0100
0010
0100
0010
0100
0010
,
0000
0001
0100
0001
0000
0010
0000
0100
,
1000
0010
1000
0001
0100
0001
0010
0001
,
0100
0000
0010
1000
0100
0000
0010
0000
,
0100
0100
0100
0100
0020
0000
0000
0000
,
0000
0000
0000
0000
,
0000
0000
0000
0000
,
0000
0000
0000
0000
,
0000
0000
0000
0030
;

//---------------dance-single - XO- JA- XMOD RH- JU-----------------
#NOTEDATA:;
#CHARTNAME:;
#STEPSTYPE:dance-single;
#DESCRIPTION:XO- JA- XMOD RH- JU-;
#CHARTSTYLE:;
#DIFFICULTY:Easy;
#METER:12;
#RADARVALUES:0.401683,0.712577,0.090255,0.097197,0.291592,405.000000,392.000000,13.000000,14.000000,0.000000,0.000000,0.000000,0.000000,0.000000,0.401683,0.712577,0.090255,0.097197,0.291592,405.000000,392.000000,13.000000,14.000000,0.000000,0.000000,0.000000,0.000000,0.000000;
#CREDIT:Karl with a K;
#NOTES:
0000
0000
0000
0000
,
0000
0000
0000
0000
,
0000
0000
0000
0000
,
0000
0000
0000
0000
,
0000
0000
0000
0000
,
0000
0000
0000
0000
,
0000
0000
0000
0000
,
0000
0000
0000
0000
,
0000
0000
0000
0000
0000
0000
0000
0000
1000
0000
0000
0000
0000
0000
0000
0010
,
0000
0000
0000
0000
0000
0100
0000
0000
0000
0001
0000
0000
0000
0000
0000
0000
,
0010
0000
0000
0100
0000
1000
0000
0000
,
0000
0010
0000
0000
0000
0000
0000
0100
0000
0000
0000
0001
0000
0000
0000
0000
,
0000
0010
0000
0000
0100
0000
1000
0000
,
0000
0000
0000
0001
0000
0000
0000
0010
0000
0100
0000
0000
0000
1000
0000
0000
,
0000
0000
0001
0000
0100
0010
0000
1000
,
0000
0000
0000
0000
0000
0001
0000
0000
0000
0010
0000
0100
0000
0000
0000
1000
,
0000
0000
0000
0001
0000
0100
0010
0000
,
1000
1000
1000
1000
,
0001
0001
0001
0001
,
0010
0010
0010
0010
,
0100
0100
0100
0100
,
1000
1000
1000
1000
,
0010
0010
0010
0010
,
0100
0100
0100
0100
,
0001
0001
0001
0001
,
1000
0100
0010
0001
,
0100
0010
1000
0100
,
0010
1000
0010
0001
,
0100
1000
0100
0001
,
1000
1000
0001
0001
,
0010
0100
0010
0000
0100
0000
0110
0000
,
2002
0000
0000
0000
,
0000
0000
0000
3003
,
0001
0000
0000
0000
0000
0000
0000
0100
0000
0000
0000
0010
0000
1000
0000
0000
,
0000
0001
0000
0000
0000
1000
0000
0000
0100
0000
0000
0000
0010
0000
0001
0000
,
0000
0000
1000
0000
0000
0000
0001
0000
0000
0100
0000
0000
0000
0010
0000
1000
,
0000
0000
0000
0001
0000
0000
0000
1000
0000
0000
0100
0000
0000
0000
0010
0000
,
0001
0000
0000
0000
1000
0000
0000
0000
1000
0000
0000
0010
0000
0000
0000
0100
,
0000
0010
0000
0000
0000
1000
0000
0000
0000
1000
0000
0000
0100
0000
0000
0000
,
0010
0000
0100
0000
0000
0000
0002
0000
0000
0000
0000
0000
0000
0203
0000
0000
,
0000
0000
0000
2300
0000
0000
0000
3002
0000
0000
0000
0000
0000
0000
0103
0000
,
0000
0000
0010
0000
1000
0000
0010
0000
1000
0000
0000
0000
0100
0000
0000
0010
,
0000
0000
0000
0000
0001
1000
0000
0000
0000
0001
0000
0000
0000
0100
0000
0000
,
0010
0000
0000
0000
0000
1000
0001
0000
0000
0000
0001
0000
0000
0000
0010
0000
,
0000
0100
0000
0000
0000
0000
1000
0001
0000
0000
0000
1000
0000
0000
0000
0010
,
0000
0000
0100
0000
0000
0000
0000
0001
1000
0000
0000
0000
0001
0000
0000
0000
,
0001
0010
0010
0100
,
0100
1000
1000
0010
,
0010
0000
0000
0100
0000
0000
0100
0000
0000
0001
0000
0010
,
0100
0000
0000
0010
0000
0010
0100
0000
0000
0100
0010
0000
,
0002
0000
0000
0000
,
0000
0000
0000
0000
,
0000
0000
0000
0000
,
0000
0000
0000
0000
,
0000
2003
0000
0000
,
0000
3200
0000
0000
,
0000
0320
0000
0000
,
0000
0032
0000
0000
,
0000
1003
0000
0010
,
0100
0100
0000
0010
,
1000
1000
0000
0100
,
0010
0010
0000
0100
,
1000
0001
0000
0010
,
0100
0100
0000
0010
,
0001
0001
0000
0100
,
0010
0010
0000
0100
,
0001
1000
0000
0010
,
0001
0010
0000
1000
,
0001
1000
0000
0100
,
0001
0100
0000
1000
,
0001
1000
0001
0000
0000
0000
0010
0000
,
1000
0010
0000
0001
,
1000
0001
0000
0100
,
1000
0100
0000
0001
,
1000
0001
1000
0000
0000
0000
0100
0000
,
0000
0000
0000
0000
0000
0010
0000
0000
0000
0000
0000
0000
0000
0001
0000
0000
,
0000
0000
0000
0100
0000
0000
0010
0000
,
0000
0000
0000
0000
0000
0000
0000
1000
0000
0000
0000
0000
0000
1000
0000
0000
,
0000
0000
0000
0001
0000
0000
0000
0000
0001
0000
0000
0000
0000
0000
0000
0000
,
0100
0000
0000
0000
0000
0000
0000
0000
0000
0010
0000
0000
0000
0000
0000
0000
,
0000
1000
0000
0000
0000
0000
0000
0000
0000
0000
0100
0000
0000
0000
0000
0000
,
0010
0000
0000
0000
0000
0000
0000
0000
0000
0000
0000
0001
0000
0000
0000
0000
,
0000
0001
0000
0000
0000
0000
0000
1000
0000
0000
0000
0000
1000
0000
0000
0000
,
0000
0100
0001
1000
,
0000
0010
0001
1000
,
0000
0010
0001
1000
,
0000
0000
0100
0000
0010
0100
0001
0000
,
0000
0000
0000
0000
0010
0000
0000
0000
1000
0000
0000
0000
0000
0010
0000
0000
,
0000
0000
0000
0000
0000
0001
0000
0000
0000
1000
0000
0000
0000
0000
0001
0000
,
0000
0000
0000
0000
0100
0000
0000
0000
0000
0000
1000
0000
0000
0000
0000
0100
,
0000
0000
0000
0000
0000
0001
0000
0000
0000
0000
0000
1000
0000
0001
0000
0000
,
1000
0100
0010
0001
,
0100
0010
1000
1000
,
0001
0010
0100
1000
,
0010
0100
0001
0001
,
2000
0000
3001
0100
0001
0000
1000
0000
,
1010
0000
0000
0000
0000
1000
0000
0100
0000
1000
0000
0000
0000
0001
0000
0000
,
0000
0011
0000
0000
0000
0000
0001
0000
0010
0000
0001
0000
0000
0000
1000
0000
,
0000
0000
1100
0000
0000
0000
0000
1000
0000
0010
0000
1000
0000
0000
0000
0001
,
0000
0000
0000
0101
0000
0000
0000
0000
1000
0000
0100
0000
0010
0000
0001
0000
,
1000
0000
0000
0000
1001
0000
0000
0000
0000
1000
0000
0010
0000
0100
0000
0001
,
0000
1000
0000
0000
0000
1001
0000
0000
0000
0000
0001
0000
0100
0000
0010
0000
,
1000
0000
0001
0000
0000
0000
0110
0000
0000
0000
0000
0001
0000
0010
0000
0100
,
0000
1000
0000
0001
0000
0000
0000
0110
0000
0000
0000
0000
1000
0000
0100
0000
,
1000
0100
1000
0100
1000
0100
1000
0000
,
0000
0000
1010
0000
0000
0000
0001
0100
,
0001
0100
0001
0100
0001
0100
0001
0000
,
0000
0011
0000
0000
,
1000
0100
0010
0100
1000
0100
0010
0000
,
0001
0100
0010
0100
0001
0100
0010
0000
,
1000
0100
0010
0001
0100
0010
1000
0100
,
0010
0001
0100
0010
1000
0100
0010
0001
,
0100
0100
0010
0000
0010
0000
0010
0000
,
0000
1000
0000
1000
0000
0100
0000
0010
,
0000
0010
0000
0010
0000
0010
0000
0010
,
0000
0001
0001
0100
,
0010
0010
0220
0000
,
0000
0000
0000
0000
,
0000
0000
0000
0000
,
0000
0000
0000
0000
,
0000
0000
0000
0330
;

//---------------dance-single - ----------------
#NOTEDATA:;
#CHARTNAME:;
#STEPSTYPE:dance-single;
#DESCRIPTION:;
#CHARTSTYLE:;
#DIFFICULTY:Beginner;
#METER:9;
#RADARVALUES:0.280682,0.586828,0.173567,0.041656,0.159681,283.000000,258.000000,25.000000,6.000000,0.000000,0.000000,0.000000,0.000000,0.000000,0.280682,0.586828,0.173567,0.041656,0.159681,283.000000,258.000000,25.000000,6.000000,0.000000,0.000000,0.000000,0.000000,0.000000;
#CREDIT:;
#NOTES:
0000
0000
0000
0000
,
0000
0000
0000
0000
,
0000
0000
0000
0000
,
0000
0000
0000
0000
,
0000
0000
0000
0000
,
0000
0000
0000
0000
,
0000
0000
0000
0000
,
0000
0000
0000
0000
,
0000
0000
1000
0000
,
0000
0000
0000
0000
0000
0000
0000
0000
0000
1000
0000
0000
0000
0000
0000
0000
,
0000
0000
0000
0000
0000
1000
0000
0000
,
0000
0000
0000
0000
0000
0000
0000
0000
0000
0000
0000
1000
0000
0000
0000
0000
,
0000
0000
0000
0001
,
0000
0000
0000
0001
0000
0000
0000
0000
0000
0000
0000
0000
0000
0001
0000
0000
,
0000
0000
0001
0000
0000
0000
0000
0001
,
0000
0000
0000
0000
0000
0001
0000
0000
0000
0000
0000
0000
0000
0000
0000
0001
,
0000
0000
0000
0001
0000
0000
0000
0000
,
1000
0100
1000
0000
,
0001
0100
0001
0000
,
1000
0100
1000
0000
,
0001
0100
0001
0000
,
1000
0010
1000
0000
,
0001
0010
0001
0000
,
1000
0010
1000
0000
,
0001
0010
0001
0000
,
1000
1000
1000
1000
,
0001
0001
0001
0001
,
1000
1000
1000
1000
,
0001
0001
0001
0001
,
0100
0010
0100
0000
,
0010
0100
0010
0000
,
2002
0000
0000
0000
,
0000
0000
0000
3003
,
1000
0000
0000
0000
0000
0000
0000
0100
0000
0000
0000
0000
0000
0000
0000
0000
,
0000
1000
0000
0000
0000
0000
0000
0000
0100
0000
0000
0000
0000
0000
0000
0000
,
0000
0000
1000
0000
0000
0000
0000
0000
0000
0100
0000
0000
0000
0000
0000
0000
,
0000
0000
0000
1000
0000
0000
0000
0000
0000
0000
0100
0000
0000
0000
0000
0000
,
1000
0000
0000
0000
0001
0000
0000
0000
0000
0000
0000
0100
0000
0000
0000
0000
,
0000
0000
0000
0000
0000
0001
0000
0000
0000
0000
0000
0000
0100
0000
0000
0000
,
0000
0000
0000
0000
0000
0000
0002
0000
0000
0000
0000
0000
0000
0100
0000
0000
,
0000
0000
0000
0000
0000
0000
0000
0100
0000
0000
0000
0000
0000
0000
0103
0000
,
0000
0000
0000
0000
1001
0000
0000
0000
1000
0000
0000
0000
0010
0000
0000
1000
,
0000
0000
0000
0000
0000
0000
0000
0000
0000
1000
0000
0000
0000
0010
0000
0000
,
1000
0000
0000
0000
0000
1000
0000
0010
,
0000
1000
0000
0000
0000
0000
0000
0000
0000
0000
0000
1000
0000
0000
0000
0010
,
0000
1000
0000
0000
0000
0000
0001
0000
,
0001
0001
0001
1000
,
1000
1000
0000
1001
,
0000
0110
0000
1001
,
0000
0110
0010
1001
,
0200
0000
0000
0000
,
0000
0000
0000
0000
,
0000
0000
0000
0000
,
0000
0000
0000
0000
,
0000
0000
0000
0000
,
0000
0000
0000
0000
,
0000
0000
0000
0000
,
0000
0000
0000
0000
,
0300
1000
0000
0100
,
0000
0010
0000
0000
,
0000
0001
0000
0100
,
0000
0010
0000
0000
,
0000
1000
0000
0100
,
0000
0010
0000
0000
,
0000
0001
0000
0100
,
0000
0010
0000
0000
,
0000
1000
0000
0100
,
0000
0001
0000
0000
,
0000
0100
0000
1000
,
0000
0001
0000
0000
,
0000
1000
0000
0010
,
0000
0001
0000
0000
,
0000
0010
0000
1000
,
0000
0001
0000
1001
,
0000
1000
0000
1000
,
0000
0000
0000
0000
0000
0010
0000
0000
0000
0000
0000
0000
0000
0010
0000
0000
,
0000
0000
0000
0100
0000
0000
0100
0000
,
0000
0000
0000
0000
0000
0000
0000
0001
0000
0000
0000
0000
0000
0001
0000
0000
,
0000
0000
1000
0000
,
1000
0000
0000
0000
0000
0000
0000
0000
0000
0100
0000
0000
0000
0000
0000
0000
,
0000
0100
0000
0000
0000
0000
0000
0000
0000
0000
0010
0000
0000
0000
0000
0000
,
0010
0000
0000
0000
0000
0000
0000
0000
0000
0000
0000
0001
0000
0000
0000
0000
,
0000
0001
0000
0000
0000
0000
0000
0000
0000
0000
0000
0000
1000
0000
0000
0000
,
0010
0100
0001
1000
,
0000
1001
0000
0001
,
0010
0100
1000
0001
,
0000
1001
0000
1000
,
0010
0000
0000
0000
0100
0000
0000
0000
0001
0000
0000
0000
0000
1000
0000
0000
,
0000
0000
0000
0000
0000
1001
0000
0000
0000
0000
0000
0000
0000
0000
0001
0000
,
0000
0000
0010
0000
0100
0000
0000
0000
0000
0000
1000
0000
0000
0000
0000
0001
,
0000
0000
0000
0000
0000
1001
0000
0000
0000
0000
0000
0000
0000
0000
0000
0000
,
1000
0100
0001
0000
,
0100
1000
0001
0000
,
1000
0010
0001
0000
,
0010
1000
0001
0000
,
0000
1000
1000
1000
,
0100
0000
0000
0000
0000
0010
0000
0000
0000
0010
0000
0000
0000
0010
0000
0000
,
0000
0001
0000
0000
0000
0000
0100
0000
0000
0000
0100
0000
0000
0000
0100
0000
,
0000
0000
0010
0000
0000
0000
0000
1000
0000
0000
0000
1000
0000
0000
0000
1000
,
0000
0000
0001
0001
,
0001
0000
0000
0000
0100
0000
0000
0000
0000
0010
0000
0000
0000
0010
0000
0000
,
0000
0010
0000
0000
0000
1000
0000
0000
0000
0000
0100
0000
0000
0000
0100
0000
,
0000
0000
0100
0000
0000
0000
0010
0000
0000
0000
0000
0001
0000
0000
0000
0001
,
0000
0000
0000
0001
0000
0000
0000
0000
0000
0000
0000
0000
1000
0000
0100
0000
,
1000
0100
1000
0000
0000
0000
0100
0000
,
0000
0000
0110
0000
0000
0000
0001
0100
,
0001
0100
0001
0000
0000
0000
0100
0000
,
0000
0110
0000
0001
,
1000
1000
0001
0001
,
0010
0010
0100
0100
,
1000
0010
1000
0000
0001
0010
0001
0000
,
1000
0100
1000
0000
0001
0100
0001
0100
,
0001
1001
0000
1001
,
0000
1001
0000
0000
0000
1001
0000
1001
,
0000
0000
0000
1001
0000
0000
0000
1001
,
0000
1001
0000
1001
,
0110
0000
0220
0000
,
0000
0000
0000
0000
,
0000
0000
0000
0000
,
0000
0000
0000
0000
,
0000
0000
0000
0330
;
