#VERSION:0.83;
#TITLE:Altitude Rising Pt.4;
#SUBTITLE:~Departure~;
#ARTIST:Z-I-v Sound Team "Karl with a K";
#TITLETRANSLIT:;
#SUBTITLETRANSLIT:;
#ARTISTTRANSLIT:;
#GENRE:;
#ORIGIN:;
#CREDIT:;
#BANNER:Altitude Rising Pt 4 Departure banner.png;
#BACKGROUND:Altitude Rising Pt 4 Departure bg.png;
#PREVIEWVID:;
#JACKET:Altitude Rising Pt 4 Departure jk.png;
#CDIMAGE:;
#DISCIMAGE:;
#LYRICSPATH:;
#CDTITLE:;
#MUSIC:Altitude Rising Pt 4 Departure.ogg;
#OFFSET:-0.025000;
#SAMPLESTART:29.893930;
#SAMPLELENGTH:15.000000;
#SELECTABLE:YES;
#BPMS:0.000=191.000,
217.000=95.500,
291.000=191.000;
#STOPS:;
#DELAYS:;
#WARPS:;
#TIMESIGNATURES:0.000=4=4;
#TICKCOUNTS:0.000=4;
#COMBOS:0.000=1;
#SPEEDS:0.000=1.000=0.000=0,
154.000=0.500=5.000=0,
159.000=1.000=2.000=0,
213.000=0.250=2.000=0,
215.000=1.000=2.000=0,
283.000=0.250=0.000=0,
284.000=1.000=7.000=0;
#SCROLLS:0.000=1.000,
53.500=0.500,
61.000=1.000;
#FAKES:;
#LABELS:0.000=Song Start;
#BGCHANGES:;
#KEYSOUNDS:;
#ATTACKS:
;

//---------------dance-single - XO+ FS- DS JA- XMOD RH- JU----------------
#NOTEDATA:;
#CHARTNAME:;
#STEPSTYPE:dance-single;
#DESCRIPTION:XO+ FS- DS JA- XMOD RH- JU;
#CHARTSTYLE:;
#DIFFICULTY:Hard;
#METER:17;
#RADARVALUES:0.867367,1.193236,0.367150,0.407944,1.053855,893.000000,839.000000,54.000000,60.000000,0.000000,0.000000,0.000000,0.000000,0.000000,0.867367,1.193236,0.367150,0.407944,1.053855,893.000000,839.000000,54.000000,60.000000,0.000000,0.000000,0.000000,0.000000,0.000000;
#CREDIT:Karl with a K;
#NOTES:
0000
0000
0000
0000
,
0000
0000
0000
0000
,
0000
0000
0000
0000
,
0000
0000
0000
0000
,
0000
0000
0000
0000
,
0000
0000
0000
0000
,
0000
0000
1000
0000
1000
0000
0001
0100
,
0010
1000
0100
1000
0000
1000
0010
0000
,
0100
0000
0100
0000
0001
0010
0001
1000
,
1000
1000
1000
0010
1000
0010
1000
0001
,
0010
0001
0010
0100
1000
0100
1000
0001
,
0100
0001
0100
0010
1000
0100
1000
0001
,
0100
0000
0001
0000
0010
0000
0001
0000
0001
0000
1000
0000
1000
0000
0100
0010
,
0100
0010
0001
1000
0010
0000
2000
0000
0000
0000
0000
0000
0000
0000
3020
0000
,
0000
0000
0032
0000
0000
2003
0000
0000
,
0000
0000
3100
0010
1010
0000
1000
1001
,
0000
0011
0000
0110
0000
1100
0000
1000
,
1100
0000
0110
0000
0100
0010
0011
0000
,
0001
1001
0000
1010
0000
0110
0000
0101
,
0000
0001
0011
0000
0110
0000
0100
0001
,
0101
0000
0100
0110
0000
0011
0000
0101
,
0000
0110
0000
1000
1001
0000
0021
0000
,
0130
0010
1000
0000
1010
0000
0000
0000
1000
0000
0001
0000
0000
0000
1001
0000
,
0000
0000
1001
0000
0000
0000
1001
0000
0000
0000
1000
0000
0010
0100
0010
0100
,
0020
0000
0001
0000
0230
0000
1300
0001
,
0200
0000
0000
0000
0010
0000
0000
0000
1000
0000
0000
0000
0310
0100
0010
0100
,
0002
1000
1000
0000
0103
0010
1000
0001
,
0001
0010
0001
0100
0110
0000
1000
0100
,
1000
0100
0001
2000
0000
3010
0001
0100
,
0100
0000
0010
0000
0110
0000
0000
0000
1001
0000
0000
0000
0001
0100
0001
0100
,
0001
0010
0001
0020
0000
2030
3010
0002
,
0203
0000
1300
0100
0010
0010
0010
1000
,
0200
0000
0000
0000
0010
0000
0000
0000
0301
0000
0100
0000
0010
0000
0001
0010
,
0001
0000
0000
0000
0000
0000
0000
0000
0110
0000
0000
0000
0000
0000
0000
0000
1001
0000
0000
0000
0000
0000
0000
0000
1000
0000
0000
0010
0000
0000
1000
0000
0000
0010
0000
0000
0200
0000
0000
0000
0000
0000
0000
0000
0000
0000
0000
0000
,
0010
0000
0000
0000
0000
0000
0000
0000
0000
0000
0000
0000
1300
0000
0000
0000
0000
0000
0100
0000
0000
0000
0000
0000
0010
0000
0000
0000
0000
0000
1000
0000
0000
0010
0000
0000
1000
0000
0000
0000
0000
0000
0000
0000
0110
0000
0000
0000
,
0000
0000
0000
0000
1001
0000
0000
0000
0000
0000
0000
0000
1000
0000
0000
0010
0000
0000
1000
0000
0000
0000
0000
0000
0100
0000
0000
0000
0000
0000
0010
0000
0000
0000
0000
0000
0100
0000
0000
0000
0000
0000
0100
0000
0000
0000
0000
0000
,
0001
0000
0100
1000
0010
0000
0100
0000
0010
0000
0010
0000
0001
0010
0100
0001
,
1000
0100
1000
0010
0100
0010
0100
0100
,
0001
0010
0100
0010
0001
1000
0010
0000
0200
0000
0000
0000
0000
0000
0000
0000
,
0000
0000
0000
0000
0000
0000
0000
0000
0300
0000
0000
0000
0001
0010
0100
1000
,
0010
0000
0000
0100
0000
0000
0001
0000
0000
1000
0000
0000
0200
0300
0000
0000
0200
0300
0000
0000
0001
0000
0000
0000
1000
0000
0000
0000
0000
0000
0000
0000
0000
0000
0000
0000
1000
0000
0000
0000
0000
0000
0000
0000
1000
0000
0000
0000
,
0001
0000
0001
1000
0100
0010
0001
0000
0001
1000
0000
1000
,
0001
0100
0010
0001
0000
0010
0100
0000
0001
1000
0100
0010
,
1000
0000
0010
0100
0000
1000
0002
0000
0000
1003
0000
0100
,
0010
0000
0001
1000
0010
1000
0001
0000
0100
0010
0000
1000
,
0001
0010
0001
1000
0000
0100
0010
0000
0100
1000
0010
1000
,
0001
0000
0010
0100
0000
0010
0001
0000
0000
1010
0000
0110
,
0000
0101
0000
1000
0100
0010
0001
0000
0100
0010
0000
1000
,
0100
0010
0001
1000
0000
0100
0001
0000
0100
1000
0100
0010
,
0001
0000
0000
0000
0000
0000
0000
0000
0100
0000
0000
0000
1000
0000
0000
0000
0000
0000
0000
0000
0100
0000
0000
0000
0001
0000
0000
0100
0000
0000
0010
0000
0000
0000
0000
0000
1000
0000
0000
0010
0000
0000
1000
0000
0000
0010
0000
0000
,
0100
0001
0100
0001
1000
0100
1000
0000
0010
1000
0010
1000
0001
1000
0001
1000
,
0100
0010
0100
0000
1000
0100
0010
0001
0100
0010
1000
0100
0010
0001
1000
0001
,
0100
0000
0000
0010
0000
0000
1000
0000
0000
0001
0000
0000
1000
0000
0000
0000
0020
0030
0000
0000
0020
0030
0000
0000
0001
0000
0000
0000
0020
0030
0000
0000
0020
0030
0000
0000
1000
0000
0000
0010
0000
0000
0100
0000
0000
0010
0000
0000
,
1000
0001
0010
0001
0020
0000
0000
0000
0000
0000
0000
0000
0000
0000
0000
0000
,
0030
0000
0000
0000
0000
0000
0000
0000
0110
0000
0000
0000
1001
0000
0000
0000
1000
0100
0010
0000
0000
0000
0011
0000
0000
0000
0011
0000
0000
0000
0001
0000
,
0100
0000
0010
0000
0000
0000
1000
0000
1000
0100
0010
0100
2000
0000
0000
0000
3001
0100
0000
0001
0200
0000
0000
0000
0300
0000
0100
0000
0000
0000
0100
0000
,
0010
0000
1000
0000
0000
0000
0100
0010
0100
1000
0001
0100
0010
0000
0000
0000
1001
0000
0000
0000
0001
0100
0010
0000
0000
0000
1010
0000
0000
0000
1010
0000
,
0000
0000
1000
0000
0100
0000
0010
0000
0000
0000
0001
0000
0001
0100
0010
0100
0002
0000
0000
0000
1003
0100
0000
1000
0200
0000
0000
0000
0300
0000
0100
0000
,
0000
0000
0100
0000
0010
0000
0001
0000
0000
0000
0100
0010
0100
0001
1000
0100
0020
0000
0000
0000
0001
0000
0000
0000
0130
1000
0010
0000
0000
0000
0001
0000
,
0000
0000
0001
0000
0000
0000
0010
0000
1000
0000
1000
0000
0000
0000
0001
0000
1000
0100
0010
0100
2000
0000
0000
0000
3001
0100
0000
0010
0200
0000
0000
0000
,
0300
0000
0001
0000
0000
0000
0001
0000
0010
0000
1000
0000
0000
0000
0010
0100
0010
0001
1000
0001
0200
0000
0000
0000
0001
0000
0000
0000
0310
1000
0100
0000
,
0000
0000
0001
0000
0000
0000
0001
0000
0000
0000
0100
0000
1000
0000
1000
0000
0000
0000
0001
0000
1000
0010
0100
0010
2000
0000
0000
0000
3001
0010
0000
0100
,
0020
0000
0000
0000
0030
0000
0001
0000
0000
0000
0001
0000
0100
0000
1000
0000
0000
0000
0100
0010
0100
0001
1000
0001
0020
0000
0000
0000
0100
0000
0000
0000
,
0000
0031
0000
0010
0100
0010
0000
0100
0010
0002
1000
0000
0203
0000
0010
0000
,
0000
0301
0000
0100
1000
0100
0000
0010
2000
0000
3200
0000
0302
0000
0100
0000
,
0000
0103
0000
0010
0001
0100
0000
0010
0002
0013
0200
0000
2300
0000
0100
0000
,
0000
0000
3100
0000
0000
0000
0010
0000
2000
0000
0100
0000
0000
0000
3100
0000
0020
0000
0000
0000
0100
0000
0000
0000
0031
0010
0001
0010
0002
0000
0000
0000
,
0000
0000
0100
0000
0000
0000
0103
0000
0010
0000
0100
0000
0000
0000
0100
0000
0001
0000
0000
0000
1000
0000
0100
0000
1000
0010
1000
0010
1000
0010
1000
0000
,
0010
0000
0100
0000
0000
0000
0001
0000
0010
0000
0100
0000
0000
0000
0100
0000
0110
0000
0000
0000
0010
0000
0000
0000
0001
1000
0001
1000
0001
1000
0001
1000
,
0001
1000
0001
0000
0000
0000
0010
0000
1000
0000
0010
0000
0000
0000
0001
0000
0100
0000
0000
0000
0100
0000
0000
0000
0010
0100
0010
0100
0010
0000
1000
0000
,
0100
0000
0010
0100
0010
0000
0001
0000
1000
0000
0010
0000
0100
0000
0010
0000
0001
0000
0010
0000
0100
0000
0000
0000
0002
0000
0000
0000
0000
0000
0000
0000
,
0000
0000
0000
0000
0000
0000
1003
1000
,
1000
0000
0000
0000
1000
0000
0000
0000
1010
0000
0010
0000
0100
0000
0101
0000
0001
0000
0010
0000
0100
0010
0001
1000
0010
0000
0000
0000
1000
0000
0000
0000
,
1010
0000
0000
0000
1000
0000
0100
0000
0010
0000
0100
0010
1000
0000
0010
0000
,
0001
0000
0100
0000
1000
0000
0200
0000
0001
0000
0310
1000
0001
0000
0010
0000
,
0021
0000
0000
0000
0000
0000
0000
0000
0000
0000
0000
0000
0130
0000
0000
0000
0000
0000
1000
0000
0000
0000
0000
0000
0100
0000
0010
0000
0000
0000
0001
0000
0000
1000
0000
0000
0010
0000
0000
0000
0000
0000
0100
0000
0000
0000
0000
0000
,
1000
0000
0100
0000
0010
0000
1000
0000
0100
0010
0100
0010
0100
0000
1000
0000
,
1100
0000
0000
0000
0000
0000
0000
0000
1000
0000
0000
0000
0100
0000
0000
0010
0000
0000
0001
0000
0000
0000
0000
0000
0010
0000
0000
0100
0000
0000
1000
0000
0000
0000
0000
0000
0010
0000
0000
0100
0000
0000
0001
0000
0000
0000
0000
0000
,
0100
0010
1000
0000
0010
0100
0001
0000
1000
0000
0001
0100
0001
0100
0010
0000
,
1000
0100
0010
0000
0001
0010
0100
0000
1000
0010
0100
0000
0001
0100
0010
0000
,
1000
0100
0010
0000
0100
0010
0001
0000
0010
0100
1000
0001
0010
0000
0020
0000
,
1000
0000
0000
0000
0032
0000
0000
0000
0203
0000
0310
0100
0010
0000
0020
0000
,
0100
0000
0000
0000
0001
0000
0000
0000
0031
0010
0100
0010
0100
0000
1000
0000
,
0100
0001
2000
0000
3100
0001
0001
0100
,
1000
0000
0100
0000
0110
0000
0000
0000
1000
0100
0010
0001
0200
0000
0000
0000
,
0001
0000
0000
0000
0010
0000
0000
0000
0301
0000
1000
0100
2000
0000
0000
0000
,
0010
3020
0001
0000
0032
0000
1000
2003
,
0100
0000
3100
0010
0100
0001
0001
1000
,
0001
0000
0000
0000
1001
0000
0000
0000
0001
0100
0010
1000
0100
0010
0100
0010
,
0100
0000
0010
0000
0001
0010
0001
0010
0001
1000
0010
0100
0001
0000
0000
0000
,
1100
0000
0000
0000
0101
0000
0000
0000
0100
0010
0100
0010
0100
0000
0010
0000
,
1000
0010
1000
0010
1000
0001
0010
0100
0010
0000
0000
0000
0110
0000
0000
0000
,
1100
0000
0000
0000
1000
0000
1000
0000
0100
0000
0000
0000
1000
0100
0010
0001
,
1000
0010
0010
0010
1000
0000
0001
0001
,
0010
0000
0010
0000
0100
0000
0100
0000
1000
0001
1000
0001
1000
0001
1000
0001
,
1000
0001
1000
0000
0100
0010
0100
0010
0100
0010
0100
0010
0100
0010
0100
0010
,
0100
1000
0100
1000
0001
0100
0001
0100
0010
1000
0100
0010
0001
1000
0010
0100
,
0001
0000
0000
0100
0000
0000
0010
0000
0000
1000
0000
0000
0001
0000
0000
0010
0000
0000
0001
0000
1000
0000
0001
0000
1000
0000
0000
0000
0000
0000
0000
0000
0000
0000
0000
0000
0000
0000
0000
0000
0000
0000
0000
0000
0000
0000
0000
0000
;

//---------------dance-single - XO DS JA- XMOD RH- JU----------------
#NOTEDATA:;
#CHARTNAME:;
#STEPSTYPE:dance-single;
#DESCRIPTION:XO DS JA- XMOD RH- JU;
#CHARTSTYLE:;
#DIFFICULTY:Medium;
#METER:14;
#RADARVALUES:0.621629,0.860677,0.380748,0.333154,0.462337,640.000000,584.000000,56.000000,49.000000,0.000000,0.000000,0.000000,0.000000,0.000000,0.621629,0.860677,0.380748,0.333154,0.462337,640.000000,584.000000,56.000000,49.000000,0.000000,0.000000,0.000000,0.000000,0.000000;
#CREDIT:Karl with a K;
#NOTES:
0000
0000
0000
0000
,
0000
0000
0000
0000
,
0000
0000
0000
0000
,
0000
0000
0000
0000
,
0000
0000
0000
0000
,
0000
0000
0000
0000
,
0000
0000
1000
0000
1000
0000
0100
0010
,
0100
0010
0000
0010
0000
0001
0010
0001
,
0010
0000
0100
0000
0010
0100
0010
0100
,
1000
1000
1000
0001
0100
0010
0000
1000
,
0100
0010
0000
0001
0100
0010
0000
1000
,
0100
0010
0000
0001
0100
0010
1000
0100
,
0010
0000
0001
0000
1000
0000
0001
0000
0001
0000
1000
0000
1000
0000
0010
0100
,
0010
0000
0100
0010
0100
0000
0010
0000
0000
0000
0000
0000
0000
0000
0000
0000
,
0000
0000
0000
0000
,
0000
0000
1000
0000
1001
0000
0000
1100
,
0000
0101
0000
1010
0000
0011
0000
0000
,
0110
1001
0001
1001
,
0000
0101
0000
1100
0000
0011
0000
1010
,
0000
0110
1001
0001
,
1001
0000
0000
0011
0000
1010
0000
0101
,
0000
1100
0000
0000
0110
0000
1001
0000
,
1000
0001
1001
0000
0000
1010
0000
0011
,
0000
1100
0000
0101
0000
0000
1000
0010
,
2001
0000
0100
0000
3001
0000
0001
0100
,
0020
0000
0032
0000
2003
0000
3100
0010
,
2000
0000
0100
0000
0001
0000
3001
0010
,
0100
0010
0100
0000
0110
0000
1000
0010
,
0001
0010
1000
0001
0000
0010
0000
0200
,
1000
1300
1100
0021
,
1030
0010
0001
1000
0000
1000
0010
0200
,
0000
0000
0001
0000
0310
1000
1001
0000
,
2100
0000
0000
0000
0010
0000
0000
0000
0001
0000
0000
0000
3100
0000
0010
0100
,
0010
0000
0001
0000
0100
0000
0110
0000
0000
2010
0000
0000
,
0100
0000
0000
0000
0000
0000
0000
0000
0000
0000
0000
0000
0001
0000
0000
0000
0000
0000
0000
0000
0000
0000
0000
0000
3010
0000
0000
0000
0000
0000
0100
0000
0000
0010
0000
0000
0100
0000
0000
0000
0000
0000
0000
0000
0001
0000
0000
0000
,
0000
0000
0010
0000
0000
0000
0110
0000
0000
0000
0000
0000
1000
0000
0000
0010
0000
0000
1000
0000
0000
0001
0000
0000
,
0000
0001
1000
0010
1000
0001
0000
1000
,
0001
0010
0001
1000
0010
1000
0001
0010
,
0001
0010
1000
0010
0220
0000
0000
0000
,
0000
0000
0000
0000
0330
0000
1000
0100
,
0010
0000
0000
0001
0000
0000
0100
0000
0010
0000
0100
0000
0010
0000
0000
0000
0000
0000
1000
0000
0000
0000
1000
0000
,
0100
0000
0100
0010
0000
0010
0001
0000
0001
0100
0000
0100
,
0010
0000
0010
1000
0000
1000
0100
0000
0100
0010
0000
0010
,
1000
0000
1000
0010
0000
0010
0200
0000
0000
1300
0000
1000
,
0010
0000
0010
0100
0000
0100
0001
0000
0001
0010
0000
0010
,
0100
0000
0100
1000
0000
1000
0010
0000
0010
0100
0000
0100
,
1000
0000
1000
0100
0000
0100
0010
0000
0000
1000
0000
1000
,
0000
1000
0000
0010
0000
0010
1000
0000
1000
0100
0000
0100
,
0010
0000
0010
0001
0000
0001
0100
0000
0100
0010
0000
0010
,
0001
0000
0000
0000
0001
0000
0010
0000
0000
0000
0010
0000
0200
0000
0000
0000
0000
0000
0301
0000
0000
0010
0000
0000
,
0001
0010
0100
0000
1000
0010
1000
0010
,
0100
0000
0001
0010
0100
0001
0100
0010
,
0001
0000
0000
0100
0000
0000
1000
0000
0000
0000
1000
0000
0100
0000
0000
0000
0100
0000
0010
0000
0000
0000
0000
0000
,
1000
0001
0000
0000
0000
0000
0000
0000
,
0000
0000
0000
0000
1001
0000
1000
0000
0100
0010
0000
0010
0000
0010
0000
0010
,
0001
0000
0001
0000
0000
0000
1000
0000
0010
0000
0100
0000
0010
0000
0000
0000
1000
0000
0000
1000
0001
0000
0000
0000
0010
0000
0100
0000
0000
0000
0100
0000
,
1000
0000
1000
0000
0000
0000
0001
0000
1000
0001
1000
0000
1001
0000
0000
0000
0001
0000
0000
0000
0100
0000
0010
0000
0000
0000
0010
0000
0000
0000
0010
0000
,
0000
0000
0010
0000
1000
0000
1000
0000
0000
0000
0001
0000
0010
0000
0100
0000
0010
0000
0000
0000
0001
0000
0000
0001
1000
0000
0000
0000
0010
0000
0100
0000
,
0000
0000
0100
0000
0001
0000
0001
0000
0000
0000
1000
0000
0001
1000
0001
0000
2001
0000
0000
0000
0100
0000
0000
0000
3010
0000
0100
0000
0000
0000
0100
0000
,
0000
0000
0100
0000
0000
0000
0100
0000
1000
0000
0000
0000
0000
0000
0100
0000
0002
0000
0010
0000
1000
0000
0000
0000
1003
0000
0000
0001
1000
0000
0000
0000
,
0100
0000
0010
0000
0000
0000
0010
0000
0001
0000
0000
0000
0000
0000
1000
0000
0001
1000
0001
0000
1002
0000
0000
0000
0100
0000
0000
0000
0013
0000
0100
0000
,
0000
0000
0100
0000
0000
0000
0100
0000
0000
0000
0100
0000
0001
0000
0000
0000
0000
0000
0100
0000
2000
0000
0010
0000
0001
0000
0000
0000
3001
0000
0000
1000
,
0001
0000
0000
0000
0100
0000
0010
0000
0000
0000
0010
0000
0001
0000
0000
0000
0000
0000
0010
0000
1000
0001
1000
0000
0002
0000
0000
0000
0100
0000
0000
0000
,
0000
1000
0000
0103
0010
0100
0000
0000
0002
0000
0000
0000
2003
0000
0100
0000
,
0000
0001
0000
3100
0020
0100
0000
0130
1000
0000
0000
0000
0020
0000
0100
0000
,
0000
0001
0000
0130
0010
0100
0000
0000
0002
0000
1000
0000
0023
0000
0100
0000
,
0000
1000
0000
0130
0010
0100
0000
0100
1000
0000
0000
0000
0001
0001
0001
0000
,
0000
0000
0000
0000
1010
0000
0000
0010
1000
0000
0100
0000
1000
1000
1000
1000
,
0000
0000
0000
0000
0011
0000
0000
0010
0001
0000
0100
0000
0010
0010
0010
0010
,
0010
0010
0000
0100
0010
1000
0000
0100
0010
0000
0001
0000
0100
0100
0100
0000
,
0001
0100
0100
0000
1001
0000
0000
0000
0110
0000
0000
0000
0000
0000
0000
0000
,
0000
0000
0000
1000
,
0100
0000
0010
0001
1000
0001
1000
0010
,
0200
0302
0203
2300
,
3002
0000
0023
0000
2030
0000
3100
0010
,
0001
0000
0001
0000
1000
0010
0100
0010
,
0010
0000
1010
0000
0011
0000
0001
0010
,
0200
2300
3200
0302
,
2003
0000
3020
0000
0032
0000
0103
0010
,
1000
0000
1000
0001
0010
0000
0100
0010
,
0010
0000
0011
0000
1010
0000
0001
0002
,
0000
0103
0001
0020
,
0031
0000
0020
0000
0130
0000
0010
1000
,
0010
0001
1000
0000
0010
0001
0010
1000
,
0001
0010
0100
0000
0110
0000
1002
0000
,
0100
2003
0100
3002
,
0000
0203
0000
0000
2300
0000
0000
3002
,
0000
0000
0023
0000
0000
0000
1030
0100
,
0010
0000
0000
0000
1000
0000
0001
0000
0100
0000
1000
0000
0001
0010
0001
0000
,
0010
0000
0000
0000
0011
0000
0000
0000
1001
0000
0000
0000
1000
0010
1000
0000
,
0010
0000
0000
0000
1010
0000
0000
0000
1000
0100
1000
0000
0100
0000
0000
0000
,
1100
0000
0000
0000
1001
0000
0000
0000
0001
0100
0001
0000
0100
0000
0000
0000
,
0101
0000
1000
0100
0010
0001
0100
0000
,
0001
0100
0010
1000
0100
0000
1000
1000
,
0010
0010
1000
1000
0001
0001
0010
0010
,
0001
0000
0001
0000
1000
0100
1000
0000
0001
0000
0010
0000
0001
0100
0001
0000
,
1000
0000
0010
0000
1000
0001
1000
0000
0001
0010
0001
0000
1000
0010
1000
0000
,
0100
0010
0100
0010
0100
0010
0100
0000
0000
0000
0000
0000
0000
0000
0000
0000
;

//---------------dance-single - ----------------
#NOTEDATA:;
#CHARTNAME:;
#STEPSTYPE:dance-single;
#DESCRIPTION:;
#CHARTSTYLE:;
#DIFFICULTY:Easy;
#METER:11;
#RADARVALUES:0.384633,0.662059,0.183575,0.237967,0.081589,396.000000,369.000000,27.000000,35.000000,0.000000,0.000000,0.000000,0.000000,0.000000,0.384633,0.662059,0.183575,0.237967,0.081589,396.000000,369.000000,27.000000,35.000000,0.000000,0.000000,0.000000,0.000000,0.000000;
#CREDIT:Karl with a K;
#NOTES:
0000
0000
0000
0000
,
0000
0000
0000
0000
,
0000
0000
0000
0000
,
0000
0000
0000
0000
,
0000
0000
0000
0000
,
0000
0000
0000
0000
,
0000
1000
0010
0100
,
0100
0001
0000
0010
0000
0100
0010
0000
,
0001
0000
0100
0000
0010
0000
0010
1000
,
0001
1000
0001
1000
0000
0100
0000
0100
,
0000
0010
0000
0010
0000
0001
0000
0001
,
0000
1000
0000
1001
0000
0001
0000
0110
,
0000
0100
0000
0010
1000
0100
0000
0010
,
0001
0100
0000
0000
0000
0000
0000
0000
,
0000
0000
0000
0000
,
0000
0000
1000
0000
1100
0000
0000
0100
,
0000
0010
0000
0001
0000
1000
0000
0000
,
1001
0001
1000
1010
,
0000
0010
0000
0100
0000
0001
0000
1000
,
0000
0000
1001
0000
0001
0010
0001
0000
,
0011
0000
0000
0010
0000
0100
0000
1000
,
0000
0001
0000
0000
1001
0000
1000
0000
,
0001
0000
0101
0000
0000
0100
0000
0010
,
0000
1000
0000
0001
0000
0000
1001
0000
,
2000
0000
3100
0010
,
0001
0001
0010
0001
,
2000
0000
3000
1000
,
0200
0000
0000
0310
,
0001
0000
0001
1000
0000
0010
0000
0100
,
0000
0000
0001
0001
,
1000
0000
1000
0001
0000
0010
0000
0200
,
0000
0000
0000
0000
0310
0001
0010
0001
,
2000
0000
0000
0000
0000
0000
0000
0001
,
3001
0000
0110
0002
,
0000
0000
0000
0000
0000
1000
1003
0000
,
0000
0000
0110
0000
1000
0000
0100
0010
,
0000
0000
0001
0000
0100
0010
0000
0000
,
1000
0000
0010
1000
0000
0000
0001
0000
,
0000
0010
0001
0000
2002
0000
0000
0000
,
0000
0000
3003
0200
,
0000
0310
1001
1000
,
0100
0010
0001
0010
,
0100
1000
0010
0100
,
0001
0100
0000
0001
,
0100
0010
1000
0010
,
0100
0001
0010
0100
,
1000
0000
0000
0100
0000
0000
0000
0000
0000
1000
0000
0001
,
0000
1000
0000
0000
0000
0000
0100
0000
0000
0010
0000
0000
,
0001
1000
0010
0100
,
0001
0010
0100
0001
,
0100
0010
0001
0100
,
0010
0001
0010
0100
,
0001
1000
1000
0001
,
0001
0000
0000
0000
,
0000
0000
0000
0000
1000
0000
0010
0000
1000
0000
0000
0001
0000
0010
0000
0000
,
0001
0000
0000
0000
1000
0000
1000
0000
0100
0000
0100
0000
0000
0010
0000
0000
,
0001
0000
0000
0000
1000
0000
0001
0000
0010
0000
0001
0000
0000
1000
0000
0010
,
0000
0000
1000
0000
0000
0000
0001
0000
0001
0000
0100
0000
0100
0000
0000
0010
,
0000
0000
1000
0000
0000
0000
0001
0000
0001
0000
0100
0000
0001
0000
0000
1000
,
0000
0100
0000
0000
1000
0000
0000
0000
0001
0000
0001
0000
0010
0000
0010
0000
,
0000
0100
0000
0000
1000
0000
0000
0000
0001
0000
1000
0000
0100
0000
1000
0000
,
0000
0001
0000
0100
0000
0000
0001
0000
0000
0000
1000
0000
1000
0000
0010
0000
,
0010
0000
0000
0100
0000
0000
0001
0000
0000
0000
1000
0000
2000
0000
0000
0000
,
0000
0100
3020
0230
,
0000
2300
0000
3002
,
0000
0000
0023
2030
,
0000
0000
0000
0000
3200
0000
0000
0000
0000
0000
0000
0000
0310
0100
0010
0000
,
0000
0000
0000
0000
0001
0000
0000
0000
0100
0000
0000
0000
0010
0100
0010
0100
,
0000
0000
0000
0000
0001
0000
0000
0000
1001
0000
0000
0000
1000
0001
1000
0001
,
1000
0001
0000
0000
0010
0000
0000
0000
0100
0000
0000
0000
0010
0100
0010
0000
,
0001
1000
0001
0000
1010
0000
0000
0000
0011
0000
0000
0000
0000
0000
0000
0000
,
0000
0000
0000
0000
,
0000
0000
0000
0000
1000
0000
0000
0100
0000
0000
0010
0001
1000
0000
0000
0000
,
1002
0103
0010
0001
,
1000
0100
0010
2000
,
0100
0000
0001
0000
3100
0010
0100
0000
,
1000
0001
0101
2001
,
0100
3002
0100
2003
,
0100
3002
0100
0023
,
0001
0230
2300
3020
,
0100
0000
1030
0000
1000
0100
0020
0001
,
0000
0000
0130
0020
,
0000
0031
1001
1000
,
0010
0100
0001
0010
,
0100
1000
1000
0002
,
0000
0000
0003
0020
,
0000
0230
0000
0000
2300
0000
0000
3020
,
0000
0230
0000
0301
,
0001
0000
1000
0000
1000
0000
0001
0100
,
0010
0000
0110
0000
1001
0000
1000
0100
,
0010
0000
0110
0000
0001
0010
0100
0000
,
0110
0000
1001
0000
1000
0010
0100
0000
,
0110
0000
1000
0100
1000
0000
0001
0100
,
0010
1000
0001
0000
1000
0000
0001
0010
,
0100
0010
0001
0000
1000
0010
0100
0010
,
1000
0000
0100
0010
0100
0010
0100
0010
,
0100
0010
0100
0000
1000
0010
0100
0001
,
0010
0100
1000
0001
0000
0000
0000
0000
;

//---------------dance-single - ----------------
#NOTEDATA:;
#CHARTNAME:;
#STEPSTYPE:dance-single;
#DESCRIPTION:;
#CHARTSTYLE:;
#DIFFICULTY:Beginner;
#METER:8;
#RADARVALUES:0.249623,0.396726,0.074790,0.169977,0.003400,257.000000,246.000000,11.000000,25.000000,0.000000,0.000000,0.000000,0.000000,0.000000,0.249623,0.396726,0.074790,0.169977,0.003400,257.000000,246.000000,11.000000,25.000000,0.000000,0.000000,0.000000,0.000000,0.000000;
#CREDIT:Karl with a K;
#NOTES:
// measure 0
0000
0000
0000
0000
,  // measure 1
0000
0000
0000
0000
,  // measure 2
0000
0000
0000
0000
,  // measure 3
0000
0000
0000
0000
,  // measure 4
0000
0000
0000
0000
,  // measure 5
0000
0000
0000
0000
,  // measure 6
0000
1000
0000
0100
,  // measure 7
1000
0001
0000
0100
,  // measure 8
0001
0000
0000
0000
0100
0000
0000
0001
,  // measure 9
0000
1000
0000
1000
0000
0000
0000
1000
,  // measure 10
0000
0000
0000
0001
0000
0000
0000
0001
,  // measure 11
0000
0000
0000
0010
0000
0010
0000
0010
,  // measure 12
0000
0010
0000
0100
0000
0100
0000
0100
,  // measure 13
0000
0100
0000
0000
0000
0000
0000
0000
,  // measure 14
0000
0000
0000
0000
,  // measure 15
0000
0000
1000
0000
1000
0000
0000
1000
,  // measure 16
0000
1000
0000
1000
0000
1000
0000
0000
,  // measure 17
1000
1000
0001
0001
,  // measure 18
0000
0001
0000
0001
0000
0001
0000
0001
,  // measure 19
0000
0001
0001
0100
,  // measure 20
0100
0000
0000
0100
0000
0100
0000
0100
,  // measure 21
0000
0100
0000
0000
0100
0000
0100
0000
,  // measure 22
0010
0000
0010
0000
0000
0010
0000
0010
,  // measure 23
0000
0010
0000
0010
0000
0000
0010
0000
,  // measure 24
1000
0100
1000
0000
,  // measure 25
0001
0001
0001
0000
,  // measure 26
0001
0100
0001
0000
,  // measure 27
1000
0000
1000
0010
,  // measure 28
1000
0000
0000
0100
0000
0000
0000
0000
,  // measure 29
0100
0000
1000
0000
,  // measure 30
1000
0000
0000
0010
0000
0000
0000
0000
,  // measure 31
0010
0000
0001
0010
,  // measure 32
0200
0000
0000
0000
,  // measure 33
0301
0000
1000
0200
,  // measure 34
0000
0000
0000
1300
,  // measure 35
0000
0001
1000
1000
,  // measure 36
1000
0001
0001
0001
,  // measure 37
0100
0010
1000
0100
,  // measure 38
0010
0001
2002
0000
,  // measure 39
0000
0000
3003
0000
,  // measure 40
0000
0000
1001
2000
,  // measure 41
0000
3000
0200
0000
,  // measure 42
0300
0020
0000
0030
,  // measure 43
0002
0000
0003
2000
,  // measure 44
0000
3000
0020
0000
,  // measure 45
0030
0200
0000
0300
,  // measure 46
0002
0000
0003
1001
,  // measure 47
0000
0000
0002
0000
,  // measure 48
0003
0020
0000
0030
,  // measure 49
0200
0000
0300
2000
,  // measure 50
0000
3000
0020
0000
,  // measure 51
0030
0100
0100
0100
,  // measure 52
0001
1001
1001
1000
,  // measure 53
0001
1001
0000
0000
,  // measure 54
0000
1000
0100
0010
,  // measure 55
0001
0001
0100
0010
,  // measure 56
1000
0000
0001
1000
0000
0010
0000
0100
,  // measure 57
0000
0001
0000
0001
0000
0010
0000
0100
,  // measure 58
0000
1000
0000
0001
0001
0000
0010
0000
,  // measure 59
0100
1000
1000
0010
,  // measure 60
0100
0000
0001
0000
1000
0001
0000
0100
,  // measure 61
0000
0010
0000
1000
0000
1000
0000
0100
,  // measure 62
0000
0010
0000
0001
0000
1000
2000
0000
,  // measure 63
0000
0000
0000
3200
,  // measure 64
0000
0000
0000
0320
,  // measure 65
0000
0000
0000
0032
,  // measure 66
0000
0000
0000
0000
0000
0000
1003
1000
,  // measure 67
0000
0000
0010
0000
0000
0000
0100
0100
,  // measure 68
0000
0000
0001
0000
1001
0000
0001
0001
,  // measure 69
0001
0000
0000
0000
0000
0000
0010
0010
,  // measure 70
0000
0010
0000
0000
0100
0000
0000
0000
0110
0000
0000
0000
0000
0000
0000
0000
,  // measure 71
0000
0000
0000
0000
,  // measure 72
0000
0000
0000
1000
,  // measure 73
0000
0100
0000
0010
,  // measure 74
0010
0010
0001
1000
,  // measure 75
0000
0010
0000
0100
,  // measure 76
0000
0010
0000
1000
,  // measure 77
0000
0001
0001
0001
,  // measure 78
0001
0001
0001
0001
,  // measure 79
0001
0001
0001
0001
,  // measure 80
0001
0001
0001
2000
,  // measure 81
0000
0000
0000
3020
,  // measure 82
0000
0000
0000
0031
,  // measure 83
0010
1000
0001
0010
,  // measure 84
1000
0001
0110
2002
,  // measure 85
0000
0000
3003
1000
,  // measure 86
0000
0010
0000
0100
,  // measure 87
0000
0001
0000
1000
,  // measure 88
0000
1001
0000
1000
,  // measure 89
1000
1000
0000
0001
,  // measure 90
0001
0001
0010
0010
,  // measure 91
0010
0000
0100
0100
,  // measure 92
0100
1000
0010
1000
,  // measure 93
0001
0010
0001
0100
,  // measure 94
0010
0100
0010
0100
,  // measure 95
0010
1000
0100
0010
,  // measure 96
0001
0100
0010
1000
,  // measure 97
0100
0010
0000
0000
;
