#VERSION:0.83;
#TITLE:Altitude Rising Pt.3;
#SUBTITLE:~Acceleration~;
#ARTIST:Z-I-v Sound Team "Karl with a K";
#TITLETRANSLIT:;
#SUBTITLETRANSLIT:;
#ARTISTTRANSLIT:;
#GENRE:;
#ORIGIN:;
#CREDIT:;
#BANNER:Altitude Rising Pt 3 Acceleration banner.png;
#BACKGROUND:Altitude Rising Pt 3 Acceleration bg.png;
#PREVIEWVID:;
#JACKET:Altitude Rising Pt 3 Acceleration jk.png;
#CDIMAGE:;
#DISCIMAGE:;
#LYRICSPATH:;
#CDTITLE:;
#MUSIC:Altitude Rising Pt 3 Acceleration.ogg;
#OFFSET:-0.025000;
#SAMPLESTART:20.275717;
#SAMPLELENGTH:15.000000;
#SELECTABLE:YES;
#BPMS:0.000=178.000,
240.000=142.400,
321.500=178.000,
359.000=237.333,
602.000=142.400,
683.500=178.000;
#STOPS:;
#DELAYS:;
#WARPS:;
#TIMESIGNATURES:0.000=4=4;
#TICKCOUNTS:0.000=4;
#COMBOS:0.000=1;
#SPEEDS:0.000=1.000=0.000=0,
414.000=4.000=16.000=0;
#SCROLLS:0.000=1.000,
321.500=0.800,
324.000=0.400,
324.625=0.300,
325.250=0.200,
325.875=0.100,
326.500=0.000,
327.750=1.000,
359.000=0.000,
359.500=1.500,
360.000=0.000,
360.500=1.500,
361.000=0.000,
361.500=1.500,
362.000=0.000,
362.500=1.500,
363.000=0.000,
363.500=1.500,
364.000=1.000,
683.500=0.800,
686.000=0.400,
686.625=0.300,
687.250=0.200,
687.875=0.100,
688.500=0.000,
689.750=1.000,
721.000=0.000,
721.500=2.000,
722.000=0.000,
722.500=2.000,
723.000=0.000,
723.500=2.000;
#FAKES:;
#LABELS:0.000=Song Start;
#BGCHANGES:;
#KEYSOUNDS:;
#ATTACKS:
;

//---------------dance-single - XO JA- XMOD RH JU- HS+----------------
#NOTEDATA:;
#CHARTNAME:(milquetoast 17);
#STEPSTYPE:dance-single;
#DESCRIPTION:XO JA- XMOD RH JU- HS+;
#CHARTSTYLE:;
#DIFFICULTY:Hard;
#METER:16;
#RADARVALUES:0.874286,1.031422,0.095946,0.315252,1.350101,893.000000,879.000000,14.000000,46.000000,65.000000,0.000000,1.000000,0.000000,0.000000,0.874286,1.031422,0.095946,0.315252,1.350101,893.000000,879.000000,14.000000,46.000000,65.000000,0.000000,1.000000,0.000000,0.000000;
#CREDIT:Karl with a K;
#NOTES:
// measure 0
0000
0000
0000
0000
,  // measure 1
0000
0000
0000
0000
,  // measure 2
0000
0000
0000
0000
,  // measure 3
0000
0000
0000
1000
,  // measure 4
0100
0000
0000
0000
0010
0000
0000
0000
0001
0000
0000
1000
0000
0000
0000
0010
,  // measure 5
0000
0000
0000
0100
0000
0000
0000
0001
0000
0000
0010
0000
0000
0000
0100
0000
,  // measure 6
0000
0000
1000
0000
0000
0000
0001
0000
0000
0100
0000
0000
0000
0010
0000
0000
,  // measure 7
0000
1000
0000
0000
0000
0001
0000
0000
1000
0000
0100
0000
0010
0000
0100
0000
,  // measure 8
1000
0000
0100
0000
0010
0000
0010
0001
0000
0100
0000
0010
0000
0100
0000
0001
,  // measure 9
0000
0100
0000
0010
0000
0010
1000
0000
0010
0000
0100
0000
0010
0000
1000
0000
,  // measure 10
0010
0000
0100
0000
0100
0001
0000
0010
0000
0100
0000
0010
0000
0001
0000
0010
,  // measure 11
0000
0100
0000
0100
1000
0000
0001
0000
0010
0000
0100
0000
1000
0000
0010
0000
,  // measure 12
0100
0000
0100
0001
0000
0010
0000
0100
0000
1000
0000
0001
0000
0100
0000
0001
,  // measure 13
0000
0001
4000
0000
0000
0000
0000
0000
0000
0000
0000
0000
0000
0000
0000
0000
,  // measure 14
0000
3000
0001
1000
0001
0000
0010
0100
0000
0010
0001
0000
1000
0001
1000
0001
,  // measure 15
0200
0000
0001
1000
0000
0000
1000
0001
0000
0000
0301
1000
0100
1000
0001
0200
,  // measure 16
0000
0001
1000
0000
0000
1000
0001
0000
0000
0301
1000
0100
1000
0001
0020
0000
,  // measure 17
0001
1000
0000
0000
1000
0001
0000
0000
0031
1000
0010
1000
0001
0020
0000
0001
,  // measure 18
1000
0000
0000
1000
0001
0000
0000
0031
1000
0010
1000
0001
0200
0000
0010
1000
,  // measure 19
0000
0000
1000
0001
0000
0000
0301
1000
0100
0010
0001
0200
0000
0001
1000
0000
,  // measure 20
0000
1000
0001
0000
0000
0301
1000
0100
1000
0001
0020
0000
0100
1000
0000
0000
,  // measure 21
1000
0001
0000
0000
0031
1000
0010
0100
0001
0020
0000
0001
1000
0000
0000
1000
,  // measure 22
0001
0000
0000
0031
1000
0010
1000
0001
0200
0000
0001
1000
0000
0000
1000
0010
,  // measure 23
0000
0000
0301
1000
0100
1000
0001
0200
0000
0001
1000
0000
0000
0010
0001
0000
,  // measure 24
0000
0301
1000
0100
1000
0001
0020
0000
0001
1000
0000
0000
1000
0100
0000
0000
,  // measure 25
0031
1000
0010
1000
0001
0020
0000
0001
1000
0000
0000
0100
0001
0000
0000
0031
,  // measure 26
1000
0010
1000
0001
0200
0000
0010
1000
0000
0000
1000
0010
0000
0000
0301
1000
,  // measure 27
0100
0010
0001
0200
0000
0010
1000
0000
0000
1000
0001
0000
0000
0301
1000
0100
,  // measure 28
1000
0001
0020
0000
0001
1000
0000
0000
1000
0001
0000
0000
0031
1000
0010
1000
,  // measure 29
0001
0020
0000
0001
1000
0000
0000
1000
0001
0000
0000
0031
0100
0010
0100
0001
,  // measure 30
1000
0000
0100
0000
0010
0000
0000
0000
0100
0000
1000
0000
0001
0000
0001
1000
,  // measure 31
0000
0000
0100
0000
0100
0000
0010
0000
0010
0000
0001
1000
0001
1000
0001
0000
,  // measure 32
0100
0000
0010
0000
0000
0000
0100
0000
0001
0000
1000
0000
1000
0001
0000
0000
,  // measure 33
0100
0000
0100
0000
0010
0000
0010
0000
1000
0001
1000
0001
1000
0000
0010
0000
,  // measure 34
0100
0000
0000
0000
0010
0000
1000
0000
0001
0000
0001
1000
0000
0000
0010
0000
,  // measure 35
0010
0000
0100
0000
0100
0000
0001
1000
0001
1000
0001
0000
0010
0000
0100
0000
,  // measure 36
0000
0000
0010
0000
0001
0000
1000
0000
1000
0001
0000
0000
0010
0000
0010
0000
,  // measure 37
0100
0000
0100
0000
1000
0001
1000
0001
1000
0000
0100
0000
0001
0000
0000
0000
,  // measure 38
0100
0000
1000
0000
0100
0000
0100
0010
0000
0000
0100
0000
0100
0000
0010
0000
,  // measure 39
0010
0000
0001
0010
0001
0010
0001
0000
0100
0000
1000
0000
0000
0000
0100
0000
,  // measure 40
0001
0000
0100
0000
0100
0010
0000
0000
0100
0000
0100
0000
0010
0000
0010
0000
,  // measure 41
1000
0100
1000
0100
1000
0000
0010
0000
0001
0000
0000
0000
0010
0000
1000
0000
,  // measure 42
0010
0000
0010
0100
0000
0000
0010
0000
0010
0000
0100
0000
0100
0000
0001
0100
,  // measure 43
0001
0100
0001
0000
0010
0000
1000
0000
0000
0000
0010
0000
0001
0000
0010
0000
,  // measure 44
0010
0100
0000
0000
1000
0000
0001
0000
0010
0000
0010
0000
0100
1000
0100
1000
,  // measure 45
0200
0000
1000
0001
0000
0000
0001
1000
0000
0000
1300
0001
1000
0000
1000
0200
,  // measure 46
0000
1000
0001
0000
0000
0001
1000
0000
0000
1300
0001
1000
0000
1000
0020
0000
,  // measure 47
1000
0001
0000
0000
0001
1000
0000
0000
1030
0001
1000
0000
1000
0020
0000
1000
,  // measure 48
0001
0000
0000
0001
1000
0000
0000
1030
0001
0010
0000
0010
0200
0000
0010
0001
,  // measure 49
0000
0000
0001
1000
0000
0000
1300
0001
1000
0000
1000
0200
0000
1000
0001
0000
,  // measure 50
0000
0001
1000
0000
0000
1300
0001
0100
0000
0100
0020
0000
0100
0001
0000
0000
,  // measure 51
0001
1000
0000
0000
1030
0001
1000
0000
1000
0020
0000
1000
0001
0000
0000
0001
,  // measure 52
1000
0000
0000
1030
0001
0010
0000
0010
0200
0000
0000
1000
0001
0000
0000
0000
,  // measure 53
0001
1000
0000
0000
0000
1000
0001
0000
0000
0000
0001
1000
0000
0000
0000
1000
,  // measure 54
0001
0000
0000
0000
0001
1000
0000
0000
0000
0010
0001
0000
0000
0000
0010
1000
,  // measure 55
0000
0000
0000
0010
0001
0000
0000
0000
0010
1000
0000
0000
0000
0010
0001
0000
,  // measure 56
0000
0000
0301
1000
0020
0000
0000
1000
0001
0000
0000
0000
0001
1000
0000
0000
,  // measure 57
0000
1000
0001
0000
0000
0000
0001
1000
0000
0000
0000
1000
0001
0000
0000
0000
,  // measure 58
0031
1000
0002
0000
0000
0100
0010
0000
0000
0000
0010
0100
0000
0000
0000
0013
,  // measure 59
0100
2000
0000
0000
0100
0010
0000
0000
0000
0010
0100
0000
0000
0000
3001
1000
,  // measure 60
0001
0000
0001
0000
1000
0100
0000
0010
0000
0100
0000
0010
0001
1000
0000
0001
,  // measure 61
0010
0000
0001
1000
0000
0010
0100
0010
0000
0010
0100
0001
0000
1000
0100
0000
,  // measure 62
1000
0000
0100
0000
0010
0100
0010
0000
1000
0010
0000
0100
0010
0000
0001
0000
,  // measure 63
0001
0010
0100
1000
0000
0001
0100
0010
0000
0010
0100
0000
0001
0010
0100
0010
,  // measure 64
0001
0000
0001
0000
1000
0010
0000
0100
0000
0010
0000
0100
0001
1000
0000
0001
,  // measure 65
0100
0000
0001
1000
0000
0100
0010
0100
0000
0100
0010
0001
0000
1000
0010
0000
,  // measure 66
1000
0000
0010
0000
0100
0010
0100
0000
1000
0100
0000
0010
0100
0000
0001
0000
,  // measure 67
0001
0100
0010
1000
0000
0001
0010
0100
0000
0100
0010
0000
0001
0100
0010
0100
,  // measure 68
0001
0010
0100
0000
1000
0010
0000
0010
0000
1000
0000
0001
,  // measure 69
0100
0010
0000
1000
0100
0000
0001
0100
0000
1000
0001
1000
,  // measure 70
0001
0100
0010
1000
0000
0100
0000
0000
0100
0000
0010
0000
,  // measure 71
0001
0100
0010
0000
0100
0001
0100
1000
0100
0001
0100
0010
,  // measure 72
1000
0000
1000
0000
0001
0100
0000
0010
0000
0100
0000
0010
1000
0001
0000
1000
,  // measure 73
0010
0000
1000
0001
0000
0010
0100
0010
0000
0010
0100
1000
0000
0001
0100
0000
,  // measure 74
0001
0000
0100
0000
0010
0100
0010
0000
0001
0010
0000
0100
0010
0000
1000
0000
,  // measure 75
1000
0010
0100
0001
0000
1000
0100
0010
0000
0010
0100
0000
1000
0010
0100
0010
,  // measure 76
0200
0000
0000
0300
0000
2002
0000
0000
,  // measure 77
3003
0000
0220
0000
0000
0330
0000
2002
,  // measure 78
0000
0000
0000
0000
3003
0000
0000
0000
1010
0000
1000
0010
0000
0010
0100
0000
,  // measure 79
1001
0000
0011
0000
0001
0010
0000
0010
0100
0000
1001
0000
0101
0000
0001
0100
,  // measure 80
0000
0100
0010
0000
1001
0000
1000
0100
0010
0001
0000
1000
0010
0100
0001
0000
,  // measure 81
2200
0000
0000
0000
0000
0000
0000
0000
0000
0000
0000
0000
0000
0000
0000
3300
,  // measure 82
0000
0000
0000
0000
0200
0000
1000
0010
0000
0000
0001
0010
0000
0000
1300
0001
,  // measure 83
0100
0001
1000
0020
0000
0100
0001
0000
0000
0100
1000
0000
0000
0130
0001
0010
,  // measure 84
0001
1000
0200
0000
1000
0010
0000
0000
0001
0010
0000
0000
1300
0001
0100
0001
,  // measure 85
1000
0020
0000
0100
0001
0000
0000
0100
1000
0000
0000
0130
0001
0010
0000
0001
,  // measure 86
0020
0000
0001
0100
0000
0000
1000
0100
0000
0000
0031
1000
0010
1000
0100
0020
,  // measure 87
0000
0001
0100
0000
0000
1000
0100
0000
0000
0031
1000
0010
1000
0001
0200
0000
,  // measure 88
0010
1000
0000
0000
0010
0001
0000
0000
0310
1000
0100
1000
0001
0200
0000
0010
,  // measure 89
1000
0000
0000
0010
0001
0000
0000
0310
1000
0100
1000
0001
1000
0000
0000
0000
,  // measure 90
1010
0101
0011
1100
,  // measure 91
0001
0100
0010
0100
0001
1000
0001
0010
,  // measure 92
1000
0010
0001
0010
0100
0010
0001
1000
,  // measure 93
0001
0100
1000
0100
0001
1000
0010
0100
,  // measure 94
0010
1000
0001
1000
0100
0001
0100
1000
,  // measure 95
0100
0000
0000
0010
0000
0000
0100
0000
0000
1000
0000
0000
0001
0000
0010
0000
0001
0000
0010
0000
0000
0000
0000
0000
,  // measure 96
0001
0010
0100
0010
0001
1000
0001
0100
,  // measure 97
1000
0100
0001
0100
0010
0100
0001
1000
,  // measure 98
0001
0010
1000
0010
0001
1000
0100
0010
,  // measure 99
0100
1000
0001
1000
0010
0001
0010
1000
,  // measure 100
0010
0000
0000
0100
0000
0000
0010
0000
0000
1000
0000
0000
0001
0000
0100
0000
0001
0000
0100
0000
0000
0000
0000
0000
,  // measure 101
0001
0010
0100
1000
0100
0010
0001
0000
0000
1000
0010
0100
,  // measure 102
0001
0100
0010
1000
0000
0000
0001
0100
0010
1000
0100
0010
,  // measure 103
0001
0010
0001
0010
0001
0010
0001
0010
M200
M000
M000
M000
M000
M000
M000
M000
,  // measure 104
M000
M000
M000
M000
M000
M000
M000
M000
M000
M000
M000
M000
M000
M000
M000
M000
,  // measure 105
M000
M000
M000
M000
M000
M000
M000
M000
M000
M000
M000
M000
M000
M000
M000
M000
,  // measure 106
M000
M000
M000
M000
M000
M000
M000
M000
M000
M000
M000
M000
M000
M000
M000
M000
,  // measure 107
M000
M000
M000
M000
M000
M000
M000
M000
M300
0000
0000
0000
0000
0000
0000
0000
;

//---------------dance-single - XO DS- JA- XMOD RH JU----------------
#NOTEDATA:;
#CHARTNAME:(milquetoast 14);
#STEPSTYPE:dance-single;
#DESCRIPTION:XO DS- JA- XMOD RH JU;
#CHARTSTYLE:;
#DIFFICULTY:Medium;
#METER:13;
#RADARVALUES:0.632462,0.957749,0.226159,0.109653,0.671624,646.000000,613.000000,33.000000,16.000000,0.000000,0.000000,0.000000,0.000000,0.000000,0.632462,0.957749,0.226159,0.109653,0.671624,646.000000,613.000000,33.000000,16.000000,0.000000,0.000000,0.000000,0.000000,0.000000;
#CREDIT:Karl with a K;
#NOTES:
0000
0000
0000
0000
,
0000
0000
0000
0000
,
0000
0000
0000
0000
,
0000
0000
0000
1000
,
0010
0000
0000
0000
0100
0000
0000
0000
0001
0000
0000
1000
0000
0000
0000
0100
,
0000
0000
0000
0010
0000
0000
0000
0001
0000
0000
0100
0000
0000
0000
0010
0000
,
0000
0000
1000
0000
0000
0000
0001
0000
0000
0010
0000
0000
0000
0100
0000
0000
,
0000
1000
0000
0000
0000
0001
0000
0000
1000
0000
0100
0000
1000
0000
0000
0000
,
0001
0000
0100
0000
0001
0000
0000
1000
0000
0010
0000
1000
0000
0000
0000
0001
,
0000
0010
0000
0001
0000
0000
1000
0000
0100
0000
0010
0000
0000
0000
0001
0000
,
0010
0000
0100
0000
0000
1000
0000
0010
0000
0100
0000
0000
0000
0001
0000
0100
,
0000
0010
0000
0000
1000
0000
0100
0000
0010
0000
0001
0000
0010
0000
0100
0000
,
1000
0000
0000
0001
0000
0100
0000
0010
0000
1000
0000
0010
0000
0100
0000
0001
,
0000
0001
0000
0000
0000
0000
0000
0000
,
0000
0000
1000
0000
1000
0000
0100
0010
0000
0001
0010
0000
0100
0000
0100
0000
,
1000
0000
0100
0000
1000
0000
0010
0000
1000
0000
0100
0000
1000
0000
0000
0001
,
0000
0100
0000
0001
0000
0010
0000
0001
0000
0100
0000
0001
0000
0000
1000
0000
,
0010
0000
1000
0000
0100
0000
1000
0000
0010
0000
1000
0000
0000
0001
0000
0010
,
0000
0001
0000
0100
0000
0001
0000
0010
0000
0001
0000
0000
1000
0000
0100
0000
,
0010
0000
0100
0000
1000
0000
0010
0000
0100
0000
0000
0001
0000
0100
0000
0010
,
0000
0100
0000
0001
0000
0010
0000
0100
0000
0000
1000
0000
0010
0000
0100
0000
,
0010
0000
1000
0000
0100
0000
0010
0000
0000
0001
0000
0010
0000
0100
0000
0010
,
0000
0001
0000
0100
0000
0010
0000
0000
1000
0000
0100
0000
0010
0000
0001
0000
,
0100
0000
0010
0000
1000
0000
0000
0001
0000
0100
0000
0010
0000
1000
0000
0100
,
0000
0010
0000
0001
0000
0000
1000
0000
0010
0000
0100
0000
0001
0000
0010
0000
,
0100
0000
1000
0000
0000
0001
0000
0010
0000
0100
0000
1000
0000
0010
0000
0100
,
0000
0001
0000
0000
1000
0000
0100
0000
0010
0000
1000
0000
0010
0000
0100
0000
,
1000
0000
0000
0001
0000
0100
0000
0010
0000
0001
0000
0010
0000
0100
0000
0001
,
0000
1000
0010
0100
1000
0100
0010
1000
,
0000
0001
0000
0010
0000
0100
0000
0001
0000
0100
0000
0010
0000
0001
0000
0000
,
1000
0100
0010
0000
0001
0100
0010
0010
,
0000
1000
0100
1000
0001
0100
0001
1000
,
0010
0100
0000
0001
0010
0100
0100
0000
,
1000
0010
1000
0001
0010
0001
1000
0100
,
0010
0000
0001
0100
0010
0010
0000
1000
,
0100
0010
0001
0100
0010
1000
0010
0100
,
0000
0001
0010
0100
0100
0000
1000
0010
,
0100
0001
0010
0100
1000
0100
0001
0000
,
0100
1000
0001
0001
0000
1000
0010
0100
,
0001
1000
0001
1000
0010
0001
0000
0010
,
1000
0001
0001
0000
1000
0100
0010
0001
,
1000
0001
1000
0100
0001
0000
0100
1000
,
0001
0001
0000
1000
0100
0010
0001
1000
,
0001
1000
0010
0001
0000
0010
1000
0001
,
0001
0000
1000
0010
0100
0001
1000
0001
,
2000
0000
0000
0000
0010
0000
0000
0000
0001
0000
0000
0000
0100
0000
0000
3002
,
0000
0000
0000
0010
0000
0000
0000
1000
0000
0000
0000
0100
0000
0000
2003
0000
,
0000
0000
0010
0000
0000
0000
0100
0000
0000
0000
0001
0000
0000
3002
0000
0000
,
0000
0010
0000
0000
0000
0100
0000
0000
0000
1000
0000
0000
0023
0000
0000
0000
,
1000
0000
0000
0000
0100
0000
0000
0000
0032
0000
0000
0203
0000
0000
0000
1000
,
0000
0000
0000
0010
0000
0000
0000
0001
0000
0000
0320
0000
0000
0000
0001
0000
,
0000
0000
0100
0000
0000
0000
2030
0000
0000
3200
0000
0000
0000
0001
0000
0000
,
0000
0010
0000
0000
0000
1000
0000
0000
1300
0000
0000
0000
0000
0100
0000
0000
,
0000
0000
0010
0000
0000
0000
0000
0001
0000
0000
0000
0000
0100
0000
0000
0000
,
0000
0010
0000
0000
0000
0000
1000
0000
0000
0000
0000
0100
0000
0000
0000
0000
,
0010
0000
0000
0000
0000
0001
0000
0000
0000
0000
0100
0000
0000
0000
0000
0010
,
0000
0000
0000
0000
1000
0000
0000
0000
1000
0001
0000
0000
0000
0001
1000
0000
,
0000
0000
1000
0100
0000
0000
0000
0100
0010
0000
0000
0000
0010
0001
0000
0000
,
0000
0001
0100
0000
0000
0000
0100
0010
0000
0000
0000
0010
1000
0000
0000
0000
,
1000
0001
0000
0000
0000
0001
1000
0000
0000
0000
1000
0001
0000
0000
0000
0001
,
1000
0000
1000
0000
1000
0000
0000
0001
0000
0100
0000
0001
0000
0000
0000
1000
,
0000
0000
0100
0000
0000
0010
0000
0000
0001
0000
0010
0000
0000
0100
0000
0000
,
1000
0000
1000
0000
1000
0000
0000
0000
0001
0010
0000
0001
0000
0000
1000
0000
,
0010
0000
0100
0001
0000
1000
0000
0000
0001
0000
0010
0000
0110
0000
0000
0000
,
0001
0000
0001
0000
0001
0000
0000
1000
0000
0100
0000
1000
0000
0000
0000
0001
,
0000
0000
0100
0000
0000
0010
0000
0000
1000
0000
0010
0000
0000
0100
0000
0000
,
0001
0000
0001
0000
0001
0000
0000
0000
1000
0010
0000
1000
0000
0000
0001
0000
,
0010
0000
0100
1000
0000
0001
0000
0000
1000
0000
0010
0000
0110
0000
0000
0000
,
1000
0000
1000
0000
0100
0000
0010
0001
0000
0100
0000
0000
,
0001
0100
0000
0001
0100
0000
0010
1000
0000
1001
0000
0000
,
0001
0000
0001
0100
0000
0010
0000
0000
1000
0000
0100
0000
,
1000
0100
1000
0000
0100
0000
0010
0001
0000
1001
0000
0000
,
1000
0000
1000
0000
1000
0000
0000
0001
0000
0010
0000
0001
0000
0000
0000
1000
,
0000
0000
0010
0000
0000
0100
0000
0000
0001
0000
0100
0000
0000
0010
0000
0000
,
1000
0000
1000
0000
1000
0000
0000
0000
0001
0100
0000
0001
0000
0000
1000
0000
,
0100
0000
0010
0001
0000
1000
0000
0000
0001
0000
0100
0000
0110
0000
0000
0000
,
1001
0000
0000
0000
0000
1001
0000
0000
,
0000
0000
1001
0000
0000
0000
0000
1001
,
0000
0000
0000
0000
0000
0000
0000
0000
1001
0000
0000
1001
0000
0000
0011
0000
,
1100
0000
1001
0000
0000
1001
0000
0000
1010
0000
0101
0000
1001
0000
0000
0110
,
0000
0000
1001
0000
0110
0000
2000
0000
0100
0000
0000
3002
0000
0103
0000
0000
,
2002
0000
0000
0000
0000
0000
0000
0000
0000
0000
0000
0000
0000
0000
0000
3003
,
0000
0000
1000
0100
0001
0100
0010
0001
,
1000
0000
0000
0010
0000
0100
0000
1000
0000
0100
0000
0010
0000
1000
0000
0001
,
0000
0100
0010
0001
0010
0100
0001
1000
,
0000
0100
0000
0010
0000
1000
0000
0010
0000
0100
0000
1000
0000
0001
0000
0000
,
1000
0000
0100
0000
0001
0000
0100
0000
1000
0000
0010
0000
1000
0000
0000
0001
,
0000
0100
0000
1000
0000
0100
0000
0001
0000
0010
0000
0001
0000
0000
1000
0000
,
0010
0000
0001
0000
0010
0000
1000
0000
0100
0000
1000
0000
0000
0001
0000
0010
,
0000
1000
0000
0010
0000
0001
0000
0100
0000
0001
0000
0000
1000
0000
0000
0000
,
1000
1000
1000
1000
,
1000
0100
0010
0001
1000
0000
0001
0010
,
0001
0000
1000
0010
0100
0001
1000
0000
,
0001
0100
0001
1000
0001
0010
0100
1000
,
0001
0000
1000
0100
1000
0000
0001
0100
,
0010
1000
0001
0000
1000
0000
1010
0000
,
1000
0100
0010
0001
0010
0100
1000
0001
,
1000
0000
0001
0100
0010
1000
0010
0100
,
0001
1000
0001
0000
1000
0100
0010
0001
,
0100
0010
1000
0001
1000
0000
0001
0100
,
0010
1000
0100
0010
0001
0000
1001
0000
,
1010
0101
1001
1100
,
0011
1001
0110
0110
,
1000
0001
1000
0001
2002
0000
0000
0000
,
0000
0000
0000
0000
,
0000
0000
0000
0000
,
0000
0000
0000
0000
,
0000
0000
3003
0000
;

//---------------dance-single - ----------------
#NOTEDATA:;
#CHARTNAME:(milquetoast 11);
#STEPSTYPE:dance-single;
#DESCRIPTION:;
#CHARTSTYLE:;
#DIFFICULTY:Easy;
#METER:10;
#RADARVALUES:0.396513,0.663057,0.191893,0.089093,0.318679,405.000000,377.000000,28.000000,13.000000,0.000000,0.000000,0.000000,0.000000,0.000000,0.396513,0.663057,0.191893,0.089093,0.318679,405.000000,377.000000,28.000000,13.000000,0.000000,0.000000,0.000000,0.000000,0.000000;
#CREDIT:Karl with a K;
#NOTES:
0000
0000
0000
0000
,
0000
0000
0000
0000
,
0000
0000
0000
0000
,
0000
0000
0000
1000
,
0100
0000
0000
0000
1000
0000
0000
0000
0100
0000
0000
0010
0000
0000
0000
0001
,
0000
0000
0000
0010
0000
0000
0000
0001
0000
0000
1000
0000
0000
0000
0010
0000
,
0000
0000
1000
0000
0000
0000
0010
0000
0000
0100
0000
0000
0000
0001
0000
0000
,
0000
0100
0000
0000
0000
0001
0000
0000
1000
0000
0000
0000
0100
0000
0000
0000
,
0010
0000
0000
0000
0001
0000
0000
1000
0000
0000
0000
0010
0000
0000
0000
0100
,
0000
0000
0000
0001
0000
0000
1000
0000
0000
0000
0001
0000
0000
0000
0100
0000
,
0000
0000
0010
0000
0000
1000
0000
0000
0000
0001
0000
0000
0000
0010
0000
0000
,
0000
0100
0000
0000
1000
0000
0000
0000
1000
0000
0000
0000
0001
0000
0000
0000
,
0001
0000
0000
0100
0000
0000
0000
0100
0000
0000
0000
0010
0000
0000
0000
0010
,
0000
0000
0000
0000
,
0000
0000
1000
0000
1000
0000
1000
0000
0000
0100
0000
0000
0010
0000
0000
0000
,
0001
0000
0000
0000
0100
0000
0000
0000
0010
0000
0000
0000
0010
0000
0000
1000
,
0000
0000
0000
0100
0000
0000
0000
0010
0000
0000
0000
0010
0000
0000
0001
0000
,
0000
0000
0010
0000
0000
0000
0100
0000
0000
0000
0100
0000
0000
1000
0000
0000
,
0000
0010
0000
0000
0000
0100
0000
0000
0000
0100
0000
0000
0001
0000
0000
0000
,
1000
0000
0000
0000
0100
0000
0000
0000
0010
0000
0000
0001
0000
0000
0000
0100
,
0000
0000
0000
0010
0000
0000
0000
1000
0000
0000
0100
0000
0000
0000
0010
0000
,
0000
0000
0100
0000
0000
0000
0010
0000
0000
0001
0000
0000
0000
1000
0000
0000
,
0000
0001
0000
0000
0000
1000
0000
0000
0010
0000
0000
0000
0100
0000
0000
0000
,
0010
0000
0000
0000
1000
0000
0000
0100
0000
0000
0000
0010
0000
0000
0000
0001
,
0000
0000
0000
1000
0000
0000
0001
0000
0000
0000
0010
0000
0000
0000
0100
0000
,
0000
0000
0010
0000
0000
0100
0000
0000
0000
1000
0000
0000
0000
0001
0000
0000
,
0000
1000
0000
0000
0010
0000
0000
0000
0010
0000
0000
0000
0010
0000
0000
0000
,
0010
0000
0000
0100
0000
0000
0000
0100
0000
0000
0000
0100
0000
0000
0000
0100
,
0000
0001
0000
0001
0000
0001
0000
0001
,
0000
1000
0000
0000
0000
1000
0000
0000
0000
1000
0000
0000
0000
1000
0000
0000
,
0001
0100
0001
0000
1000
0000
0000
1000
,
0000
0000
0100
0000
0010
0000
0001
1000
,
0100
1000
0000
0001
0000
0000
0001
0000
,
0000
0100
0000
0010
0000
0010
1000
0010
,
1000
0000
0001
0000
0000
0001
0000
0000
,
0010
0000
0100
0000
1000
0001
0010
0001
,
0000
1000
0000
0000
1000
0000
0000
0010
,
0000
0100
0000
0001
1000
0100
0010
0000
,
0001
0000
0000
1000
0000
0000
1000
0000
,
0010
0000
0100
0001
0100
0010
0000
1000
,
0000
0000
0001
0000
0000
0001
0000
0001
,
0000
0010
0001
0010
0100
0000
1000
0000
,
0000
0001
0000
0000
0001
0000
0100
0000
,
0010
1000
0010
0100
0000
0001
0000
0000
,
1000
0000
0000
1000
0000
0100
0000
0010
,
0002
0000
0000
0000
1000
0000
0000
0000
1000
0000
0000
0000
0000
0000
0000
2003
,
0000
0000
0000
0001
0000
0000
0000
0001
0000
0000
0000
0000
0000
0000
3020
0000
,
0000
0000
0100
0000
0000
0000
0100
0000
0000
0000
0000
0000
0000
0230
0000
0000
,
0000
0010
0000
0000
0000
0010
0000
0000
0000
0000
0000
0000
0302
0000
0000
0000
,
0000
0000
0000
0000
0000
0000
0000
0000
0000
0000
0000
0023
0000
0000
0000
0000
,
0000
0000
0000
0000
0000
0230
0000
0000
,
0000
0000
0000
0000
0000
0000
0000
0000
0000
2300
0000
0000
0000
0000
0000
0000
,
0000
0000
0000
0000
0000
0000
0000
0000
3001
0000
0000
0000
0000
0001
0000
0000
,
0000
0000
0001
0000
0000
0000
0000
1000
0000
0000
0000
0000
1000
0000
0000
0000
,
0000
1000
0000
0000
0000
0000
0001
0000
0000
0000
0000
0001
0000
0000
0000
0000
,
0001
0000
0000
0000
0000
1000
0000
0000
0000
0000
1000
0000
0000
0000
0000
1000
,
0000
0000
0000
0000
0100
0000
0000
0000
0000
0010
0000
0000
0000
0000
0100
0000
,
0000
0000
0000
0010
0000
0000
0000
0000
0100
0000
0000
0000
0000
0010
0000
0000
,
0000
0000
0001
0000
0000
0000
0000
0100
0000
0000
0000
0000
0010
0000
0000
0000
,
0000
0100
0000
0000
0000
0000
0010
0000
0000
0000
0000
1000
0000
0000
0000
0000
,
0001
0100
0001
1000
,
0001
1000
1000
0001
,
1000
0100
1000
0001
,
1000
0001
0110
1001
,
1000
0010
1000
0001
,
1000
0001
0001
1000
,
0001
0010
0001
1000
,
0001
1000
0110
1001
,
1000
1000
0100
0100
,
0010
0010
0001
0001
,
0100
0100
0010
0010
,
1000
0000
0110
1001
,
1000
0100
1000
0001
,
1000
0001
0001
1000
,
0001
0100
0001
1000
,
0001
1000
0110
1001
,
1001
0000
0000
0000
0000
1001
0000
0000
,
0000
0000
1001
0000
0000
0000
0000
1001
,
0000
0000
0000
0000
0000
0000
0000
0000
1000
0000
0000
0100
0000
0000
0010
0000
,
0000
0000
0001
0000
0000
0100
0000
0000
0010
0000
0000
0000
1000
0000
0000
1000
,
0000
0000
1000
0000
0000
0000
0001
0000
0000
0000
0000
0110
0000
0000
0000
0000
,
2002
0000
0000
0000
0000
0000
0000
0000
0000
0000
0000
0000
0000
0000
0000
0000
0000
0000
0000
0000
0000
0000
0000
0000
0000
0000
0000
0000
0000
0000
0000
0000
0000
0000
0000
0000
0000
0000
0000
0000
0000
0000
0000
0000
0000
0000
0000
0000
0000
0000
0000
0000
0000
0000
0000
0000
0000
0000
0000
0000
0000
0000
0000
0000
0000
0000
0000
0000
0000
0000
0000
0000
0000
0000
0000
0000
0000
0000
0000
0000
0000
0000
0000
0000
0000
0000
0000
0000
0000
0000
0000
0000
0000
0000
0000
0000
0000
0000
0000
0000
0000
0000
0000
0000
0000
0000
0000
0000
0000
0000
0000
0000
0000
0000
0000
0000
0000
0000
0000
3003
0000
0000
0000
0000
0000
0000
0000
0000
0000
0000
0000
0000
0000
0000
0000
0000
0000
0000
0000
0000
0000
0000
0000
0000
0000
0000
0000
0000
0000
0000
0000
0000
0000
0000
0000
0000
0000
0000
0000
0000
0000
0000
0000
0000
0000
0000
0000
0000
0000
0000
0000
0000
0000
0000
0000
0000
0000
0000
0000
0000
0000
0000
0000
0000
0000
0000
0000
0000
0000
0000
0000
0000
,
0000
1000
0100
0010
,
0100
0000
0000
1000
0000
0000
0000
0010
0000
0000
0000
0100
0000
0000
0000
0010
,
0000
1000
0000
0001
0000
0100
0000
0010
,
0000
0100
0000
0000
0000
0001
0000
0000
0000
0010
0000
0000
0000
0100
0000
0000
,
1000
0000
0000
0000
0010
0000
0000
0000
0100
0000
0000
0000
1000
0000
0000
0100
,
0000
0000
0000
0010
0000
0000
0000
1000
0000
0000
0000
0001
0000
0000
0010
0000
,
0000
0000
0100
0000
0000
0000
0001
0000
0000
0000
0100
0000
0000
0010
0000
0000
,
0000
0001
0000
0000
0000
1000
0000
0000
0000
0001
0000
0000
1002
0000
0000
0000
,
0000
0000
0000
0000
,
1003
0100
0010
0001
,
0001
1000
0010
0100
,
0001
1000
0001
0010
,
0100
1000
1000
0001
,
0100
0010
0110
1001
,
0001
0010
0100
1000
,
1000
0001
0100
0010
,
1000
0001
1000
0100
,
0010
0001
0001
1000
,
0010
0100
0110
1001
,
0110
1001
0110
0110
,
1001
0110
1001
1001
,
0100
0010
0100
0000
2002
0000
0000
0000
,
0000
0000
0000
0000
,
0000
0000
0000
0000
,
0000
0000
0000
0000
,
0000
0000
3003
0000
;

//---------------dance-single - ----------------
#NOTEDATA:;
#CHARTNAME:(milquetoast 8);
#STEPSTYPE:dance-single;
#DESCRIPTION:;
#CHARTSTYLE:;
#DIFFICULTY:Beginner;
#METER:7;
#RADARVALUES:0.278048,0.515711,0.109653,0.054826,0.191893,284.000000,268.000000,16.000000,8.000000,0.000000,0.000000,0.000000,0.000000,0.000000,0.278048,0.515711,0.109653,0.054826,0.191893,284.000000,268.000000,16.000000,8.000000,0.000000,0.000000,0.000000,0.000000,0.000000;
#CREDIT:Karl with a K;
#NOTES:
0000
0000
0000
0000
,
0000
0000
0000
0000
,
0000
0000
0000
0000
,
0000
0000
0000
1000
,
1000
0000
0000
0000
1000
0000
0000
0000
0000
0000
0000
0001
0000
0000
0000
0001
,
0000
0000
0000
0001
0000
0000
0000
0000
0000
0000
1000
0000
0000
0000
1000
0000
,
0000
0000
1000
0000
0000
0000
0000
0000
0000
0001
0000
0000
0000
0001
0000
0000
,
0000
0001
0000
0000
0000
0000
0000
0000
1000
0000
0000
0000
1000
0000
0000
0000
,
1000
0000
0000
0000
0000
0000
0000
0010
0000
0000
0000
0010
0000
0000
0000
0010
,
0000
0000
0000
0100
0000
0100
0000
0100
,
0000
0000
0000
0000
0000
0001
0000
0000
0000
0001
0000
0000
0000
0001
0000
0000
,
0000
0010
0010
0010
,
0000
0000
0000
0100
0000
0000
0000
0100
0000
0000
0000
0100
0000
0000
0000
0000
,
0000
0000
0000
0000
,
0000
1000
0000
0000
0000
0000
0000
0000
0000
0000
0000
0000
0000
0000
0000
0000
,
1000
0000
0000
0000
0100
0000
0000
0000
1000
0000
0000
0000
0000
0000
0000
0001
,
0000
0000
0000
0100
0000
0000
0000
0001
0000
0000
0000
0000
0000
0000
1000
0000
,
0000
0000
0010
0000
0000
0000
1000
0000
0000
0000
0000
0000
0000
0001
0000
0000
,
0000
0010
0000
0000
0000
0001
0000
0000
0000
0000
0000
0000
1000
0000
0000
0000
,
0010
0000
0000
0000
0100
0000
0000
0000
0000
0000
0000
0010
0000
0000
0000
0100
,
0000
0000
0000
0001
0000
0000
0000
0000
0000
0000
0100
0000
0000
0000
0010
0000
,
0000
0000
1000
0000
0000
0000
0000
0000
0000
0001
0000
0000
0000
1000
0000
0000
,
0000
0001
0000
0000
0000
0000
0000
0000
0010
0000
0000
0000
0100
0000
0000
0000
,
1000
0000
0000
0000
0000
0000
0000
0100
0000
0000
0000
0010
0000
0000
0000
0001
,
0000
0000
0000
0100
0000
0010
0000
1000
,
0000
0000
0000
0000
0000
0010
0000
0000
0000
0100
0000
0000
0000
0001
0000
0000
,
0000
1000
1000
0100
,
0000
0000
0000
0010
0000
0000
0000
0010
0000
0000
0000
0001
0000
0000
0000
0000
,
0000
0001
0000
0001
0000
0100
0000
0000
,
0000
0010
0000
0000
0000
0010
0000
0000
0000
1000
0000
0000
0000
0000
0000
0000
,
1000
0000
0000
0000
1000
0000
0000
1000
,
0000
0000
1000
0000
1000
0000
0000
0001
,
0000
0000
0000
0001
0000
0000
0001
0000
,
0000
0001
0000
0001
0000
0000
0010
0000
,
0000
0000
0010
0000
0000
0010
0000
0000
,
0010
0000
0010
0000
0000
0100
0000
0000
,
0000
0100
0000
0000
0100
0000
0000
0100
,
0000
0100
0000
0000
1000
0000
0000
0000
,
1000
0000
0000
1000
0000
0000
1000
0000
,
1000
0000
0000
0001
0000
0000
0000
0001
,
0000
0000
0001
0000
0000
0001
0000
0001
,
0000
0100
0000
0100
,
0000
0100
0000
0000
0100
0000
0100
0000
,
0000
0010
0000
0000
0000
0010
0000
0000
,
0010
0000
0000
0010
0000
0010
0000
0000
,
2000
0000
0000
0000
,
0000
0000
0000
0000
,
0000
0000
0000
0000
,
0000
0000
0000
0000
0000
0000
0000
0000
0000
3000
0000
0000
0002
0000
0000
0000
,
0000
0000
0000
0000
,
0000
0000
0000
0000
,
0000
0000
0000
0000
,
0000
0000
0000
0000
0000
0003
0000
0000
0200
0000
0000
0000
0000
0000
0000
0000
,
0000
0000
0000
0000
,
0000
0000
0000
0000
,
0000
0000
0000
0000
,
0000
0300
0000
0000
0020
0000
0000
0000
0000
0000
0000
0000
0000
0000
0000
0000
,
0000
0000
0000
0000
,
0000
0000
0000
0000
,
0000
0000
0000
0000
0000
0000
0000
0000
0000
0000
0000
0000
0000
0030
0000
0000
,
1000
0100
1000
0000
,
0001
0100
0001
0000
,
1000
0010
1000
0000
,
0001
0010
0001
0000
,
1000
0100
0010
0000
,
0001
0100
0010
0000
,
1000
0010
0100
0000
,
0001
0010
0100
0000
,
1000
0000
1000
0000
,
0001
0000
0001
0000
,
1000
0000
1000
0000
,
0001
0000
0001
0001
,
1000
0100
1000
1000
,
0001
0100
0001
0001
,
1000
0010
1000
1000
,
0001
0010
0001
0001
,
1000
0000
0000
0000
0000
1001
0000
0000
,
0000
0000
1001
0000
0000
0000
0000
1001
,
0000
0000
0000
0000
1001
0000
0000
1001
,
0000
1001
0000
0000
1001
0000
1001
0000
,
0000
0000
1001
0000
0000
0000
0220
0000
0000
0000
0000
0330
0000
0000
0000
0000
,
0110
0000
0000
0000
,
0000
1000
0100
0010
,
0001
0000
0000
0001
0000
0000
0000
0010
0000
0000
0000
0100
0000
0000
0000
1000
,
0000
1000
0000
0010
0000
0100
0000
0001
,
0000
0001
0000
0000
0000
0100
0000
0000
0000
0010
0000
0000
0000
1000
0000
0000
,
1000
0000
0000
0000
0100
0000
0000
0000
0010
0000
0000
0000
0100
0000
0000
1000
,
0000
0000
0000
0010
0000
0000
0000
0100
0000
0000
0000
0001
0000
0000
0001
0000
,
0000
0000
0100
0000
0000
0000
0010
0000
0000
0000
0100
0000
0000
0001
0000
0000
,
0000
0010
0000
0000
0000
0100
0000
0000
0000
0010
0000
0000
0001
0000
0000
0000
,
0000
0000
0000
0000
,
1000
0100
1000
0100
,
0010
0001
0100
0001
,
0100
0010
1000
0100
,
1000
0100
0010
0001
,
0100
0001
0100
0100
,
0001
0010
0001
0010
,
0100
1000
0010
1000
,
0010
0100
0001
0010
,
0001
0010
0100
1000
,
0010
1000
0010
0010
,
1000
1000
1000
0001
,
0001
0001
0110
0110
,
0110
0110
2002
0000
,
0000
0000
0000
0000
,
0000
0000
0000
0000
,
0000
0000
0000
0000
,
0000
0000
3003
0000
;
