#TITLE:Altitude Rising Pt.2;
#SUBTITLE:~Ignition~;
#ARTIST:Z-I-v Sound Team "Karl with a K";
#TITLETRANSLIT:;
#SUBTITLETRANSLIT:;
#ARTISTTRANSLIT:;
#GENRE:;
#CREDIT:;
#BANNER:Altitude Rising Pt 2 Ignition banner.png;
#BACKGROUND:Altitude Rising Pt 2 Ignition bg.png;
#LYRICSPATH:;
#CDTITLE:;
#MUSIC:Altitude Rising Pt 2 Ignition.ogg;
#OFFSET:-0.025000;
#SAMPLESTART:27.701603;
#SAMPLELENGTH:11.566265;
#SELECTABLE:YES;
#BPMS:0.000000=166.000000
,10.500000=83.000000
,11.000000=166.000000
,248.000000=83.000000
,276.000000=166.000000
;
#STOPS:
;
#BGCHANGES:;
#KEYSOUNDS:;
#ATTACKS:;

//---------------dance-single - XO DS JA- XMOD RH JU----------------
#NOTES:
     dance-single:
     :
     Hard:
     15:
     0.765176,0.985620,0.255699,0.390278,0.807472,796.000000,758.000000,38.000000,58.000000,0.000000,0.000000,0.765176,0.985620,0.255699,0.390278,0.807472,796.000000,758.000000,38.000000,58.000000,0.000000,0.000000:
// measure 0
0000
0000
0000
0000
,  // measure 1
0000
0000
0000
0000
,  // measure 2
0000
0000
0000
0000
,  // measure 3
0000
0000
0000
2001
,  // measure 4
3100
1000
0010
0100
0001
0010
0100
0002
,  // measure 5
0000
0103
0010
0000
0001
0100
0020
0000
,  // measure 6
1000
0000
0230
0000
0302
0000
0013
0002
,  // measure 7
0000
0000
0013
0000
0200
0000
0000
0000
0310
0001
0010
0002
1000
0000
0000
0000
,  // measure 8
0103
0001
0010
0100
1000
0010
0100
2000
,  // measure 9
0000
3100
0010
0000
1000
0100
0020
0000
,  // measure 10
0001
0000
0000
0000
0230
0000
1300
0100
0010
0001
0010
0000
0001
0000
0100
0000
,  // measure 11
0010
0000
1002
0000
0013
0001
0100
0010
,  // measure 12
1000
0100
0010
0210
0000
1300
1020
0000
,  // measure 13
1030
0000
0010
0000
0100
0000
0010
0000
0001
0000
0010
0000
0100
0000
0001
1000
,  // measure 14
0100
1000
0001
0000
0010
0000
0001
0000
0100
0000
0010
1000
0001
0000
1000
0100
,  // measure 15
1000
0000
0001
0100
0010
0100
0002
0000
2003
0000
3010
0000
1000
0010
1000
0000
,  // measure 16
0001
0010
0100
0000
0020
0000
0230
0000
0310
0001
0010
0001
0010
0001
0010
0000
,  // measure 17
0011
0000
1000
0010
1000
0010
1000
0010
1000
0000
1010
0000
0110
0000
0000
0000
,  // measure 18
1000
0000
0000
0000
0100
0000
0000
0000
0010
0000
0000
0000
0001
0000
0000
0000
0100
0000
0000
0000
0010
0000
0000
0000
1000
0000
0000
0010
0000
0000
0000
0000
0000
0100
0000
0000
0020
0000
0000
0000
0000
0000
0000
0000
0000
0000
0000
0000
,  // measure 19
1030
0000
0100
0000
1000
0000
0100
0000
1000
0100
0000
0010
0001
0000
0010
0100
,  // measure 20
0010
0001
0000
1000
0001
0000
0100
0001
0100
0000
0010
0000
1000
0000
0001
0000
,  // measure 21
1000
0000
0010
0000
1000
0000
0010
0000
1000
0010
0000
0100
0001
0000
0100
0010
,  // measure 22
0100
0001
0000
1000
0001
0000
0010
0001
0010
0000
0100
0000
0110
0000
0000
0000
,  // measure 23
0001
0000
0010
0000
0001
0000
0010
0000
0001
0010
0000
0100
1000
0000
0100
0010
,  // measure 24
0100
1000
0000
0001
1000
0000
0010
1000
0010
0000
0100
0000
0001
0000
1000
0000
,  // measure 25
0001
0000
0100
0000
0001
0000
0100
0000
0001
0100
0000
0010
1000
0000
0010
0100
,  // measure 26
0010
1000
0000
0001
1000
0000
0010
1000
0100
0000
0010
0000
0001
0000
0100
0000
,  // measure 27
0001
0000
1000
0001
1000
0001
1000
0001
1000
0001
0000
0100
0010
0000
1000
0100
,  // measure 28
1000
0100
0000
0010
0001
0000
0100
0010
1000
0000
0010
0100
0010
0100
0010
0100
,  // measure 29
0001
0000
1000
0001
1000
0001
1000
0001
1000
0001
0000
0010
0100
0000
1000
0010
,  // measure 30
1000
0010
0000
0100
0001
0000
0010
0001
0100
0010
1000
0001
0010
0100
0010
0100
,  // measure 31
1000
0000
0001
1000
0001
1000
0001
1000
0001
1000
0000
0010
0100
0000
0001
0010
,  // measure 32
0001
0010
0000
0100
1000
0000
0010
0100
0001
0000
0100
0010
1000
0010
1000
0010
,  // measure 33
1000
0000
0100
0010
0100
1000
0001
0000
1000
0010
0000
0100
0010
0000
1000
0001
,  // measure 34
2000
3020
0230
0302
0023
0230
0001
0000
,  // measure 35
1300
0010
0100
0000
1010
0000
0101
0000
,  // measure 36
0001
0000
0010
0100
0020
0001
0230
0010
,  // measure 37
1300
0100
0010
0000
1100
0000
0011
0000
,  // measure 38
0001
0000
0100
0010
0200
0001
0320
1030
,  // measure 39
0001
0000
0100
0000
0010
0000
1000
0001
1000
0000
0010
0000
1000
0000
0001
0000
,  // measure 40
1000
0100
0010
0100
1000
0100
0020
0100
,  // measure 41
0031
0000
0000
0000
0000
0000
0010
0000
0000
0000
0100
0000
0000
0000
1000
0000
0000
0000
0001
0000
0000
1000
0000
0000
0001
0000
0000
0000
0000
0000
0010
0000
0000
0000
0000
0000
0001
0000
0000
0000
0000
0000
1000
0000
0000
0000
0000
0000
,  // measure 42
0001
0100
0010
0100
0001
0100
0020
0100
,  // measure 43
1030
0000
0000
0000
0000
0000
0010
0000
0000
0000
0100
0000
0000
0000
0001
0000
0000
0000
1000
0000
0000
0001
0000
0000
1000
0000
0000
0000
0000
0000
0100
0000
0000
0000
0000
0000
1000
0000
0000
0000
0000
0000
0001
0000
0000
0000
0000
0000
,  // measure 44
1000
0000
0000
0000
0000
0000
0010
0000
0000
0000
0000
0000
0100
0000
0000
0000
0000
0000
0010
0000
0000
0000
0000
0000
1000
0000
0000
0000
0010
0000
0000
0000
0100
0000
0000
0000
0001
0000
0000
0010
0000
0000
0001
0000
0000
0010
0000
0000
,  // measure 45
0001
0000
0000
0000
0000
0000
0010
0000
0000
0000
0100
0000
0000
0000
1000
0000
0000
0000
0001
0000
0000
1000
0000
0000
0001
0000
0000
0000
0000
0000
0100
0000
0000
0000
0000
0000
0001
0000
0000
0000
0100
0000
0000
0000
0001
0000
0000
0000
,  // measure 46
1000
0000
0000
0000
0000
0000
0100
0000
0000
0000
0000
0000
0010
0000
0000
0000
0000
0000
0100
0000
0000
0000
0000
0000
1000
0000
0000
0000
0100
0000
0000
0000
0010
0000
0000
0000
0001
0000
0000
0100
0000
0000
0001
0000
0000
0100
0000
0000
,  // measure 47
0001
0000
0000
0000
0000
0000
1000
0000
0000
0000
0100
0000
0000
0000
0010
0000
0000
0000
0100
0000
0000
1000
0000
0000
0001
0000
0000
0000
0000
0000
0100
0000
0000
0000
0000
0000
0001
0000
0000
0000
0010
0000
0000
0000
0001
0000
0000
0000
,  // measure 48
1000
0000
0000
0000
0000
0000
0010
0000
0000
0000
0000
0000
0100
0000
0000
0000
0000
0000
0001
0000
0000
0000
0000
0000
1000
0000
0000
0000
0100
0000
0000
0000
1000
0000
0000
0000
0001
0000
0000
0010
0000
0000
0100
0000
0000
0010
0000
0000
,  // measure 49
0001
0000
0000
0000
0000
0000
1000
0000
0000
0000
0010
0000
0000
0000
0100
0000
0000
0000
0010
0000
0000
1000
0000
0000
0001
0000
0000
0000
0000
0000
0010
0000
0000
0000
0000
0000
0001
0000
0000
0000
0100
0000
0000
0000
0001
0000
0000
0000
,  // measure 50
1000
0000
0000
0000
0000
0000
0100
0000
0000
0000
0000
0000
0010
0000
0000
0000
0000
0000
0001
0000
0000
0000
0000
0000
1000
0000
0000
0000
0010
0000
0000
0000
1000
0000
0000
0000
0001
0000
0000
0100
0000
0000
0010
0000
0000
0000
0000
0000
,  // measure 51
1000
0000
0000
0000
0000
0000
0001
0000
0000
0000
0010
0000
0000
0000
0100
0000
0000
0000
0010
0000
0000
0001
0000
0000
1000
0000
0000
0000
0000
0000
0010
0000
0000
0000
0000
0000
1000
0000
0000
0000
0100
0000
0000
0000
0010
0000
0000
0000
,  // measure 52
0001
0000
0000
0000
0000
0000
1000
0000
0000
0000
0010
0000
0000
0000
0100
0000
0000
0000
0010
0000
0000
1000
0000
0000
0001
0000
0000
0000
0000
0000
0010
0000
0000
0000
0000
0000
0001
0000
0000
0000
0100
0000
0000
0000
0010
0000
0000
0000
,  // measure 53
1000
0000
0000
0000
0000
0000
0001
0000
0000
0000
0100
0000
0000
0000
0010
0000
0000
0000
0100
0000
0000
0001
0000
0000
1000
0000
0000
0000
0000
0000
0100
0000
0000
0000
0000
0000
1000
0000
0000
0000
0010
0000
0000
0000
0100
0000
0000
0000
,  // measure 54
0001
0000
0000
0000
0000
0000
1000
0000
0000
0000
0100
0000
0000
0000
0010
0000
0000
0000
0100
0000
0000
1000
0000
0000
0001
0000
0000
0000
0000
0000
0100
0000
0000
0000
0000
0000
0001
0000
0000
0000
0010
0000
0000
0000
0100
0000
0000
0000
,  // measure 55
1000
0000
0000
0000
0000
0000
0010
0000
0000
0100
0000
0000
0010
0000
0000
0000
0000
0000
1000
0000
0000
0000
0000
0000
0100
0000
0000
0000
0010
0000
0000
0000
0001
0000
0000
0000
1000
0000
0000
0000
0000
0000
0100
0000
0000
0010
0000
0000
,  // measure 56
0100
0000
0000
0000
0000
0000
1000
0000
0000
0000
0000
0000
0010
0000
0000
0000
0100
0000
0000
0000
0001
0000
0000
0000
0100
0000
0000
0010
0000
0000
1000
0000
0000
0000
0000
0000
0001
0000
0000
0000
0000
0000
1000
0000
0000
0100
0000
0000
,  // measure 57
0000
0100
1000
0000
0100
0000
0010
0001
0000
1000
0001
0000
0100
0000
0100
0001
,  // measure 58
1000
0010
1010
1000
1001
0001
0011
0010
,  // measure 59
0110
0000
0100
0010
0001
1000
0010
0000
0010
0100
0000
0100
0010
0000
1000
0200
,  // measure 60
0020
0000
0000
0030
,  // measure 61
0000
0000
2300
0000
0000
3020
0000
0000
,  // measure 62
1030
0000
0100
0010
0001
1000
0010
0100
0002
0000
0000
0000
0010
0000
1003
0000
,  // measure 63
0010
0100
0001
1000
0100
0010
0002
0000
0000
0203
0000
0000
0301
0000
0100
0010
,  // measure 64
1000
0001
0010
0100
2000
0000
0000
0000
0000
0000
3001
0000
0010
0100
1000
0001
,  // measure 65
0100
0010
2000
0000
0000
0000
3000
0000
1010
0000
1000
0100
0010
0001
0100
0010
,  // measure 66
2000
0000
0000
0000
0010
0000
3100
0000
1000
0010
0100
0001
0010
0100
2000
0000
,  // measure 67
0000
3002
0000
0000
,  // measure 68
0000
0000
0203
0000
0000
0000
0000
0000
0000
0310
0100
0001
1000
0100
0010
0100
,  // measure 69
0012
0100
1000
0100
,  // measure 70
2003
0000
0100
0000
3010
0001
0020
0000
,  // measure 71
0100
0000
1000
0000
0130
1000
0200
0000
,  // measure 72
0301
0000
0010
0000
0100
0000
0100
0010
2000
0000
0000
0000
0010
0000
0000
0000
,  // measure 73
0001
0000
3020
0000
0001
0000
0130
0010
,  // measure 74
0001
0000
1000
0010
0200
0000
0000
0000
0001
0000
0000
0000
0010
0000
0000
0000
,  // measure 75
2300
0000
0000
0000
0001
0000
0000
0000
3100
0000
0010
0000
1000
0000
0001
0010
,  // measure 76
0002
0000
0010
0000
1003
0010
1000
0010
1000
0010
0000
0010
0100
0000
0001
0010
,  // measure 77
0000
0010
0001
0000
0010
0100
0000
0100
1000
0000
0001
1000
0002
0000
0100
0000
,  // measure 78
1003
0100
1000
0100
1000
0100
0000
0100
0010
0000
0001
0100
0000
0100
0001
0000
,  // measure 79
0200
0000
0010
0000
0302
0000
0010
0000
1003
0000
0001
0100
0010
1000
0001
0100
,  // measure 80
0010
1000
0001
0100
0010
1000
0001
0000
0010
0001
1000
0100
0010
0001
1000
0100
,  // measure 81
0010
0001
1000
0000
0010
0000
0010
0000
1000
0000
1000
0000
0100
0000
0100
0000
,  // measure 82
0010
0000
0010
0001
1000
0010
0100
0001
0010
0100
1000
0010
0100
0001
0010
0000
,  // measure 83
0110
0000
0000
0011
0000
1100
0000
1010
0000
0101
0000
0110
0000
1001
0000
1100
,  // measure 84
0000
0011
0000
0000
0110
0000
1001
0000
0000
0110
0000
1001
0000
0110
0000
0000
,  // measure 85
1000
0100
0010
0000
0011
0000
0001
0100
0010
0100
0001
1000
0100
0000
0110
0000
,  // measure 86
0000
1100
0000
0101
0000
1000
0010
0000
0011
0000
0220
0000
0000
0000
0000
0000
,  // measure 87
0000
0000
0000
0000
,  // measure 88
0000
0000
0000
0000
,  // measure 89
0000
0000
0000
0000
,  // measure 90
0000
0000
0000
0000
,  // measure 91
0000
0000
0000
0000
,  // measure 92
0000
0000
0000
0000
,  // measure 93
0000
0000
0000
0000
,  // measure 94
0000
0000
0330
0000
;

//---------------dance-single - ----------------
#NOTES:
     dance-single:
     :
     Beginner:
     6:
     0.237435,0.381530,0.087476,0.282615,0.023551,247.000000,234.000000,13.000000,42.000000,0.000000,0.000000,0.237435,0.381530,0.087476,0.282615,0.023551,247.000000,234.000000,13.000000,42.000000,0.000000,0.000000:
0000
0000
0000
0000
,
0000
0000
0000
0000
,
0000
0000
0000
0000
,
0000
0000
0000
1000
,
0000
0100
0000
0010
,
0000
0001
0000
1000
,
0100
1000
0000
0001
,
0100
0001
0000
1000
,
0000
0010
0000
0100
,
0000
0001
0000
1000
,
0010
1000
0001
0010
,
0001
1000
0000
0001
,
0000
0010
0000
0100
,
0000
1000
0010
1000
,
0001
0010
0001
1000
,
1000
0000
1000
0000
0000
0010
0000
0100
,
0000
0001
0000
0000
0001
0000
0001
0000
,
0000
0110
0000
0110
0000
0000
2000
0000
,
0000
0000
3000
1000
,
0002
0003
0200
0300
,
0020
0030
0002
0003
,
0020
0000
0030
0000
0000
2000
0000
3000
,
0002
0000
0003
0000
0000
2000
0000
3000
,
0002
0003
0020
0030
,
0200
0300
0002
0003
,
0200
0000
0000
0000
0300
0000
0000
0000
0000
2000
0000
0000
0000
0000
3000
0000
,
0002
0003
0100
0010
,
1000
0100
1000
0100
,
0010
0001
1001
0000
,
0001
0100
0001
0100
,
0010
1000
1001
0110
,
1000
0010
1000
0010
,
0100
0001
1001
0000
,
0001
0010
0001
0010
,
0100
1000
1001
0110
,
2000
0000
3000
1000
,
0020
0000
0030
0020
,
0030
0200
0000
0000
,
0000
0000
0300
0100
,
0002
0000
0003
0001
,
0020
0000
0030
0020
,
0030
0200
0000
0300
,
2000
3000
0100
0010
,
0002
0000
0003
0001
,
0020
0000
0030
0020
,
0030
0200
0000
0000
,
0000
0000
0300
0100
,
2000
0000
3000
1000
,
0020
0000
0030
0020
,
0030
0200
0000
0300
,
0002
0003
0001
0100
,
0010
1000
1001
0001
,
1000
0100
0110
0010
,
0001
0100
0110
0010
,
1000
0001
1001
1000
,
0001
0010
0010
1000
,
0010
0010
0001
0100
,
0100
1000
0100
0100
,
0001
0010
0100
1000
,
0010
0100
0001
0010
,
0200
0000
0000
0000
,
0000
0000
0000
0300
,
2000
0000
0000
0000
0000
0000
3000
0020
,
0000
0000
0000
0000
0000
0030
0200
0000
,
0000
0000
0000
0000
0300
0002
0000
0000
,
0000
0000
0000
0003
1000
0000
0000
0000
,
0100
0000
0000
0010
0000
0000
0000
0001
,
0000
2000
0000
0000
,
0000
0000
0000
3000
,
1000
0100
0010
0001
,
0010
0100
1000
0001
,
0100
0010
1000
0100
,
0010
0001
1000
0010
,
0100
0001
0100
0010
,
1000
0001
0010
0100
,
1000
0010
0100
0001
,
1000
1000
0001
0001
,
1000
1000
1000
0001
,
0001
1000
1000
0001
,
0001
0001
1000
0100
,
0010
0001
0100
0010
,
1000
0001
0001
1000
,
1000
0000
0100
0100
0100
0000
0010
0010
,
0010
0000
0000
0000
0000
0000
0000
0100
0000
0000
0000
0000
0000
0100
0000
0000
,
0000
0010
0000
0000
0010
0000
0000
0000
0000
0010
0000
0000
0000
0100
0000
0000
,
0000
0000
0010
0000
0000
0010
0000
0100
,
0000
0100
0000
0000
0000
0000
0100
0000
0000
0000
2002
0000
0000
0000
0000
0000
,
0000
0000
0000
0000
,
0000
0000
0000
0000
,
0000
0000
0000
0000
,
0000
0000
0000
0000
,
0000
0000
0000
0000
,
0000
0000
0000
0000
,
0000
0000
0000
0000
,
0000
0000
3003
0000
;

//---------------dance-single - XO- DS- JA- XMOD RH- JU----------------
#NOTES:
     dance-single:
     :
     Medium:
     12:
     0.515244,0.731267,0.235513,0.215326,0.235513,536.000000,501.000000,35.000000,32.000000,0.000000,0.000000,0.515244,0.731267,0.235513,0.215326,0.235513,536.000000,501.000000,35.000000,32.000000,0.000000,0.000000:
0000
0000
0000
0000
,
0000
0000
0000
0000
,
0000
0000
0000
0000
,
0000
0000
0000
1000
,
0100
0010
0001
0000
1000
0010
0000
1010
,
0000
0011
0001
1000
,
0001
0010
0001
0000
1000
0000
0001
1000
,
0000
0010
1000
0000
0001
0001
1000
0000
,
0010
0100
0001
0000
1000
0100
0000
1100
,
0000
0101
0001
1000
,
0001
0010
0001
1000
0001
0001
0010
0001
,
0100
0000
0001
0000
0100
0010
1000
0000
,
0001
0010
0000
0011
0000
0000
1010
0000
,
0001
0100
0001
0100
0010
1000
0001
0000
,
1000
0100
0010
0001
1000
0000
0001
0000
,
0100
0010
1000
0100
0010
0001
0000
0001
,
1000
0010
0100
0001
0010
0001
0010
0001
,
0000
1000
0010
1000
0010
0000
1000
0000
,
0001
0000
0000
0000
0100
0000
0000
0000
0010
0000
0000
0000
1000
0000
0000
0000
0000
0000
0000
0000
0000
0000
0000
0000
0001
0000
0000
1000
0000
0000
0000
0000
0000
0000
0000
0000
1001
0000
0000
0000
0000
0000
0000
0000
0000
0000
0000
0000
,
1000
0000
0100
0000
1000
0000
0000
0000
0001
0000
0000
0001
0000
0000
0001
0000
,
1000
0000
0000
1000
0000
0000
1000
0000
0010
0000
0100
0000
0001
0000
1000
0000
,
0001
0000
0100
0000
0001
0000
0000
0000
1000
0000
0000
1000
0000
0000
1000
0000
,
0001
0000
0000
0001
0000
0000
0001
0000
0010
0000
0100
0000
0110
0000
0000
0000
,
0001
0000
0010
0000
0001
0000
0000
0000
1000
0000
0000
1000
0000
0000
1000
0000
,
0001
0000
0000
0001
0000
0000
0001
0000
0100
0000
0010
0000
1000
0000
0001
0000
,
1000
0000
0010
0000
1000
0000
0000
0000
0001
0000
0000
0001
0000
0000
0001
0000
,
1000
0000
0000
1000
0000
0000
1000
0000
0100
0000
0010
0000
0110
0000
0000
0000
,
1000
0000
1000
0000
0001
0000
0001
0000
0100
0000
0000
0001
0000
0000
0100
0000
,
0001
0000
0000
1000
0000
0000
0100
0000
0010
0000
0001
0000
0001
0000
0000
0000
,
1000
0000
1000
0000
0001
0000
0001
0000
0010
0000
0000
0001
0000
0000
0010
0000
,
0001
0000
0000
1000
0000
0000
0010
0000
0100
0000
0010
0000
1010
0000
0000
0000
,
0001
0000
0001
0000
1000
0000
1000
0000
0010
0000
0000
1000
0000
0000
0010
0000
,
1000
0000
0000
0001
0000
0000
0010
0000
0100
0000
1000
0000
1000
0000
0000
0000
,
0001
0000
0001
0000
1000
0000
1000
0000
0100
0000
0000
1000
0000
0000
0100
0000
,
1000
0001
0100
0010
1000
0001
1001
0000
,
1000
0001
0100
0000
0010
0000
0100
0000
,
0001
0000
0010
0100
0010
0000
0001
0010
,
0001
1000
0100
0000
0010
0000
0100
0000
,
1000
0000
0010
0100
0010
0000
1000
0100
,
1000
0001
0100
0000
0010
0100
0001
0000
,
0010
0000
0010
0100
0010
0000
0001
0010
,
0001
1000
0100
0000
0010
0100
1000
0000
,
0010
0000
0010
0100
0010
0000
1000
0010
,
1000
0000
0000
0001
0000
0000
0000
0010
0000
0000
0000
0000
0011
0000
0000
0000
0000
0000
0001
0000
0000
0100
0000
0000
,
0010
0000
0000
0000
0000
0000
0010
0000
0000
1000
0000
0000
0001
0000
0010
0000
0100
0000
1000
0000
0000
1000
0000
0000
,
0001
0000
0000
1000
0000
0000
0000
0010
0000
0000
0000
0000
1010
0000
0000
0000
0000
0000
1000
0000
0000
0100
0000
0000
,
0010
0000
0000
0000
0000
0000
0010
0000
0000
0001
0000
0000
1000
0000
0010
0000
0100
0000
0001
0000
0000
0001
0000
0000
,
1000
0000
0000
0001
0000
0000
0000
0100
0000
0000
0000
0000
0101
0000
0000
0000
0000
0000
0001
0000
0000
0010
0000
0000
,
0100
0000
0000
0000
0000
0000
0100
0000
0000
1000
0000
0000
0001
0000
0100
0000
0010
0000
1000
0000
0000
1000
0000
0000
,
0001
0000
0000
1000
0000
0000
0000
0100
0000
0000
0000
0000
1100
0000
0000
0000
0000
0000
1000
0000
0000
0010
0000
0000
,
0100
0000
0000
0000
0000
0000
0100
0000
0000
0001
0000
0000
1000
0000
0100
0000
0010
0000
0001
0000
0000
0001
0000
0000
,
1000
0000
0000
0010
0000
0100
0000
0010
0000
0000
0000
0000
0110
0000
0000
0000
0000
0000
0001
0000
0010
0000
0100
0000
,
1000
0000
0000
0100
0000
0010
0000
0100
0000
0000
0000
0000
0110
0000
0000
0000
0000
0000
1000
0000
0010
0000
0100
0000
,
0001
0000
0000
0100
0000
0010
0000
0100
0000
0000
0000
0000
0110
0000
0000
0000
0000
0000
1000
0000
0100
0000
0010
0000
,
0001
0000
0000
0010
0000
0100
0000
0010
0000
0000
0000
0000
0110
0000
0000
0000
0000
0000
0001
0000
0100
0000
0010
0000
,
1000
0000
0000
0100
0000
0000
0001
0000
0000
0100
0000
0000
0010
0000
0100
0000
0010
0000
0001
0000
0000
0100
0000
0000
,
1000
0000
0000
0100
0000
0000
0010
0000
0100
0000
0010
0000
1000
0000
0000
0100
0000
0000
0010
0000
0000
0100
0000
0000
,
0001
0100
1000
0010
0100
0010
0001
0010
,
1000
0001
0010
1000
0010
0001
1000
0010
,
0001
0000
0010
0000
1000
0000
0100
0000
0010
0100
0000
0001
0100
0000
2000
0000
,
0002
0000
0000
0000
,
0000
0000
0000
3003
,
1000
0100
0010
0001
2000
0000
0001
3001
,
0100
0000
0010
0000
1000
0000
0002
0000
0000
1000
0000
0000
1003
0000
0010
0000
,
0100
0001
2000
0000
0000
3001
0010
0100
,
1000
0002
0000
0003
1001
1000
0100
0010
,
0002
0000
0010
1003
0010
0100
0010
0002
,
0000
0023
0000
0000
,
0000
0000
2030
0000
0000
0000
0000
0000
0000
0000
0001
0000
0000
0001
0000
0000
,
3002
0010
2003
0000
,
3200
0000
0000
0000
0310
0001
2000
0000
,
0010
3002
0100
0203
,
0000
0320
0100
0000
2030
0000
0100
0000
,
0001
0000
3200
0000
1000
0000
0320
0001
,
0000
0032
0100
1000
,
0203
0000
1000
0000
0320
1000
0000
0000
,
1030
0100
0001
0000
0100
0000
1000
0100
,
0010
0000
0110
0000
1001
0000
0001
0100
,
1000
0000
0100
0000
0001
0100
0010
0000
,
0110
1001
2000
3020
,
0032
0023
2030
3002
,
0023
0000
1030
1000
0010
0010
0001
0001
,
1000
0000
1000
0000
0001
0100
0001
0000
1000
0100
1000
0000
0010
0000
0100
0000
,
0110
0000
0000
1000
0000
0100
0000
0010
0000
0001
0000
0100
0000
0010
0000
1000
,
0000
0001
0000
0000
1001
0000
1001
0000
0000
0110
0000
0110
0000
1000
0000
0000
,
0001
0000
0001
0000
0010
0000
0100
1000
0100
0000
1000
0000
0001
0000
0110
0000
,
0000
1001
0000
1001
0000
0000
0110
0000
0110
0000
2002
0000
0000
0000
0000
0000
,
0000
0000
0000
0000
,
0000
0000
0000
0000
,
0000
0000
0000
0000
,
0000
0000
0000
0000
,
0000
0000
0000
0000
,
0000
0000
0000
0000
,
0000
0000
0000
0000
,
0000
0000
3003
0000
;

//---------------dance-single - ----------------
#NOTES:
     dance-single:
     :
     Easy:
     9:
     0.340292,0.413325,0.094205,0.154765,0.037009,354.000000,340.000000,14.000000,23.000000,0.000000,0.000000,0.340292,0.413325,0.094205,0.154765,0.037009,354.000000,340.000000,14.000000,23.000000,0.000000,0.000000:
0000
0000
0000
0000
,
0000
0000
0000
0000
,
0000
0000
0000
0000
,
0000
0000
0000
1000
,
1000
0000
0010
0000
0000
0010
0000
0100
,
0000
0010
1000
0001
,
0002
0000
0023
0000
0230
0000
0300
0100
,
0000
0010
0001
1000
,
1000
0000
0100
0000
0000
0100
0000
0010
,
0000
0100
1000
0001
,
0002
0000
0203
0000
0300
0010
0000
0010
,
0100
0001
0001
0100
,
0000
0100
0000
0010
0000
0000
0100
0000
,
0001
1000
2000
3200
,
0310
0000
0001
0010
0001
0000
0010
0000
,
1000
0000
0010
0000
0000
0001
0000
0100
,
0000
1000
0000
0100
0010
0000
0000
0110
,
0000
1001
0000
0000
1001
0000
1000
0000
,
0100
0010
0001
1001
,
1000
1000
0100
0010
,
0001
0100
0010
1000
,
0001
0001
0100
0010
,
1000
0100
0010
0110
,
0001
0001
0010
0100
,
1000
0010
0100
0001
,
1000
1000
0010
0100
,
0001
0010
0100
1001
,
1000
0000
0010
0100
0010
0000
1000
0000
,
0001
0010
0001
0001
,
1000
0000
0100
0010
0100
0000
1000
0000
,
0001
0100
1000
0100
,
0001
0000
0100
0010
0100
0000
0001
0000
,
1000
0100
1000
1000
,
0001
0000
0010
0100
0010
0000
0001
0000
,
0200
2300
3100
0110
,
1000
0010
0010
0010
,
0001
0010
1000
0001
,
0001
0010
0010
0010
,
1000
0010
0001
1000
,
0001
0001
0100
0100
,
1000
0100
0001
0001
,
1000
1000
0100
0100
,
0001
0100
0110
1001
,
0001
0010
0000
0001
1000
0000
0010
0000
,
0100
1000
0100
0010
,
1000
0010
0000
1000
0001
0000
0010
0000
,
0100
0001
0100
1000
,
1000
0100
0000
1000
0001
0000
0100
0000
,
0010
0001
0010
0100
,
0001
0100
0000
0001
1000
0000
0100
0000
,
0010
1000
0010
0100
,
1000
0010
1000
0000
0010
0000
0100
0000
,
0001
0010
0001
0000
1000
0000
0001
0000
,
1000
0100
1000
0000
0100
0000
0010
0000
,
0001
0100
0001
0000
0100
0000
1000
0000
,
0100
0010
0100
0000
0001
0000
0010
0100
,
0010
0000
0001
0000
0001
0010
0001
0000
,
1000
0000
0100
0010
0100
0000
1000
0000
,
0010
0010
0010
0010
,
0010
0100
0010
0100
0010
0000
0110
0000
,
2002
0000
0000
0000
,
0000
0000
0000
3003
,
0002
0000
0000
0000
0003
0000
0010
0200
,
0000
0000
0000
0000
0000
0000
1300
0000
0000
0100
0000
0000
0020
0000
0000
0000
,
0030
0000
0010
0000
0000
2000
0000
0000
,
0000
3010
0000
0000
0002
0100
0000
0000
,
2003
0000
0100
3002
0000
0000
0000
0023
,
0000
0030
0020
0000
0000
0000
0000
0000
,
0030
0200
0000
0000
0000
0000
0000
0000
,
1300
0100
0010
0001
,
0100
0010
0001
0010
,
1000
0100
0010
1000
,
0010
0001
1000
0010
,
0100
0001
0010
0100
,
1000
0010
1000
0100
,
0001
0000
0100
0000
1000
0001
0000
0001
,
1000
0001
1000
0000
0010
0000
0100
0010
,
0100
0000
0010
0000
0110
0000
0001
1000
,
0001
0000
0010
0000
0100
0010
0100
0000
,
0010
0110
1000
0100
,
0001
0100
1000
0010
,
0001
0010
0010
1000
,
1000
0000
0001
0010
0100
0000
1000
0010
,
0100
0000
0000
0100
0000
0000
0000
0001
0000
0000
0000
1000
0000
0000
0000
0100
,
0000
0100
0000
0000
0010
0000
0010
0000
0000
0100
0000
0100
0000
1000
0000
0000
,
1000
0000
0001
0000
1000
0000
0010
0010
,
0000
0100
0000
0100
0000
0000
0010
0000
0000
0000
0220
0000
0000
0000
0000
0000
,
0000
0000
0000
0000
,
0000
0000
0000
0000
,
0000
0000
0000
0000
,
0000
0000
0000
0000
,
0000
0000
0000
0000
,
0000
0000
0000
0000
,
0000
0000
0000
0000
,
0000
0000
0330
0000
;
