#VERSION:0.83;
#TITLE:Altitude Rising Pt.1;
#SUBTITLE:~Preparations~;
#ARTIST:Z-I-v Sound Team "Karl with a K";
#TITLETRANSLIT:;
#SUBTITLETRANSLIT:;
#ARTISTTRANSLIT:;
#GENRE:;
#ORIGIN:;
#CREDIT:;
#BANNER:Altitude Rising Pt 1 Preparations banner.png;
#BACKGROUND:Altitude Rising Pt 1 Preparations bg.png;
#PREVIEWVID:;
#JACKET:Altitude Rising Pt 1 Preparations jk.png;
#CDIMAGE:;
#DISCIMAGE:;
#LYRICSPATH:;
#CDTITLE:;
#MUSIC:Altitude Rising Pt 1 Preparations.ogg;
#OFFSET:-0.025000;
#SAMPLESTART:29.470354;
#SAMPLELENGTH:12.387102;
#SELECTABLE:YES;
#BPMS:0.000=155.000,
140.000=77.500,
154.000=38.750,
155.000=155.000,
235.000=77.500,
237.000=155.000;
#STOPS:;
#DELAYS:;
#WARPS:;
#TIMESIGNATURES:0.000=4=4;
#TICKCOUNTS:0.000=4;
#COMBOS:0.000=1;
#SPEEDS:0.000=1.000=0.000=0;
#SCROLLS:0.000=1.000;
#FAKES:;
#LABELS:0.000=Song Start;
#BGCHANGES:;
#KEYSOUNDS:;
#ATTACKS:
;

//---------------dance-single - XO DS JA XMOD RH- JU----------------
#NOTEDATA:;
#CHARTNAME:;
#STEPSTYPE:dance-single;
#DESCRIPTION:XO DS JA XMOD RH- JU;
#CHARTSTYLE:;
#DIFFICULTY:Hard;
#METER:14;
#RADARVALUES:0.620228,0.659562,0.339718,0.414456,0.550343,639.000000,589.000000,50.000000,61.000000,0.000000,0.000000,1.000000,0.000000,0.000000,0.620228,0.659562,0.339718,0.414456,0.550343,639.000000,589.000000,50.000000,61.000000,0.000000,0.000000,1.000000,0.000000,0.000000;
#CREDIT:Karl with a K;
#NOTES:
0000
0000
0000
0000
,
0000
0000
0000
0000
,
0000
0000
0000
0000
,
0000
0000
0000
0000
,
0000
0000
0000
0000
,
0000
0000
0000
0000
,
1000
0000
1000
0000
0100
0000
0010
0000
0001
0000
0000
1000
0000
0010
0000
0000
,
0100
0000
0100
0000
0010
1000
0000
0000
0001
0000
0000
0010
0000
0001
0100
0000
,
0001
0000
0000
1000
0000
0001
0000
0010
0000
0100
0000
0000
1000
0001
1000
0000
,
0001
0000
0001
0000
0100
0000
0010
0000
1000
0000
0000
0001
0000
0010
0000
0000
,
0100
0000
0100
0000
0010
0001
0000
0000
1000
0000
0000
0100
0000
0000
1000
0000
,
1000
0000
0000
0001
0000
1000
0000
0010
0000
0100
0000
0000
0010
1000
0001
0000
,
2000
0000
0100
0000
3002
0000
0100
0000
1003
0000
0000
0010
0000
0010
0000
0000
,
2000
0000
0010
0000
3002
0010
0000
0000
2003
0000
0000
0100
0000
0000
3100
0000
,
0020
0000
0000
0031
0000
0100
0000
0010
0000
1000
0000
0000
0001
0000
1000
0000
,
1010
0101
0011
1100
,
0110
0011
1010
0110
,
0001
0100
0010
1000
0001
0010
0001
0001
,
0010
0100
0010
0000
0001
1000
0001
0000
0020
0000
0000
0000
0100
0000
0000
0000
,
0031
0000
0100
0000
0001
0000
0100
0000
1000
0000
0000
0100
0000
0001
0000
0000
,
1000
0000
0100
0000
0001
0000
0000
0100
2000
0000
0000
0000
0000
0000
3020
0000
,
0000
0001
0000
0000
0230
0000
0000
0310
1000
0000
0000
0100
0000
0010
0001
0000
,
1000
0000
1000
0000
0010
0000
0010
0000
0110
0000
0000
0100
0001
0020
0000
0000
,
0031
0010
0100
0000
1000
0000
0100
0000
0001
0000
0000
0100
0000
1000
0000
0000
,
0001
0000
0100
0000
1000
0000
0000
0100
0002
0000
0000
0000
0000
0000
0023
0000
,
0000
1000
0000
0000
0230
0000
0000
0310
0001
0000
0000
0100
0000
0010
1000
0000
,
0001
0000
0001
0000
0010
0000
0100
0000
0110
0000
0000
0100
1000
0020
0000
0000
,
1030
0100
0010
0000
0100
0000
0000
0000
1000
0000
0000
0010
1000
0010
0000
0000
,
0010
0100
0010
0000
0200
0000
0000
0301
0000
0001
0000
0000
0000
0000
1000
0100
,
0000
0020
0000
0000
0130
1000
0000
0100
0010
0000
0000
0001
0000
0001
0100
0000
,
0010
0000
0010
0000
1000
0000
0001
0000
1001
0000
0000
1000
0100
0020
0000
0000
,
0031
0000
0001
0000
1000
0000
1000
0000
0020
0000
0000
0100
0000
0230
0000
0000
,
0301
0100
0001
0000
0020
0000
0000
0130
0020
0000
0000
0000
0030
0000
0001
1000
,
0000
0002
0000
0000
0103
0010
0000
0100
0020
0000
0000
1030
0000
0001
1000
0000
,
0001
0010
0001
0000
1000
0000
1000
0000
0020
0000
0000
0130
0001
0020
0000
0000
,
0100
0000
0100
0000
0100
0000
0000
0100
0000
0000
0000
0000
0000
0000
0000
0100
,
0100
0000
0000
0000
0100
0000
0000
0000
0100
0000
0000
0000
0000
0100
0000
0000
0000
0000
0000
0000
0000
0000
0000
0000
0030
0000
0000
0000
0010
0000
0002
0000
,
0100
0000
0100
0000
0100
0000
0000
0100
0000
0000
0000
0000
0000
0000
0000
0100
,
0100
0000
0000
0000
0100
0000
0000
0000
0200
0000
0000
0000
0300
0103
0000
0000
0220
0000
0000
0000
0000
0000
0330
0000
1000
0000
0100
0000
1000
0000
0100
0000
,
0010
0000
0000
0011
0000
0000
0001
0000
0010
0000
1000
0000
0010
0000
0001
0100
,
0000
0000
0010
0000
0000
1000
0000
0000
0001
0000
0100
0000
0001
0000
0100
0000
0010
0000
0000
0000
0000
0000
1010
0000
0000
0000
0000
0000
0010
0000
0000
0000
,
1000
0000
1000
0000
0100
0000
0010
0000
2002
0000
3003
0000
1000
0010
1000
0010
,
0100
0000
0000
0101
0000
0000
0001
0000
0100
0000
1000
0000
0100
0000
0001
0010
,
0000
0000
0100
0000
0000
1000
0000
0000
0001
0000
0010
0000
0001
0000
0010
0000
0100
0000
0000
0000
0000
0000
1100
0000
0000
0000
0000
0000
1000
0000
0000
0000
,
0001
1000
0001
0000
0010
0000
0100
0000
0020
0000
0032
0000
2003
0000
0000
0000
,
0100
0000
0000
0000
3010
0000
0000
0100
0000
0100
0000
0000
0002
0000
0000
0000
,
0100
0000
0000
0013
0002
0000
0000
0000
0023
0000
0130
0000
2000
0000
0000
0000
,
3100
0000
0000
0010
0001
0000
0000
0100
0000
0100
0000
0000
1000
0000
0100
0000
,
0010
0000
0001
0000
0010
0000
0000
1000
0000
0200
0000
0000
0010
0000
0000
0000
,
0301
0000
0100
0000
0010
0000
0000
0001
0000
0001
0000
0000
1000
0000
0010
0000
,
0100
0000
0000
0010
1000
0000
0000
0000
0000
0000
0100
0000
0020
0100
0000
0000
,
0031
0000
0000
0100
0010
0000
0000
0100
0000
0100
0000
0000
0001
0000
1000
0000
,
0100
0000
0010
0000
0011
0000
0000
1000
0000
0010
0000
0000
1000
0000
0000
0000
,
1000
0100
0100
0010
,
0010
0110
1001
1000
,
0010
0010
0100
0100
,
0110
0000
1001
1000
0001
0001
0100
0010
,
1000
0001
0001
1000
0100
0010
0001
0001
,
0100
0000
0100
0000
0001
1000
0100
1000
0100
0010
0100
0010
0002
0000
0000
0000
,
4003
0000
0000
0000
3001
0100
0001
0000
2100
0000
0000
0000
3001
0000
0102
0000
,
0000
0000
0000
1003
0000
0000
1100
0000
0000
0000
1010
0000
0000
0000
0101
0000
0000
0000
0011
0000
0000
0000
0000
0000
,
0001
0200
0010
0301
2010
0000
3001
0012
,
0000
0000
0000
1003
0000
0000
1010
0000
0000
0000
1100
0000
0000
0000
0011
0000
0000
0000
0101
0000
0000
0000
0000
0000
,
1000
0000
0100
0000
0020
0000
0001
0000
0000
0130
0000
0000
0102
0000
0000
0000
0000
0000
1003
0000
0000
2100
0000
0000
,
0000
0000
0000
3001
0000
0000
0101
0000
0000
0000
0011
0000
0000
0000
1100
0000
0000
0000
1010
0000
0000
0000
0000
0000
,
0001
0020
0001
0130
0012
0000
1003
2010
,
0000
0000
0000
3001
0000
0000
0011
0000
0000
0000
0101
0000
0000
0000
1010
0000
0000
0000
1100
0000
0000
0000
0100
0000
,
0010
0000
0001
0000
0100
0000
0010
0000
0000
0010
0000
0000
0200
0000
0000
0000
0000
0000
0301
0000
0000
0010
0000
0000
,
0001
0000
0000
1000
0000
0000
0100
0000
0000
0000
0100
0000
0010
0000
0002
0000
0000
0000
0103
0000
0000
0000
0010
0000
,
1000
0000
0100
0010
0100
0000
0100
0000
0020
0000
0000
0000
0031
0000
0100
0000
,
0001
0000
0000
1000
0000
0000
0010
0000
0000
0000
0010
0000
0100
0000
0002
0000
0000
0000
0013
0000
0000
0000
0100
0000
,
1000
0000
0010
0000
1000
0000
0100
0000
0000
1000
0000
0000
0020
0000
0000
0000
0000
0000
1030
0000
0000
0100
0000
0000
,
1000
0000
0000
0001
0000
0000
0010
0000
0000
0000
0010
0000
0100
0000
2000
0000
0000
0000
3010
0000
0000
0000
0100
0000
,
0001
0000
0010
0100
0010
0000
0010
0000
0200
0000
0000
0000
1300
0000
0010
0000
,
1000
0000
0000
0001
0000
0000
0100
0000
0000
0000
0100
0000
0010
0000
2000
0000
0000
0000
3100
0000
0000
0000
0010
0000
,
0001
0000
0100
0000
0001
0000
1000
0000
0000
1000
0000
0000
0001
0000
0000
0000
0000
0000
0100
0000
0000
0001
0000
0000
,
0010
0000
0000
0100
0000
0000
1000
0000
0000
0000
0100
0000
0010
0000
0001
0000
0000
0000
1000
0000
0000
0001
0000
0000
,
1000
0000
0000
0000
0000
0000
0100
0000
0000
1000
0000
0000
0010
0000
0000
0100
0000
0000
0001
0000
0000
0000
0100
0000
,
0010
0000
0100
0000
0000
0000
0010
0000
0000
1000
0000
0000
0100
0000
0000
0000
0000
0000
0100
0000
0000
1000
0000
0000
,
0010
0000
0000
0100
0000
0000
0001
0000
0000
0000
0001
0000
0010
0000
0100
0000
0000
0000
0010
0000
0000
0001
0000
0000
,
0100
0000
0000
0000
0000
0000
0100
0000
0000
0001
0000
0000
0010
0000
0000
0100
0000
0000
1000
0000
0000
0000
1000
0000
,
0010
0000
0100
0000
0000
0000
0001
0000
0000
0001
0000
0000
0010
0000
0000
0000
0000
0000
0011
0000
0000
0001
0000
0000
,
1000
1000
0010
0000
0101
0100
0001
0001
,
0100
0000
0101
0001
1000
1000
0100
0000
,
0011
0010
0001
0010
0100
0010
0001
0100
,
0010
1000
0010
0001
0010
0100
0010
1000
,
0100
0010
1000
0010
0100
0010
1000
0010
,
0001
0010
1000
0001
0100
1000
0001
0100
,
1000
0100
0010
0000
0000
0000
0000
0000
;

//---------------dance-single - ----------------
#NOTEDATA:;
#CHARTNAME:;
#STEPSTYPE:dance-single;
#DESCRIPTION:;
#CHARTSTYLE:;
#DIFFICULTY:Beginner;
#METER:5;
#RADARVALUES:0.167918,0.269821,0.135887,0.163065,0.000000,173.000000,153.000000,20.000000,24.000000,0.000000,0.000000,0.000000,0.000000,0.000000,0.167918,0.269821,0.135887,0.163065,0.000000,173.000000,153.000000,20.000000,24.000000,0.000000,0.000000,0.000000,0.000000,0.000000;
#CREDIT:Karl with a K;
#NOTES:
// measure 0
0000
0000
0000
0000
,  // measure 1
0000
0000
0000
0000
,  // measure 2
0000
0000
0000
0000
,  // measure 3
0000
0000
0000
0000
,  // measure 4
0000
0000
0000
0000
,  // measure 5
0000
0000
0000
0000
,  // measure 6
1000
0000
1000
0000
,  // measure 7
0100
0000
0100
0000
,  // measure 8
0010
0000
0010
0000
,  // measure 9
0001
0000
0001
0000
,  // measure 10
0100
0000
0100
0000
,  // measure 11
0010
0000
0010
0000
,  // measure 12
1000
0000
0000
0010
,  // measure 13
0000
0000
0100
0000
,  // measure 14
0000
0001
0000
1000
,  // measure 15
1000
0000
1000
0000
,  // measure 16
0100
0000
0100
0000
,  // measure 17
0010
0010
0010
0000
,  // measure 18
0001
0001
0001
0000
,  // measure 19
1001
0000
1000
0000
,  // measure 20
0100
0000
0010
0000
,  // measure 21
0001
0000
0100
0000
,  // measure 22
0010
0000
1000
0000
,  // measure 23
1001
0000
0001
0000
,  // measure 24
0010
0000
0100
0000
,  // measure 25
1000
0000
0010
0000
,  // measure 26
0100
0000
0001
0000
,  // measure 27
1000
1000
1000
0000
,  // measure 28
0100
0100
0100
0000
,  // measure 29
0000
0010
0010
0000
,  // measure 30
0001
0001
0001
0001
,  // measure 31
0002
0003
0200
0300
,  // measure 32
0020
0030
2000
3000
,  // measure 33
0002
0003
2000
3000
,  // measure 34
0200
0300
0020
0030
,  // measure 35
0110
0000
0000
0000
,  // measure 36
0000
0000
0000
0000
,  // measure 37
0000
0000
0000
0000
,  // measure 38
0000
0000
0000
0000
,  // measure 39
1001
0000
1000
1000
,  // measure 40
1000
0000
1001
0000
,  // measure 41
0001
0001
0001
0000
,  // measure 42
0110
0000
0100
0100
,  // measure 43
0100
0000
0110
0000
,  // measure 44
0010
0010
0000
2000
,  // measure 45
0000
3000
0000
0200
,  // measure 46
0000
0300
0000
0020
,  // measure 47
0000
0030
0000
0002
,  // measure 48
0000
0003
0000
2000
,  // measure 49
0000
3000
0000
0020
,  // measure 50
0000
0030
0000
0200
,  // measure 51
0000
0300
0000
0002
,  // measure 52
0000
0003
0000
2000
,  // measure 53
0000
0000
0000
0000
,  // measure 54
0000
3000
0002
0000
,  // measure 55
0000
0000
0000
0000
,  // measure 56
0003
1000
0000
0001
,  // measure 57
0000
0010
0000
0100
,  // measure 58
0000
0010
0000
0220
,  // measure 59
0330
0000
0000
0000
1001
0000
0000
1001
,  // measure 60
0000
1001
0000
0000
,  // measure 61
0000
0000
0000
0000
0110
0000
0000
0110
,  // measure 62
0000
0110
0000
0000
,  // measure 63
0000
0000
0000
0000
1001
0000
0000
1001
,  // measure 64
0000
1001
0000
0000
,  // measure 65
0000
0000
0000
0000
0110
0000
0000
0110
,  // measure 66
0000
0110
0000
0000
,  // measure 67
0000
1000
1000
1000
,  // measure 68
0000
0100
0100
0100
,  // measure 69
0000
0010
0010
0010
,  // measure 70
0000
0001
0001
0001
,  // measure 71
0001
0001
0001
0001
,  // measure 72
0000
0100
0100
0100
,  // measure 73
0000
0010
0010
0010
,  // measure 74
0000
1000
1000
1000
,  // measure 75
0000
0002
0000
0000
,  // measure 76
0000
0003
0000
0020
,  // measure 77
0000
0000
0000
0030
,  // measure 78
0000
0200
0000
0000
,  // measure 79
0000
0300
0000
2000
,  // measure 80
0000
0000
0000
3000
,  // measure 81
0000
1000
0000
0010
,  // measure 82
0000
1000
0000
0001
,  // measure 83
0000
0010
0000
0001
,  // measure 84
0000
1000
1000
1000
,  // measure 85
0000
0001
0001
0001
,  // measure 86
0000
0100
0000
0100
,  // measure 87
0000
0100
0000
0100
,  // measure 88
0000
0010
0000
0000
;

//---------------dance-single - ----------------
#NOTEDATA:;
#CHARTNAME:;
#STEPSTYPE:dance-single;
#DESCRIPTION:;
#CHARTSTYLE:;
#DIFFICULTY:Medium;
#METER:11;
#RADARVALUES:0.471722,0.509662,0.203831,0.224214,0.312540,486.000000,456.000000,30.000000,33.000000,0.000000,0.000000,0.000000,0.000000,0.000000,0.471722,0.509662,0.203831,0.224214,0.312540,486.000000,456.000000,30.000000,33.000000,0.000000,0.000000,0.000000,0.000000,0.000000;
#CREDIT:Karl with a K;
#NOTES:
0000
0000
0000
0000
,
0000
0000
0000
0000
,
0000
0000
0000
0000
,
0000
0000
0000
0000
,
0000
0000
0000
0000
,
0000
0000
0000
0000
,
1000
0000
0100
0000
0010
0000
0100
0000
1000
0000
0000
0001
0000
0001
0000
0000
,
1000
0000
0010
0000
1000
0000
0000
0000
0001
0000
0000
1000
0000
0000
0001
0000
,
0001
0000
0000
0010
0000
0010
0000
0001
0000
0100
0000
0000
0110
0000
0000
0000
,
0001
0000
0100
0000
0010
0000
0100
0000
0001
0000
0000
1000
0000
1000
0000
0000
,
0001
0000
0010
0000
0001
0000
0000
0000
1000
0000
0000
0001
0000
0000
1000
0000
,
1000
0000
0000
0010
0000
0010
0000
1000
0000
0100
0000
0000
0110
0000
0000
0000
,
0001
0000
0010
0000
0100
0000
0010
0000
0001
0000
0000
1000
0000
1000
0000
0000
,
0001
0000
0100
0000
0001
0000
0000
0000
1000
0000
0000
0001
0000
0000
1000
0000
,
1000
0000
0000
0100
0000
0100
0000
1000
0000
0010
0000
0000
0110
0000
0000
0000
,
1000
0010
0100
0001
,
1000
0100
0010
0001
,
1000
0010
1000
0001
0010
0001
0100
0000
,
0010
1000
0100
0010
0110
0000
1001
0000
,
1000
0000
0100
0000
0010
0000
0000
0000
0001
0000
0000
0100
0000
0100
0000
0000
,
0001
0000
0100
0000
0010
0000
0000
1000
0000
1000
0000
0000
0000
0000
0001
0000
,
0000
0010
0000
0000
0100
0000
0000
1000
0000
0000
0000
0001
0000
0001
0000
0000
,
1000
0010
0100
0010
1000
0000
0110
0000
,
0001
0000
0100
0000
0010
0000
0000
0000
1000
0000
0000
0100
0000
0100
0000
0000
,
1000
0000
0100
0000
0010
0000
0000
0001
0000
0001
0000
0000
0000
0000
1000
0000
,
0000
0010
0000
0000
0100
0000
0000
0001
0000
0000
0000
1000
0000
1000
0000
0000
,
0001
0010
0100
0010
0001
0000
0110
0000
,
1000
0000
0000
0000
1000
0000
0000
0000
0001
0000
0000
1000
0000
0000
0000
0000
,
0100
0000
0010
0000
0001
0000
0000
0100
,
0000
0010
0000
0000
0100
0000
0000
0010
0000
0000
0000
0100
0000
0000
0000
0000
,
0001
0000
0000
0000
1000
0000
0000
0000
1001
0000
0000
0000
0000
0110
0000
0000
,
0001
0000
0100
0000
0001
0000
0000
0000
1000
0000
0000
0001
0000
1000
0000
0000
,
0100
0000
0010
0000
0001
0000
0000
0010
,
0000
0100
0000
0000
0010
0000
0000
0100
0000
0000
0000
1000
0000
0000
0000
0000
,
0010
0000
0000
0000
0100
0000
0000
0000
1001
0000
0000
0000
0000
0110
0000
0000
,
1000
0000
0100
0000
0010
0000
0000
0001
0000
0000
0000
0000
0000
0000
0000
1000
,
0001
0000
0000
0000
0100
0000
0000
0000
0010
0000
0000
0000
0000
1000
0000
0000
0000
0000
0000
0000
0000
0000
0000
0000
0000
0000
0000
0000
0010
0000
1000
0000
,
0001
0000
0100
0000
0010
0000
0000
1000
0000
0000
0000
0000
0000
0000
0000
0001
,
1000
0000
0000
0000
0100
0000
0000
0000
0010
0000
0000
0000
0000
0001
0000
0000
0000
0000
0000
0000
0000
0000
0000
0000
1000
0000
0000
0000
0100
0000
0000
0000
,
0010
0000
0000
0010
0000
0000
0010
0000
0001
0000
0100
0000
0010
0000
0000
1000
,
0000
0001
0000
0000
0001
0000
0100
0000
0010
0000
0000
0010
0000
0000
0010
0000
,
1000
0100
0010
0001
1001
0000
0001
0010
,
0100
0000
0000
0100
0000
0000
0100
0000
1000
0000
0010
0000
0100
0000
0000
0001
,
0000
1000
0000
0000
1000
0000
0010
0000
0100
0000
0000
0100
0000
0000
0100
0000
,
0001
0010
0100
1000
0110
0000
0002
0000
,
0000
0000
0000
0000
1003
0000
0000
0100
0000
0000
0000
0000
2000
0000
0000
0000
,
0000
3002
0203
0320
,
0000
1000
0230
2300
,
0000
3200
0010
0000
0302
0000
0023
0000
,
0001
0100
2030
0010
,
0000
0000
3020
0000
0031
1000
0002
0000
,
0000
0010
0203
0010
,
0000
0302
0000
1003
,
0100
0010
0001
1000
,
0100
0010
0001
0100
,
0010
1000
0001
0100
,
0010
0000
1000
0100
1000
0000
0001
0000
,
1000
0010
1000
0000
0001
0000
0010
0100
,
1000
0010
0100
0001
1000
0001
2002
0000
,
3003
0000
1000
0000
0210
0000
0310
0120
,
0000
0000
0000
0130
0000
0000
0110
0000
0000
0000
1000
0000
0000
0000
0010
0000
0000
0000
0100
0000
0000
0000
0000
0000
,
1001
0000
0001
0000
0210
0000
0310
0120
,
0000
0000
0000
0130
0000
0000
0110
0000
0000
0000
0001
0000
0000
0000
0010
0000
0000
0000
0100
0000
0000
0000
0000
0000
,
1000
0000
0001
0000
1000
0000
0001
0000
0000
0000
0000
0000
0120
0000
0000
0000
0000
0000
0130
0000
0000
0210
0000
0000
,
0000
0000
0000
0310
0000
0000
0110
0000
0000
0000
0001
0000
0000
0000
0100
0000
0000
0000
0010
0000
0000
0000
0000
0000
,
1001
0000
1000
0000
0120
0000
0130
0210
,
0000
0000
0000
0310
0000
0000
0110
0000
0000
0000
1000
0000
0000
0000
0100
0000
0000
0000
0010
0000
0000
0000
0000
0000
,
0001
0000
1000
0000
0001
0000
1000
0000
0000
0100
0000
0000
1000
0000
0000
0000
0000
0000
0001
0000
0000
0010
0000
0000
,
0100
0000
0010
0000
0001
0000
0000
0100
0000
0100
0000
0000
0001
0000
0100
0000
,
0010
0100
1000
0100
0001
0000
1000
0010
,
0100
0000
0010
0000
1000
0000
0000
0100
0000
0100
0000
0000
1000
0000
0100
0000
,
0010
0100
0001
0100
1000
0000
1000
0100
,
0010
0000
0100
0000
1000
0000
0000
0010
0000
0010
0000
0000
1000
0000
0010
0000
,
0100
0010
0001
0010
1000
0000
0001
0100
,
0010
0000
0100
0000
0001
0000
0000
0010
0000
0010
0000
0000
0001
0000
0010
0000
,
0100
0010
0001
0100
0010
0000
1000
0100
,
0010
0000
0001
0000
1000
0000
0000
0001
0000
0001
0000
0000
1000
0000
0100
0000
,
0010
0000
0000
0000
0001
0000
0100
0000
0010
0000
1000
0000
0001
0000
0000
1000
,
0000
1000
0000
0000
0010
0000
0100
0000
0001
0000
0000
0000
0010
0000
0100
0000
,
1000
0000
0010
0000
0100
0000
0000
0001
0000
0001
0000
0000
0010
0000
0100
0000
,
1000
0000
0000
0000
0010
0000
0100
0000
0001
0000
0010
0000
0100
0000
0000
1000
,
0000
1000
0000
0000
0001
0000
0010
0000
1000
0000
0000
0000
0010
0000
0000
0000
,
0001
0100
1000
0000
0110
0000
1000
0100
,
0001
0000
0100
0000
1000
0010
0001
0000
,
0110
0002
0023
0230
,
2300
3020
0230
0302
,
2003
0000
3001
0010
0100
0010
0001
0100
,
0010
0100
0001
1000
0010
0001
0010
1000
,
0100
0001
0100
0000
0000
0000
0000
0000
;

//---------------dance-single - ----------------
#NOTEDATA:;
#CHARTNAME:;
#STEPSTYPE:dance-single;
#DESCRIPTION:;
#CHARTSTYLE:;
#DIFFICULTY:Easy;
#METER:8;
#RADARVALUES:0.304775,0.418532,0.278569,0.129093,0.027177,314.000000,273.000000,41.000000,19.000000,0.000000,0.000000,0.000000,0.000000,0.000000,0.304775,0.418532,0.278569,0.129093,0.027177,314.000000,273.000000,41.000000,19.000000,0.000000,0.000000,0.000000,0.000000,0.000000;
#CREDIT:Karl with a K;
#NOTES:
0000
0000
0000
0000
,
0000
0000
0000
0000
,
0000
0000
0000
0000
,
0000
0000
0000
0000
,
0000
0000
0000
0000
,
0000
0000
0000
0000
,
1000
0000
0010
0000
,
0100
0000
0001
0000
,
1000
0000
0100
0000
,
0010
0000
0001
0000
,
0100
0000
0010
0000
,
1000
0000
0100
0000
,
0010
0001
0010
0000
,
0001
1000
0001
0000
,
1000
0010
1000
0000
,
0001
0001
0001
0001
,
0010
0010
0010
0010
,
0100
1000
0100
1000
,
0010
0100
0220
0330
,
1000
0100
0010
0100
,
1000
0000
0010
0000
0100
0000
0000
0001
,
0000
0100
0010
1000
,
0100
0010
0001
1000
,
0001
0100
0010
0100
,
0001
0000
0010
0000
0100
0000
0000
1000
,
0000
0100
0010
0001
,
0100
0010
1000
0001
,
1000
1000
0010
0100
,
0001
0000
0010
0000
0001
0000
0000
0001
,
0000
0100
0010
0100
,
0010
1000
0001
1001
,
0001
0001
0010
0100
,
1000
0000
0010
0000
1000
0000
0000
0001
,
0000
0010
0100
0010
,
0100
1000
0001
1001
,
0110
0000
0000
0000
0010
0000
0000
0100
0000
0000
0000
0000
0000
0000
0000
0000
,
0010
0000
0000
0000
0000
0000
0000
0000
0100
0000
0000
0000
0000
0010
0000
0000
0000
0000
0000
0000
0000
0000
0000
0000
0000
0000
0000
0000
1000
0000
0000
0000
,
0100
0000
0000
0000
0010
0000
0000
0100
0000
0000
0000
0000
0000
0000
0000
0000
,
0010
0000
0000
0000
0000
0000
0000
0000
0100
0000
0000
0000
0000
0010
0000
0000
0000
0000
0000
0000
0000
0000
0000
0000
0001
0000
0000
0000
0000
0000
0000
0000
,
1001
0000
0000
0110
0000
0000
1000
0000
,
0100
0000
1000
0000
1001
0000
0000
0110
,
0000
0001
0100
0010
,
0110
0000
0000
1001
0000
0000
1000
0000
,
0100
0000
0010
0000
0110
0000
0000
1001
,
0000
0110
1001
2000
,
0000
0000
0000
3002
,
0000
0203
0320
2030
,
0000
0000
3200
0320
,
0000
0032
0000
0000
0203
0000
0320
0000
,
0000
0032
0000
0000
0000
0000
0023
0000
,
0000
0000
0100
2030
,
0000
0000
3200
0000
,
0000
0320
0000
0031
,
0000
0001
0000
1000
,
0000
1000
1000
0000
,
1000
0000
0001
0000
,
0001
1000
0100
0010
,
0001
0100
0010
1000
,
1000
0001
0001
0220
,
0330
0000
1000
0000
1001
0000
0000
0110
,
0000
0000
0000
1001
0000
0000
0000
0110
0000
0000
0000
0000
,
1001
0000
0110
0000
1001
0000
0000
0110
,
0000
0000
0000
1001
0000
0000
0000
0110
0000
0000
0000
0000
,
1001
0000
0110
0000
1001
0000
0000
0110
,
0000
0000
0000
1001
0000
0000
0000
0110
0000
0000
0000
0000
,
1001
0000
0110
0000
1001
0000
0000
0110
,
0000
0000
0000
1001
0000
0000
0000
0110
0000
0000
0000
0000
,
1001
1000
0100
0010
,
0001
1000
0010
0100
,
0010
1000
1001
0001
,
0010
0001
0010
0100
,
0010
0001
1001
1000
,
0010
1000
0100
0010
,
0100
1000
1001
0001
,
0100
0001
0100
0010
,
0100
0001
0001
0100
,
0100
0010
0010
1000
,
1000
0100
0100
0010
,
0010
0001
0100
0010
,
1000
0100
0010
0001
,
0100
0010
1000
0100
,
0010
0001
0100
0010
,
0001
0010
0100
0001
,
0010
0100
0001
0100
,
0010
0001
0001
1000
,
1000
0100
0100
0010
,
0010
0001
0100
0010
,
1000
0000
0100
0000
0010
0000
0001
1000
,
0001
0000
0000
0000
;
