#VERSION:0.83;
#TITLE:Allneon;
#SUBTITLE:;
#ARTIST:ZST "TriCube";
#TITLETRANSLIT:;
#SUBTITLETRANSLIT:;
#ARTISTTRANSLIT:;
#GENRE:;
#ORIGIN:;
#CREDIT:;
#BANNER:Allneon.png;
#BACKGROUND:Allneon-bg.png;
#PREVIEWVID:;
#JACKET:Allneon-jacket.png;
#CDIMAGE:;
#DISCIMAGE:;
#LYRICSPATH:;
#CDTITLE:;
#MUSIC:Allneon.ogg;
#OFFSET:-0.033242;
#SAMPLESTART:78.435013;
#SAMPLELENGTH:15.000000;
#SELECTABLE:YES;
#BPMS:0.000=150.000;
#STOPS:;
#DELAYS:;
#WARPS:;
#TIMESIGNATURES:0.000=4=4;
#TICKCOUNTS:0.000=4;
#COMBOS:0.000=1;
#SPEEDS:0.000=1.000=0.000=0;
#SCROLLS:0.000=1.000;
#FAKES:;
#LABELS:0.000=Song Start;
#BGCHANGES:;
#KEYSOUNDS:;
#ATTACKS:
;

//---------------dance-single - ----------------
#NOTEDATA:;
#CHARTNAME:;
#STEPSTYPE:dance-single;
#DESCRIPTION:;
#CHARTSTYLE:;
#DIFFICULTY:Hard;
#METER:13;
#RADARVALUES:0.600787,0.615136,0.207877,0.407759,0.567664,526.000000,500.000000,26.000000,51.000000,0.000000,0.000000,0.000000,0.000000,0.000000,0.600787,0.615136,0.207877,0.407759,0.567664,526.000000,500.000000,26.000000,51.000000,0.000000,0.000000,0.000000,0.000000,0.000000;
#CREDIT:;
#NOTES:
// measure 0
0000
0000
0000
0000
,  // measure 1
0000
0000
0000
0000
,  // measure 2
0000
0000
0000
0000
,  // measure 3
0000
0000
0000
0000
,  // measure 4
0000
0000
0000
0000
,  // measure 5
1000
0100
0010
0100
1000
0001
1000
0100
,  // measure 6
0010
0001
0000
0002
0000
0000
0000
1003
0000
1000
0010
0000
0100
0000
0001
0000
,  // measure 7
0001
0000
0100
0000
0010
0000
0010
0002
0000
0000
0013
0000
1000
0000
0001
0000
,  // measure 8
1000
0000
0100
0000
0010
0000
0010
2000
0000
0000
3010
0000
0000
0110
0000
0000
,  // measure 9
2002
0000
0000
0000
,  // measure 10
0000
0000
0000
0000
0000
0000
0000
0000
3003
0000
0000
0000
0010
0010
0000
1001
,  // measure 11
0000
0001
0100
0000
0010
1000
0100
0100
,  // measure 12
1000
0000
0001
0000
0100
0000
0010
0000
1000
0000
0100
0000
0100
0001
0000
0200
,  // measure 13
0000
0000
0010
0000
1300
0000
0000
0000
0001
0000
0100
0000
0001
1000
0001
0000
,  // measure 14
0100
0000
0100
0000
0010
0000
0010
0000
1000
0000
0001
0000
0010
0001
0000
0200
,  // measure 15
0000
0000
0010
0000
0301
0000
0000
0000
0001
0000
0010
0100
0000
0100
1000
0000
,  // measure 16
0010
0000
1000
0000
0100
0000
1000
0000
0001
0000
0100
0000
0001
0010
0000
0220
,  // measure 17
0000
0000
0000
0000
0000
0000
0000
0000
0330
0000
1000
0000
0100
0010
0000
0002
,  // measure 18
0000
0003
0000
0001
0200
0300
0000
0100
0020
0030
0000
0010
2000
0000
0000
0000
,  // measure 19
3001
0000
0001
0100
0000
0001
0000
0020
0000
0000
0130
0000
0010
0002
0000
0000
,  // measure 20
1003
0000
0000
0010
0200
0000
0000
0000
0300
0000
0010
0000
1000
0000
0001
0000
,  // measure 21
0100
0000
0001
0010
0000
0000
0100
1000
0000
0000
0001
0100
0000
0000
0100
0000
,  // measure 22
0010
0000
1000
0000
0001
0000
0010
0200
0000
0000
0000
0000
1300
0000
1000
0020
,  // measure 23
0000
0000
0100
0000
0100
0000
0100
0000
0130
0000
0010
0000
1000
0000
0000
0002
,  // measure 24
0000
0000
0010
0000
0010
0000
0010
0000
0013
0000
0001
0000
1000
0100
0000
0020
,  // measure 25
0000
0000
0100
0000
0100
0000
0100
0000
0130
0000
0010
0000
0001
0000
0000
2000
,  // measure 26
0000
0000
0010
0000
0010
0000
0010
0000
3010
0000
1000
0000
0001
0000
0010
0200
,  // measure 27
0000
0000
0010
0000
0010
0000
1000
0000
1300
0000
0100
0000
1000
0000
0000
0002
,  // measure 28
0000
0000
0100
0000
0100
0000
1000
0000
1003
0000
0001
0000
0100
0001
1000
0020
,  // measure 29
0000
0000
0100
0000
0100
0000
1000
0000
1030
0000
0010
0000
1000
0000
1000
0002
,  // measure 30
0000
0000
0010
0000
0013
0000
0001
2000
0000
0000
0200
0000
0000
0000
0000
0000
,  // measure 31
3300
0000
0000
0000
,  // measure 32
0001
0000
0000
0100
0010
0000
0000
0100
0001
0000
0001
0000
1000
0100
1000
0100
,  // measure 33
0020
0000
0000
0100
0000
0000
0032
0000
0000
0000
1000
0000
0000
0100
0000
0000
,  // measure 34
2003
0000
0000
0010
0000
0000
3100
0000
0100
0000
1000
0000
0001
0000
0000
0001
,  // measure 35
0200
0000
0000
0010
0000
0000
0302
0000
0000
0000
0010
0000
0000
1000
0000
0000
,  // measure 36
0023
0000
0000
0001
0000
0000
0130
0000
0100
0000
1000
0000
0010
0000
0000
0010
,  // measure 37
1000
0000
0010
0000
0100
0000
0010
0000
0001
0000
0010
0000
1000
0000
0000
0001
,  // measure 38
0000
0001
0010
0000
0100
0000
0100
1000
0000
1000
0010
0000
0100
0000
0001
0000
,  // measure 39
1000
0000
0100
0000
0010
0000
0010
1000
0000
0000
0010
0000
0100
0000
1000
0001
,  // measure 40
0000
0000
0100
0000
0010
0000
0010
0001
0000
0000
0010
0000
0000
0110
0000
0000
,  // measure 41
1001
0101
1001
1100
,  // measure 42
0100
0000
1000
0000
0100
0000
0001
0000
0100
0010
0100
0000
0010
0000
0000
0010
,  // measure 43
0001
0000
0000
0000
0011
0000
0000
0000
1001
0000
0000
0000
1010
0000
0000
0010
,  // measure 44
0000
0000
1000
0000
0002
0000
0000
0000
0103
0010
0100
0000
0001
0000
1000
0020
,  // measure 45
0000
0000
0000
0000
2030
0000
0100
0000
3002
0000
0010
0000
1003
0000
0000
1000
,  // measure 46
0100
0000
0010
0000
0001
0000
0100
0010
0000
0000
1000
0000
0001
0000
0010
2000
,  // measure 47
0000
0000
3000
0000
0010
0001
0000
0000
0200
0000
0000
0000
0310
0000
1000
0002
,  // measure 48
0000
0000
0000
0000
0000
0000
0000
0000
0103
0000
0000
0100
0000
0100
0000
0100
,  // measure 49
0001
0000
0000
0001
1000
0000
0001
0000
0000
0000
0001
0000
0010
0001
0000
0000
,  // measure 50
1000
0000
0000
1000
0010
0000
1000
0000
0000
0000
1000
0000
0001
0000
1000
0010
,  // measure 51
1000
0000
0000
1000
0001
0000
1000
0000
0000
0000
1000
0000
0100
1000
0000
0000
,  // measure 52
0001
0000
0000
0001
0100
0000
0001
0000
0000
0000
0001
0000
0100
0000
0010
0000
,  // measure 53
1000
0000
0000
1000
0100
0000
0010
0000
0000
0000
0010
0000
0100
1000
0000
0000
,  // measure 54
0001
0000
0000
0001
0010
0000
0100
0000
0000
0000
0100
0000
0010
0001
0000
0001
,  // measure 55
1000
0000
0010
0100
0000
0010
0000
1000
0000
0000
0010
0000
1000
0000
1000
0000
,  // measure 56
0001
0000
0010
0100
0000
0010
0000
0002
0000
0003
0000
0001
0000
0001
0000
0001
,  // measure 57
1000
0000
0000
0010
0100
0000
0010
0000
0000
0000
0001
0000
0010
0100
0000
0100
,  // measure 58
0001
0000
0000
0011
0000
0000
0102
0000
0000
0000
1003
0000
0000
0000
0001
0010
,  // measure 59
0001
0000
0000
0010
0100
0000
0010
0000
0000
0000
1000
0000
0010
0100
0000
0100
,  // measure 60
1000
0000
0000
1010
0000
0000
2100
0000
0000
0000
3001
0000
0000
0000
1000
0010
,  // measure 61
1000
0000
0000
1000
0010
0000
0001
0000
0000
0000
0010
0000
1000
0010
0000
1000
,  // measure 62
0001
0000
0000
0001
0010
0000
1000
0000
0000
0000
0010
0000
0001
1000
0001
0000
,  // measure 63
1000
0000
1000
0000
0010
0100
0000
0001
0000
0000
0100
0000
1010
0000
1000
0000
,  // measure 64
0001
0000
0001
0000
0010
0100
0000
1000
0000
0100
0010
0001
0000
0000
0001
0000
,  // measure 65
1000
0000
0010
0000
0100
0010
0000
1000
0000
0001
0000
0010
0100
0000
0010
0002
,  // measure 66
0000
0000
0003
0000
0001
0100
0010
2000
0000
0000
3000
0000
0001
1000
0100
0020
,  // measure 67
0000
0000
0000
0000
0100
0000
0000
0000
0000
0000
0000
0000
0130
0000
0000
1100
,  // measure 68
0000
0000
1000
0000
0001
0000
0000
0101
0000
0000
0001
0000
1000
0000
0010
0000
,  // measure 69
1000
0000
0001
0000
0100
0000
0000
0000
0001
0000
1000
0000
0100
0000
0000
0011
,  // measure 70
0000
0000
0001
0000
1000
0000
0000
1010
0000
0000
1000
0000
0001
0000
0001
0100
,  // measure 71
0001
0010
0100
0010
0001
0100
0001
0010
,  // measure 72
0100
1000
0000
2000
0000
0000
0000
3001
0000
0001
0100
0000
0010
0000
1000
0000
,  // measure 73
1000
0000
0100
0000
0010
0000
0010
2000
0000
0000
3010
0000
0001
0000
1000
0000
,  // measure 74
0001
0000
0100
0000
0010
0000
0010
0002
0000
0000
0013
0000
0000
0110
0000
0000
,  // measure 75
2002
0000
0000
3003
,  // measure 76
0001
0000
0010
0000
0100
0000
1000
0000
0010
0000
0000
0101
0000
1100
0000
1001
;

//---------------dance-single - ----------------
#NOTEDATA:;
#CHARTNAME:;
#STEPSTYPE:dance-single;
#DESCRIPTION:;
#CHARTSTYLE:;
#DIFFICULTY:Challenge;
#METER:16;
#RADARVALUES:0.822370,0.861190,0.303820,0.359787,1.103347,720.000000,682.000000,38.000000,45.000000,0.000000,0.000000,0.000000,0.000000,0.000000,0.822370,0.861190,0.303820,0.359787,1.103347,720.000000,682.000000,38.000000,45.000000,0.000000,0.000000,0.000000,0.000000,0.000000;
#CREDIT:;
#NOTES:
0000
0000
0000
0000
,
0000
0000
0000
0000
,
0000
0000
0000
0000
,
0000
0000
0000
0000
,
0000
0000
0000
0000
,
1000
0100
1000
0100
0010
0000
0100
1000
0100
1000
0010
0000
1000
0001
1000
0000
,
0001
0010
0000
0010
0001
0000
0001
1000
0000
1000
0010
0000
0100
0000
0001
0000
,
0001
0100
0001
0000
0001
0010
0100
2000
0000
0000
3100
0000
1001
0000
0001
0000
,
1000
0100
1000
0000
1000
0010
0100
0002
0000
0000
0103
0000
0100
0010
0000
0000
,
2002
0000
0000
0000
0000
0000
0000
0000
3003
0000
0000
0001
1000
0010
0100
0002
,
0000
0000
0000
0000
1000
0000
0000
0000
0100
0000
0000
0000
0013
0010
0000
0110
,
0000
0000
0001
0000
0001
0000
1000
0000
0001
0000
0001
0000
0010
0100
1000
0010
,
0000
0000
0010
0000
0100
0000
0100
0000
0001
0000
0100
0000
0010
1000
0000
2100
,
0000
0000
3001
0000
1000
0000
1000
0000
0001
0000
1000
0000
1000
0100
0010
0000
,
0011
0000
0001
0000
0101
0000
0000
0000
1010
0000
1000
0000
1001
0000
0001
0020
,
0000
0000
0130
0000
0100
0000
1000
0000
0100
0000
0100
0010
0000
0100
1000
0001
,
0100
0000
0010
0000
0001
0000
0010
0000
1000
0000
0001
0000
1000
0100
0000
0012
,
0000
0000
0010
0000
1000
0000
0000
0000
1003
0000
0001
0000
0100
0010
0000
2000
,
0000
3000
0000
0010
0200
0000
0300
0001
0020
0000
0030
0100
2000
0000
0000
0000
,
3001
0000
0001
0100
0000
0001
0010
0100
0000
0100
1000
0000
0010
0002
0000
0000
,
0013
0000
0000
0010
0200
0000
0000
0000
0300
0000
0010
0000
1000
0000
0001
0000
,
0010
0001
0010
0100
0000
0100
1000
0010
0000
0010
0100
0001
0000
0001
1000
0100
,
0010
0100
1000
0001
0000
0100
0010
2000
0000
0000
3000
0000
1000
0001
0100
0010
,
0000
0010
0100
0000
0100
0000
0001
0000
0001
0000
0100
0000
0001
1000
0000
0100
,
0000
0100
0010
0000
0100
0000
1000
0000
1000
0000
0100
0000
1000
0001
0000
0101
,
0000
0100
0010
0000
1000
0000
0010
0000
0010
0000
1000
0000
1000
0001
0000
0011
,
0000
0010
0100
0000
0010
0000
0001
0000
0001
0000
0010
0000
0010
0100
1000
0001
,
0000
0001
0010
0000
0011
0000
0100
0000
1001
0000
0001
0000
0100
0010
0000
1010
,
0000
0010
1000
0000
1100
0000
0010
0000
1001
0000
0001
0000
0100
0001
1000
0020
,
0000
0000
0230
0000
0001
0000
0320
0000
1000
0000
0130
0000
0100
0001
1000
0002
,
0000
0000
0013
0000
0010
0001
0000
1000
0000
0200
0020
0000
0000
0000
0330
0000
,
0000
1000
0000
1000
0100
0000
0010
0000
0000
0001
0000
0001
0100
0000
0010
0000
,
1000
0000
0000
0100
0010
0000
0000
0100
1000
0000
1000
0000
0001
0100
0001
1000
,
0010
0000
0000
0000
0102
0000
0000
0000
2003
0000
0000
0000
3100
0000
0000
0010
,
0000
0000
0000
0010
0000
0000
0100
0000
0000
0000
0000
0000
1000
0000
0000
0000
0000
0000
0001
0000
0000
0000
0000
0000
0100
0000
0001
0000
0100
0000
0001
0000
0000
0000
0000
0000
1000
0000
0000
0000
0000
0000
0000
0000
0000
1000
0000
0000
,
0010
0000
0000
0000
2010
0000
0000
0000
3002
0000
0000
0000
0013
0000
0000
0100
,
0000
0000
0000
1000
0000
0000
0100
0000
0000
0000
0000
0000
0010
0000
0000
0000
0000
0000
0001
0000
0000
0000
0000
0000
1000
0000
0010
0000
1000
0000
0010
0000
0000
0000
0000
0000
0100
0000
0000
0000
0000
0000
0000
0000
0000
0100
0000
0000
,
0001
0000
0010
0000
0100
0000
0010
0000
1000
0000
0010
0000
0001
0000
1000
0010
,
0000
0000
0000
0010
0000
0000
0100
0000
0000
0000
0000
0000
0001
0000
0000
0000
0000
0000
1000
0000
0000
0010
0000
0000
0100
0000
0010
0000
0100
0000
0010
0000
0000
0000
0000
0000
1000
0000
0000
0000
0000
0000
1000
0000
0000
0001
0000
0000
,
0000
0001
0010
0000
0010
0100
1000
0002
0000
0000
1003
0000
0001
1000
0010
0200
,
0000
0000
0310
0000
1000
0100
0010
0002
0000
0000
0013
0000
0010
0100
0000
0000
,
1100
0000
0100
0000
0110
0000
0010
0000
0011
0000
0001
0000
1001
0000
1000
0010
,
0000
0000
0000
0010
0000
0000
0100
0000
0000
0000
0000
0000
0001
0000
0000
0000
0000
0000
0100
0000
0000
0000
0000
0000
0010
0000
1000
0000
0010
0000
1000
0000
0000
0000
0000
0000
0001
0000
0000
0000
0000
0000
0001
0000
0000
1000
0000
0000
,
0001
0000
0100
0000
0110
0000
0010
0000
1010
0000
1000
0000
1001
0000
0001
0010
,
0000
0000
0000
0010
0000
0000
1000
0000
0000
0000
0000
0000
0010
0000
0000
0000
0000
0000
0001
0000
0000
0000
0000
0000
1000
0000
0100
0000
1000
0000
0100
0000
0000
0000
0000
0000
0010
0000
0000
0100
0000
0000
1000
0000
0000
0002
0000
0000
,
0000
0000
0000
0000
0103
0000
0001
0000
0010
0000
1000
0000
0010
0000
0001
0010
,
0100
1000
0100
0010
0001
0100
0010
1000
0000
0000
0010
0100
0001
1000
0100
0020
,
0000
0000
0030
0000
0001
0100
0000
0000
0020
0000
0000
0030
1000
0001
0010
0200
,
0000
0000
0300
0000
0010
0100
0010
0100
1000
0001
1000
0001
0000
0001
0000
0001
,
1000
0000
1000
0100
0000
0010
0000
0011
0000
0000
0001
0000
0000
1000
0001
0100
,
0001
0000
0001
0100
0000
0010
0000
1010
0000
0000
0010
0100
0000
0010
1000
0001
,
1000
0000
0100
0020
0000
0000
0000
0000
0000
0000
0130
0000
0100
1000
0001
0020
,
0000
0000
0000
0000
0030
0001
1000
0001
0100
0000
0010
1000
0000
0010
0100
0001
,
0000
1000
1000
0100
0010
0001
0000
0010
0100
0010
0001
0010
0000
0001
0001
0010
,
0001
1000
0001
0100
0010
1000
0001
1000
0000
0010
0010
1000
0001
0000
0001
0010
,
0100
0000
1000
0000
0010
1000
0000
1010
0000
0010
0100
0001
0000
0001
1000
0001
,
0100
0000
0001
0010
0000
0001
0000
0012
0000
1000
0000
1003
0000
1000
0001
1000
,
0001
0000
0001
0010
0000
1100
0000
0012
0000
0000
0103
0000
0000
0001
0100
0010
,
1000
0000
1000
0010
0000
0101
0000
2010
0000
3000
0001
0100
0000
0100
0001
1000
,
0001
0000
0010
0200
0000
0000
0000
0000
0000
0000
0310
0000
0100
1000
0001
0020
,
0000
0000
0000
0000
0030
0100
0010
0100
1000
0000
0010
0100
0000
0100
0001
0100
,
0000
0001
0001
0010
0100
1000
0000
0100
1000
0010
0100
0010
0000
1000
1000
0010
,
0100
0001
0010
0100
1000
0001
0100
0010
0000
0100
0010
1000
0002
0000
1003
0100
,
0010
0000
0100
0000
1000
0001
0000
0012
0000
0000
0103
0000
0000
0100
0001
0100
,
0010
0000
0100
0000
0001
1000
0000
1010
0000
1000
0010
0100
0000
0100
0001
1000
,
0001
0000
0010
0000
0010
1000
0000
0010
0000
0001
0000
0001
0001
0100
0010
2000
,
0000
3000
0000
1000
1000
0001
1000
0020
0000
0030
0000
1000
1000
0100
0010
0002
,
0000
0000
0100
0000
1003
0000
0000
0000
1000
0100
0010
0000
0100
0000
1000
0000
,
1000
0001
0000
0001
0100
0000
0100
0010
0000
0010
1000
0000
0001
0000
0010
0000
,
0001
0100
0001
0100
0010
0000
0100
0001
0100
0001
0010
0000
0001
1000
0001
0000
,
0001
0010
0000
0010
0100
0000
0100
1000
0000
1000
0010
0000
0110
0000
0010
0000
,
1000
0010
1000
0010
0100
0000
0010
1000
0010
1000
0100
0000
1000
0001
1000
0000
,
0100
1000
0000
1000
0001
0000
0001
0010
0000
0010
0100
0000
0010
0000
0001
0000
,
0100
0000
0001
0000
1000
0000
0010
0001
0000
0001
0010
0000
1000
0000
0100
0000
,
0010
0000
0010
0000
0100
0000
0010
1000
0000
1000
0010
0000
0010
0200
0000
0000
,
0000
0010
0010
0010
0010
0010
0010
0310
,
0010
0000
0100
1000
0001
0010
0000
0000
0001
0000
0100
0010
0000
0101
0000
1001
;

//---------------dance-single - ----------------
#NOTEDATA:;
#CHARTNAME:;
#STEPSTYPE:dance-single;
#DESCRIPTION:;
#CHARTSTYLE:;
#DIFFICULTY:Medium;
#METER:11;
#RADARVALUES:0.426033,0.461352,0.255849,0.335801,0.303820,373.000000,341.000000,32.000000,42.000000,0.000000,0.000000,0.000000,0.000000,0.000000,0.426033,0.461352,0.255849,0.335801,0.303820,373.000000,341.000000,32.000000,42.000000,0.000000,0.000000,0.000000,0.000000,0.000000;
#CREDIT:;
#NOTES:
0000
0000
0000
0000
,
0000
0000
0000
0000
,
0000
0000
0000
0000
,
0000
0000
0000
0000
,
0000
0000
0000
0000
,
1000
0000
0000
0000
1100
0000
0000
0001
0000
0000
0000
0000
0101
0000
0000
1000
,
0000
0000
0000
0000
1001
0000
0000
0001
0000
0000
0100
0000
0010
0000
1000
0000
,
0100
0000
0000
0000
0100
0000
0000
1000
0000
0000
0000
0000
1000
0000
0000
0001
,
0000
0000
0000
0000
0001
0000
0000
0010
0000
0000
0100
0000
0000
0010
0000
0000
,
0220
0000
0000
0000
,
0000
0000
0000
0000
0000
0000
0000
0000
0330
0000
0000
0000
1000
0001
0000
0100
,
0000
0010
1000
0000
1000
0001
0100
0000
,
0001
0000
0000
0000
0011
0000
0000
0000
1001
0000
0000
0000
0101
0000
0000
0100
,
0000
0001
0010
0000
0001
1000
0100
0000
,
1000
0000
0000
0000
1100
0000
0000
0000
1001
0000
0000
0000
1010
0000
0000
0010
,
0000
0100
0001
0000
0010
0100
1000
0000
,
0002
0000
0000
0000
0203
0000
0000
0000
0320
0000
0000
0000
2030
0000
0000
3002
,
0000
0000
0000
0000
1003
0000
0000
0000
0001
0000
0010
0000
0100
0000
0000
0020
,
0000
0032
0203
2300
,
3100
0010
0100
0000
0001
1000
0001
0000
,
0020
0000
0230
0000
0300
0100
1000
0000
,
0001
1100
1000
0101
,
0001
0000
0100
0000
0010
0000
1000
0020
0000
0000
0000
0000
0030
0000
0000
1000
,
0000
0000
1000
0000
0010
0000
1000
0000
0010
0000
0000
0000
1000
0000
0000
0001
,
0000
0000
0001
0000
0010
0000
0001
0000
0010
0000
0000
0000
0001
0000
0000
0100
,
0000
0000
0100
0000
0001
0000
0100
0000
0001
0000
0000
0000
0001
0000
0000
1000
,
0000
0000
1000
0000
0100
0000
1000
0000
0100
0000
0000
0000
0100
0000
0000
0010
,
0000
0000
0010
0000
0001
0000
1000
0000
0001
0000
0000
0000
1000
0000
0000
0010
,
0000
0000
0010
0000
1000
0000
0001
0000
1000
0000
0000
0000
0100
0000
0000
0110
,
0000
0000
0100
0000
1000
0000
0001
0000
0100
0000
0000
0000
0100
0000
0000
0110
,
0000
0000
0100
0000
0001
0000
0001
0020
0000
0000
0200
0000
0000
0000
0000
0000
,
0330
0000
0000
0000
,
1000
0000
1000
0000
1000
0001
1000
0000
,
0001
0000
0000
0100
0000
0000
0001
0000
0000
0000
0001
0000
0000
0100
0000
0000
,
0010
0000
0000
1000
0000
0000
0010
0000
0000
0000
1000
0000
0000
0010
0000
0000
,
1000
0000
0000
0100
0000
0000
1000
0000
0000
0000
1000
0000
0000
0100
0000
0000
,
0010
0000
0000
0001
0000
0000
0010
0000
0000
0000
0001
0000
0000
0010
0000
0000
,
0001
0000
0000
0100
0000
0000
1000
0000
0000
0000
1000
0000
0000
0100
0000
0000
,
0001
0000
0000
0010
0000
0000
1000
0000
0000
0000
0010
0000
0000
0001
0000
0000
,
1000
0000
0000
1000
0000
0000
0001
0000
0000
0000
0001
0000
0000
0001
0000
0000
,
0100
0000
0000
0100
0000
0000
0000
0010
0000
0000
0010
0000
0000
1000
0000
0000
,
0002
0203
0320
0230
,
0301
0000
0001
1000
0001
0010
0100
0000
,
2000
3200
0320
0230
,
1300
0000
1000
0100
0010
0001
1000
0000
,
0002
0203
2300
3020
,
0031
0000
0000
0000
0001
0000
0010
0100
0000
0000
0000
0000
0100
0000
1000
0010
,
0000
0000
0000
0000
0010
0000
0000
0000
0100
0000
0000
0000
0100
0000
0000
0020
,
0000
0000
2030
3001
,
1000
0000
0100
0000
1000
0000
0000
0001
0000
0000
0020
0000
0030
0000
0000
0000
,
0001
0000
0100
0000
0001
0000
0000
1000
0000
0000
0020
0000
0030
0000
0000
0000
,
1000
0000
0001
0020
0000
0000
0000
0000
0030
0000
0000
0000
0001
0000
1000
0020
,
0000
0000
0030
0000
0100
0001
1000
0010
,
0000
1000
1000
0000
0001
0001
0000
0000
,
1000
0100
0010
0001
0000
0001
1000
0010
,
0100
0000
0000
0000
0100
0000
0000
0101
0000
0000
0001
0000
1000
0000
0000
0000
,
0100
0000
0000
0000
0100
0000
0000
1100
0000
0000
1000
0000
0001
0000
0000
0000
,
1000
0000
0100
0000
0001
0000
0000
0100
0000
0000
0020
0000
0030
0000
0000
0000
,
0001
0000
0100
0000
1000
0000
0000
0100
0000
0000
0020
0000
0030
0000
0000
0000
,
1000
0000
0100
0020
0000
0000
0000
0000
0030
0000
0000
0000
0001
0000
0100
0020
,
0000
0000
0030
0000
1000
0001
0010
0100
,
0000
1000
1000
0000
0001
0001
0000
0000
,
1000
0010
0100
0001
0000
0001
1000
0100
,
0010
0000
0000
0000
0010
0000
0000
0011
0000
0000
0001
0000
1000
0000
0000
0000
,
0010
0000
0000
0000
0010
0000
0000
1010
0000
0000
1000
0000
0001
0000
0000
0000
,
0010
0000
0000
0000
0100
0000
0000
0110
0000
0000
0000
0000
0010
0000
0000
0011
,
0000
0000
0000
0000
1000
0000
0000
1010
0000
0000
0000
0000
0010
0000
0000
2002
,
0000
0000
0000
0000
3003
0000
0000
0000
0010
0000
0000
0000
0101
0000
0000
1000
,
0000
0000
0000
0000
1100
0000
0000
0001
0000
0000
0000
0000
0100
0000
0001
0000
,
1000
0000
0000
0000
1100
0000
0000
0010
0000
0000
0000
0000
0101
0000
0000
0010
,
0000
0000
0000
0000
1001
0000
0000
0100
0000
0000
0001
0000
0000
1000
0000
0000
,
0001
0000
0000
0000
0011
0000
0000
0100
0000
0000
0000
0000
1010
0000
0000
0100
,
0000
0000
0000
0000
0110
0000
0000
0001
0000
0000
0010
0000
0000
0100
0000
0000
,
0010
0000
0000
0000
0010
0000
0000
0001
0000
0000
0000
0000
0001
0000
0000
1000
,
0000
0000
0000
0000
1000
0000
0000
0010
0000
0000
0010
0000
0000
0100
0000
0000
,
0220
0000
0000
0330
,
1001
0000
0000
0000
0000
0000
0000
0000
0001
0000
0000
1000
0000
0100
0000
0010
;

//---------------dance-single - ----------------
#NOTEDATA:;
#CHARTNAME:;
#STEPSTYPE:dance-single;
#DESCRIPTION:;
#CHARTSTYLE:;
#DIFFICULTY:Easy;
#METER:7;
#RADARVALUES:0.246711,0.276811,0.071957,0.175896,0.011993,216.000000,207.000000,9.000000,22.000000,0.000000,0.000000,0.000000,0.000000,0.000000,0.246711,0.276811,0.071957,0.175896,0.011993,216.000000,207.000000,9.000000,22.000000,0.000000,0.000000,0.000000,0.000000,0.000000;
#CREDIT:;
#NOTES:
0000
0000
0000
0000
,
0000
0000
0000
0000
,
0000
0000
0000
0000
,
0000
0000
0000
0000
,
0000
0000
0000
0000
,
1000
0100
0000
1000
,
0001
0100
0000
0001
,
0010
0000
0010
0000
,
0100
0000
0100
0000
,
2002
0000
0000
0000
,
3003
0000
0000
0000
,
0010
0100
0001
0100
,
0010
0000
1000
0001
,
0010
0100
1000
0100
,
0010
0000
0001
1000
,
0010
1000
0001
0100
,
0010
0000
1000
0001
,
0020
0030
0001
1000
,
0020
2030
3002
2003
,
3100
0100
1000
0001
,
0020
0031
0000
1000
,
0010
0100
0010
1000
,
0001
0010
0100
0000
,
0001
0001
0001
0010
,
0001
0001
0001
1000
,
0010
0010
0010
0100
,
0010
0010
0010
1000
,
0100
0100
0100
0010
,
0100
0100
0100
1000
,
0001
1000
0001
1000
,
0010
0100
0020
0000
,
0030
0000
0000
0000
,
0000
0000
0000
0000
,
0000
1000
0000
1000
,
0000
0001
0000
0001
,
0000
0100
0000
0100
,
0000
0010
0000
0010
,
0000
1000
0100
0010
,
0001
0000
0001
0100
,
0010
0000
0101
0000
,
1001
0000
1010
0000
,
0000
0001
0000
0001
,
0000
1000
0000
1000
,
0000
0100
0000
0100
,
0000
0010
0000
0010
,
0000
0100
1000
0001
,
0100
0000
0010
1000
,
0001
0000
0011
0000
,
1001
0000
0110
0000
,
1000
0100
1000
0100
,
0010
0001
0010
0001
,
0010
0200
0300
0010
,
0002
0003
1000
1000
,
0010
0100
0001
0100
,
0010
1000
0010
0100
,
0002
0003
0020
0030
,
0200
0300
2000
3000
,
0001
0100
0001
0100
,
0010
1000
0010
1000
,
0010
0200
0300
0010
,
2000
3000
0001
0001
,
0010
0100
1000
0100
,
0010
0001
0010
0100
,
2000
3000
0100
1000
,
0002
0003
0010
0001
,
0200
0300
0020
0030
,
0100
0001
1000
0200
,
0000
0300
0000
1000
,
0001
0100
0000
0001
,
1000
0100
0000
0100
,
0010
0001
1000
0010
,
1000
0100
0000
1000
,
0001
0100
0000
0001
,
0010
0000
0010
0000
,
0100
0000
0100
0000
,
1001
0000
0000
0000
,
1001
0000
0000
0000
0000
0000
0000
0000
1000
0000
0000
0001
0000
1000
0000
0001
;

//---------------dance-single - ----------------
#NOTEDATA:;
#CHARTNAME:;
#STEPSTYPE:dance-single;
#DESCRIPTION:;
#CHARTSTYLE:;
#DIFFICULTY:Beginner;
#METER:3;
#RADARVALUES:0.135920,0.215298,0.095943,0.000000,0.039976,119.000000,107.000000,12.000000,0.000000,0.000000,0.000000,0.000000,0.000000,0.000000,0.135920,0.215298,0.095943,0.000000,0.039976,119.000000,107.000000,12.000000,0.000000,0.000000,0.000000,0.000000,0.000000,0.000000;
#CREDIT:;
#NOTES:
0000
0000
0000
0000
,
0000
0000
0000
0000
,
0000
0000
0000
0000
,
0000
0000
0000
0000
,
0000
0000
0000
0000
,
1000
0000
0000
0000
,
0001
0000
0000
0000
,
0100
0000
0000
0000
,
0010
0000
0000
0000
,
1001
0000
0000
0000
,
0000
0000
0000
0000
0000
0000
0000
0000
0000
0000
0000
0000
0000
0000
0000
0001
,
0000
0000
0001
0000
,
0100
0000
0000
0000
0000
0000
0000
0000
0100
0000
0000
0000
0000
0000
0000
0010
,
0000
0000
0010
0000
,
1000
0000
0000
0000
0000
0000
0000
0000
1000
0000
0000
0000
0000
0000
0000
0100
,
0000
0000
0100
0000
,
0010
0000
0000
0000
0000
0000
0000
0000
0010
0000
0000
0000
0000
0000
0000
0001
,
0000
0000
0000
0001
,
0100
0000
0000
0100
,
0010
0000
0000
0010
,
1000
0000
0000
1000
,
0100
0000
0000
0000
,
0100
0000
0010
0000
,
1001
0000
0000
0000
,
0000
0000
0000
0000
0000
0000
0000
0000
0000
0000
0000
0000
0000
0000
0000
0110
,
0000
0000
0000
0000
,
0000
0000
0000
0000
0000
0000
0000
0000
0000
0000
0000
0000
0000
0000
0000
1001
,
0000
0000
0000
0000
,
0000
0000
0000
0000
0000
0000
0000
0000
0000
0000
0000
0000
0000
0000
0000
0110
,
0000
0000
0000
0000
,
0000
0000
1001
0000
,
0000
0000
0000
0000
,
0000
0000
0000
0000
,
1000
0000
1000
0000
,
1000
0000
0000
0000
,
0001
0000
0001
0000
,
0001
0000
0000
0000
,
1000
0000
0100
0000
,
0010
0000
0000
0000
,
0001
0000
0010
0000
,
0100
0000
0000
0000
,
1000
0000
1000
0000
,
1000
0000
0000
0000
,
0001
0000
0001
0000
,
0001
0000
0000
0000
,
0001
0000
0100
0000
,
0010
0000
0000
0000
,
1000
0000
0010
0000
,
0100
0000
0001
0000
,
1000
0000
0100
0000
,
1000
0000
0001
0000
,
1000
1000
0000
0000
,
0010
0000
1000
0000
,
0000
0001
0000
0001
,
0001
0000
0100
0000
,
0010
0000
0000
0000
,
0100
0000
0000
0000
,
0001
0000
0100
0000
,
0001
0000
1000
0000
,
0001
0001
0000
0000
,
0010
0000
0001
0000
,
0000
1000
0000
1000
,
1000
0000
0100
0000
,
0110
0000
0000
0000
,
1001
0000
0000
0000
,
0110
0000
0000
0000
,
1000
0000
0001
0000
,
0110
0000
0000
0000
,
0001
0000
0001
0000
,
0100
0000
0000
0000
,
1000
0000
1000
0000
,
0100
0000
0000
0000
,
0001
0000
1000
0000
,
0010
0000
0010
0000
,
0100
0000
0100
0000
,
1001
0000
0000
0000
,
1001
0000
0000
0000
0000
0000
0000
0000
0000
0000
0000
1000
0000
0001
0000
1000
;
