#TITLE:AitaCrash!;
#SUBTITLE:;
#ARTIST:M-Neko;
#TITLETRANSLIT:;
#SUBTITLETRANSLIT:;
#ARTISTTRANSLIT:;
#GENRE:UK HARDCORE;
#CREDIT:(JAKAZiD);
#MUSIC:aitacrash.ogg;
#BANNER:bn.png;
#BACKGROUND:;
#CDTITLE:cd-title.png;
#SAMPLESTART:77.240;
#SAMPLELENGTH:15.862;
#SELECTABLE:YES;
#OFFSET:-0.002;
#BPMS:0.000=174.000
,93.000=348.000
,96.000=174.000
,156.000=348.000
,157.000=174.000
,157.500=87.000
,158.000=348.000
,160.000=174.000
,221.500=348.000
,224.000=174.000
,279.500=348.000
,283.500=174.000
,317.000=348.000
,320.000=174.000
;
#STOPS:92.000=0.172
,92.500=0.172
,93.000=0.086
,93.500=0.086
,158.000=0.172
,159.000=0.172
,221.500=0.172
,222.500=0.172
,223.500=0.086
,279.500=0.172
,280.500=0.172
,281.500=0.172
,282.500=0.172
,316.000=0.172
,316.500=0.172
,317.000=0.086
,317.500=0.086
;
#DISPLAYBPM:174.000;
#BGCHANGES:;
#FGCHANGES:;

//--------------- dance-single - Beginner 3 ----------------
#NOTES:
     dance-single:
     Beginner 3:
     Beginner:
     3:
     0.170002,0.277408,0.118214,0.181261,0,151,136,15,23,0,0,0.170002,0.277408,0.118214,0.181261,0,151,136,15,23,0,0:
0000
0000
0000
0000
,
0000
0000
0000
0000
,
0000
0000
0000
0000
,
0000
0000
0000
0000
,
1000
0000
0000
0000
,
0100
0000
0000
0000
,
0110
0000
0110
0000
,
1001
0000
0000
0000
,
1000
0000
0001
0000
,
0100
0000
1000
0000
,
0100
0000
0010
0000
,
1010
0000
0000
0000
,
1000
0000
0100
0000
,
0001
0000
0100
0000
,
0010
0000
0001
0000
,
0101
0000
0000
0000
,
0000
0001
0000
1000
,
0000
0010
0000
1000
,
0000
0100
0000
0010
,
0010
0000
0000
0000
,
0001
0000
1000
0000
,
0010
0000
0001
0000
,
0010
0000
0100
0000
,
0001
0000
0000
0000
,
1000
0000
0100
0000
,
0001
0000
0100
0000
,
0010
0000
0001
0000
,
1000
0000
0000
0000
,
0010
0000
0100
0000
,
1000
0000
0100
0000
,
0010
0000
1000
0000
,
0001
0000
0000
0000
,
1000
0000
0010
0000
,
0001
0000
1000
0000
,
0100
0000
0010
0000
,
0110
0000
0000
0000
,
0001
0000
0010
0000
,
1000
0000
0001
0000
,
0200
0000
2300
0000
,
3001
0000
0000
0000
,
2000
0000
0000
0000
,
3020
0000
0000
0000
,
0230
0000
0000
0000
,
0302
0000
0000
0000
,
2003
0000
0000
0000
,
3200
0000
0000
0000
,
0302
0000
0000
0000
,
0203
0000
0000
0000
,
0310
0020
0000
0000
,
0031
0002
0000
0000
,
0103
0200
0000
0000
,
0310
0020
0000
0000
,
1030
2000
0000
0000
,
3100
0000
0001
0000
,
0101
0000
0110
0000
,
1100
0000
0000
0000
,
0001
0000
1000
0000
,
0010
0000
0100
0000
,
1000
0000
0100
0000
,
0101
0000
0000
0000
,
0001
0000
0100
0000
,
0010
0000
0001
0000
,
1000
0000
0010
0000
,
0110
0000
0000
0000
,
0100
0000
1000
0000
,
0100
0000
0001
0000
,
1000
0000
0100
0000
,
0001
0000
0100
0000
,
0010
0000
0001
0000
,
0010
0000
0200
0000
,
0000
0000
0000
0000
,
1300
0001
1000
0000
,
0001
0000
0100
0000
,
0010
0000
0001
0000
,
0010
0000
0100
0000
,
0001
0000
1000
0000
,
0100
0000
0001
0000
,
0100
0000
1000
0000
,
1010
0000
0101
0000
,
0000
0000
0000
0000
,
0002
0000
0003
0000
,
0020
0000
0030
0000
,
0200
0000
0300
0000
,
2000
0000
3000
0000
,
0002
0000
0003
0000
,
0200
0000
0300
0000
,
0020
0000
0030
0000
,
1001
0000
0000
0000
,
1100
0000
0000
0000
;

//--------------- dance-single - Light 6 ----------------
#NOTES:
     dance-single:
     Light 6:
     Easy:
     6:
     0.345634,0.416112,0.118214,0.204903,0,307,292,15,26,0,0,0.345634,0.416112,0.118214,0.204903,0,307,292,15,26,0,0:
0000
0000
0000
0000
,
0000
0000
0000
0000
,
0000
0000
0000
0000
,
0000
0000
0000
0000
,
1000
0000
0001
0000
0000
0001
1000
0000
,
0010
0000
0100
0000
0000
0100
0010
0000
,
1000
0100
0010
0001
,
2000
0000
3001
1000
,
0010
0100
1000
0100
,
0010
1000
0001
0000
,
1000
0100
0001
0100
,
0010
0010
0001
0001
,
1000
0010
0100
1000
,
0100
0010
1000
0000
,
0001
0010
1000
0010
,
0100
0100
1000
1000
,
0000
0001
1000
0010
,
0100
0001
1000
0100
,
0010
0001
1000
0010
,
1000
1000
0001
0001
,
0010
0100
0010
0000
,
0001
1000
0001
0000
,
1000
0010
0100
0010
,
0001
0000
0000
0000
,
0010
0000
1000
0000
0001
0100
0000
0000
,
0001
1000
0100
0001
,
0100
0010
0001
1000
,
0010
0000
0100
0010
0000
0000
0000
0000
,
1000
0100
0010
0001
,
1000
0010
0100
0001
,
1001
0000
1100
0000
,
0022
0000
0000
0033
,
0001
0000
1000
0000
0010
1000
0000
0000
,
0100
0010
0001
0010
,
0100
1000
0001
0100
,
0010
0000
1000
0001
0000
0000
0000
0000
,
1000
0100
0010
0001
,
1000
0010
0100
0001
,
0010
0010
0100
0100
,
1001
0000
0000
0000
,
2000
3020
0230
0302
,
1003
0000
0002
0023
,
0230
0320
0032
2003
,
3010
0000
0000
0000
,
2000
3020
0230
2300
,
3100
0000
0002
0023
,
0230
0000
0302
0000
0203
0000
0310
0001
,
0000
0000
0000
0000
,
1001
0001
0000
0100
,
0000
0010
0000
1000
,
1001
0001
0000
0010
,
0000
0100
0000
1000
,
1001
0001
1000
0001
,
1001
1000
0001
1000
,
1010
0000
1001
0000
,
0202
0000
0000
0303
,
0001
1000
0010
0001
,
0010
1000
0100
0001
,
0100
0010
0001
1000
,
0001
0001
1000
1000
,
0010
0100
1000
0100
,
0010
1000
0001
1000
,
0100
0001
0100
1000
,
0010
0010
0100
0100
,
0001
0010
1000
0001
,
0100
1000
0001
1000
,
0001
0100
1000
0001
,
0010
0010
0100
0100
,
0001
0000
1000
0010
0000
0100
0000
0000
,
0001
0000
1000
0100
0000
0010
0000
0001
,
0000
1000
0000
0001
0000
1000
0000
0001
,
0110
0000
0000
0000
1000
0001
1000
0000
,
0001
0010
0100
0001
,
0100
0010
0001
1001
,
1000
0010
0100
1000
,
0100
0010
1000
0001
,
1000
0100
0001
1000
,
0010
0001
1000
1001
,
0001
0100
1000
0001
,
0000
0000
0000
0000
,
0010
1000
0000
0000
0001
0000
1000
0000
,
0000
0010
0100
0000
0001
0000
1000
0000
,
0000
0100
0010
0000
0001
0000
1000
0000
,
0000
0001
0100
0000
0010
0000
1000
0000
,
0100
0001
0100
1000
,
0001
0100
1000
0100
,
0001
0001
1000
1000
,
0220
0000
0000
0000
,
0330
0000
0000
0000
;

//--------------- dance-single - Standard 9 ----------------
#NOTES:
     dance-single:
     Standard 9:
     Medium:
     9:
     0.439079,0.518662,0.204903,0.338879,0,390,364,26,43,0,0,0.439079,0.518662,0.204903,0.338879,0,390,364,26,43,0,0:
0000
0000
0000
0000
,
0000
0000
0000
0000
,
0000
0000
0000
0000
,
0000
0000
0000
0000
,
1001
0000
0001
0100
0000
0001
1000
0000
,
1001
0000
1000
0100
0000
0010
0002
0000
,
1003
0010
0000
0100
0001
0000
1000
0100
,
0001
0000
0100
1100
,
1000
0010
0100
0000
0001
1000
0000
1000
,
0001
0010
0100
0000
0010
0001
0000
0001
,
1000
0010
0100
0100
0001
1000
0000
0001
,
1000
0100
0001
0010
,
1000
0001
0100
0000
0001
1000
0000
1000
,
0100
0010
0001
0000
1000
0010
0000
0010
,
0100
0001
0010
0010
0100
1000
0000
0001
,
1000
0010
0001
0100
,
0000
0000
1000
0001
0100
0010
0000
1000
,
0000
0000
0001
0010
0100
1000
0000
0001
,
0000
0000
1000
0010
0100
0001
0000
1000
,
0010
0100
1000
0001
,
0100
0010
0100
0010
0001
1000
0000
0001
,
1000
0010
1000
0010
0100
0001
0000
0100
,
0000
1000
0000
0010
0000
0001
0000
2000
,
0000
0000
3000
0000
,
0000
0000
0101
0000
0001
0100
0000
0010
,
2000
0000
3020
0000
0032
0000
0023
2000
,
0000
0030
3000
0000
,
1001
0000
0001
1000
0000
0000
0000
0000
,
2000
3200
0320
0032
,
0203
2300
3200
0301
,
0011
0000
1010
0000
,
1200
0000
0000
0301
,
1000
0000
0001
0100
0010
0100
0001
0000
,
2000
0000
3002
0000
0103
1000
0001
0020
,
0000
0030
0000
0000
,
1000
0000
0100
0001
0000
0000
0000
0000
,
0101
0100
0010
0011
,
0001
1000
1010
0010
,
0000
1000
0001
1000
0000
0010
0001
0010
,
0010
0000
0000
0000
,
2000
3002
0203
0302
,
1003
0000
0200
0302
,
0203
2300
3020
0032
,
1003
0000
0000
0000
,
0200
0302
0023
2030
,
3100
0000
2000
3020
,
0032
0000
0203
0000
0310
0000
0010
2000
,
0000
0000
3000
0000
,
1001
0001
0010
1000
,
0100
1000
0010
0001
,
1001
1000
0010
0001
,
0100
0001
0010
1000
,
1001
0100
0010
0100
,
1001
0000
1000
0001
,
0110
1000
0110
0001
,
2000
0000
0000
0001
0000
0001
0000
3001
,
1000
0010
0100
0001
0000
1000
0000
0001
,
0000
0100
1000
0100
0000
0001
0000
1000
,
0000
0100
0001
0100
0000
0010
0000
0001
,
1000
0010
0001
0100
,
1000
0001
0100
0010
0000
1000
0000
0001
,
0000
0010
1000
0010
0000
0100
0000
1000
,
0000
0010
0001
0010
0000
0100
0000
0001
,
1000
0000
0100
0000
0001
0010
0001
0000
,
1000
0010
0001
1000
0000
0001
0000
1000
,
0001
0100
1000
0001
0000
0010
0000
0001
,
1000
0100
0001
1000
0000
0001
0000
1000
,
0110
0001
0110
1000
,
0001
0001
1000
0100
0000
1000
0100
0000
,
1000
1000
0001
0100
0001
0100
0000
1000
,
0000
0010
0000
0001
0000
0100
0000
0010
,
1001
0000
0000
0000
1000
0010
0100
0000
,
0001
0010
1000
0100
,
1000
0000
0010
0000
0001
1000
0001
0001
,
1000
0010
0001
0100
,
0101
1010
1100
0011
,
1010
0000
1000
0001
0000
1000
0000
0000
,
1001
0000
0001
0100
0000
0002
0000
2003
,
0000
3002
0000
2003
0000
3002
0000
0003
,
0000
0000
0000
0000
,
0000
1000
0001
0000
0100
0010
0100
0000
,
0000
0001
1000
0000
0100
0010
0100
0000
,
0000
1000
0001
0000
0100
0010
0100
0001
,
0000
1000
0001
0000
0010
0100
0010
1000
,
0000
0010
0100
1000
,
0001
1000
0010
0001
,
1000
0001
0010
0100
,
0001
1000
0010
0100
0000
1000
0001
0000
;

//--------------- dance-single - Heavy 13 ----------------
#NOTES:
     dance-single:
     Heavy 13:
     Hard:
     13:
     0.602326,0.728196,0.299474,0.354641,0.047285,535,497,38,45,12,1,0.602326,0.728196,0.299474,0.354641,0.047285,535,497,38,45,12,1:
0000
0000
0000
0000
,
0000
0000
0000
0000
,
0000
0000
0000
0000
,
0000
0000
0000
0000
,
1000
0001
0100
0001
0000
0001
1000
0000
,
1000
0100
0010
0001
0000
0001
0100
0000
,
0100
0010
1000
0010
0100
0001
1000
0100
,
0110
0000
0010
0010
,
0001
1000
0100
1000
0010
0100
0001
0010
,
0100
1000
0001
0100
0010
1000
0010
0000
,
1000
0100
0010
0001
1000
0010
0100
0001
,
0011
0110
1100
0011
,
0001
0100
0010
1000
0100
0010
0001
0100
,
0010
1000
0001
0100
0010
1000
0100
0000
,
1000
0100
0010
0001
1000
0010
0100
0001
,
0011
0000
0110
0000
0100
1000
0001
1000
,
0000
0000
1001
0001
0100
1000
0100
0010
,
1000
0100
0010
0001
0100
0010
1000
0000
,
0001
0010
0100
0010
0001
1000
0100
1000
,
1001
1100
1001
0101
,
0001
0010
0010
0100
1000
0100
0010
0001
,
1000
0010
0010
0100
0001
0100
0010
1000
,
0001
0100
0001
0000
1000
0100
1000
0000
0001
0100
0001
0000
1000
0100
1000
0000
,
000M
000M
00M0
00M0
00MM
0000
0000
0000
,
0001
0000
0100
0010
0000
0010
1000
0000
,
0002
0000
0023
0000
2030
0000
3001
0200
,
0000
0000
0300
0000
,
1000
0001
1000
0010
0000
0100
0001
0000
,
2000
3020
0032
2003
,
3200
0302
0023
2030
,
3001
0000
0110
0000
,
2002
0000
0000
3003
,
0001
0010
0100
1000
0001
0100
0010
0000
,
0100
0001
1000
0001
0010
0100
1000
0002
,
0000
0000
0003
0100
,
0001
0010
0100
1000
0000
0000
0000
0000
,
1000
0010
0001
0010
0100
0001
1000
0100
,
0001
0100
0010
0001
1000
0010
0100
1000
,
0000
0100
0000
0001
0000
0010
0000
0100
,
1001
0000
0000
0000
0000
0000
0000
0000
0002
0003
0000
0000
2000
3000
0000
0000
,
0010
0000
1000
0000
0000
0000
0001
0000
1000
0000
0000
0100
0000
0000
0100
0000
,
0010
0000
0001
0000
0000
0000
1000
0000
0001
0000
0000
0100
0000
0000
0100
0000
,
0010
1000
0001
1000
0100
0010
0001
0010
,
0100
0000
1000
0000
1000
0000
0001
0000
0010
0000
0000
0100
0000
0000
0100
0000
,
1000
0000
0001
0000
0000
0000
0100
0000
0001
0000
0000
0010
0000
0000
0010
0000
,
0100
0000
1000
0000
0000
0000
0001
0000
0100
0000
0000
0010
0000
0000
0010
0000
,
1000
0100
0010
0100
1000
0001
0100
0010
,
0100
0000
0001
0000
0001
0000
1000
0000
0100
0000
0000
0010
0000
0000
0010
0000
,
2001
3020
0230
0302
,
0023
0130
2000
3020
,
1032
0203
0320
2030
,
3200
0310
0001
1000
,
0001
1000
0010
1000
0001
0000
0100
0000
,
0010
1000
0100
1000
0010
0000
0100
0000
,
0102
0013
2100
3010
,
0100
0000
0001
0000
1000
0000
0020
0030
0000
0000
0020
0030
0000
0000
0020
0030
,
0100
0001
1000
0010
0010
0100
0001
1000
,
0100
0010
0001
1000
1000
0001
1000
0000
,
0010
1000
0001
1000
0100
0010
0001
0100
,
0101
0110
1010
0110
,
0100
0001
1000
0100
0100
0010
0001
1000
,
0100
1000
0001
0100
0100
0010
1000
0001
,
0100
0010
1000
0100
0001
0100
0010
0001
,
1001
0000
1010
0000
0101
0100
0001
1000
,
0001
0100
0010
1000
0100
1000
0010
0100
,
0001
0010
0100
1000
0010
1000
0100
0010
,
0001
0100
1000
0100
0001
0010
1000
0010
,
0001
1001
1000
1010
,
0010
0100
0001
0100
0010
0001
0010
0100
,
0001
0000
0010
0000
0100
0000
1000
0000
0100
0000
0001
0000
0100
0000
2000
3000
,
0000
0000
0002
0003
0000
0000
2000
3000
0000
0000
0002
0003
0000
0000
1000
0000
,
1001
0000
0101
0000
0110
0010
1000
0000
,
0001
0010
0100
0100
1000
0001
1000
0001
,
0100
0010
1000
1000
0001
0010
0001
0010
,
0100
1000
0001
1000
0010
0100
0001
0100
,
0010
1010
1000
1001
,
0001
0010
0100
0010
0001
1000
0000
0001
,
1000
0010
0100
0001
0100
0010
1000
0000
,
0001
0100
0010
0100
0001
1000
0001
0010
,
0M00
0M00
M000
M000
MM00
0000
0000
0000
,
0001
1000
0001
0000
2001
0000
3010
0100
,
0000
0100
0001
0000
0021
0000
0130
1000
,
0000
1000
0001
0000
0201
0000
1300
0100
,
0000
0100
0001
0000
0021
0000
1030
0010
,
0000
0010
0100
0000
2100
0000
3001
0100
,
0000
0100
0010
0000
2000
0000
3001
0010
,
0000
0010
0100
0000
2000
0000
3010
0100
,
0001
0000
1000
0000
0000
0100
0000
0010
0000
0000
0100
0000
0001
0000
0000
0000
,
1000
0000
0000
0000
;

//--------------- dance-single - Challenge 13 ----------------
#NOTES:
     dance-single:
     Challenge 13:
     Challenge:
     13:
     0.548286,0.624168,0.362522,0.449212,0,487,441,46,57,204,0,0.548286,0.624168,0.362522,0.449212,0,487,441,46,57,204,0:
0000
0000
0000
0000
,
0000
0000
0000
0000
,
0000
0000
0000
0000
,
0000
0000
0000
0000
,
1001
0000
0001
0100
0000
0100
0010
0000
,
1010
0000
1000
0100
0000
0100
0010
0000
,
0011
0001
1000
1010
0010
0100
0110
0000
,
2002
0000
0000
0003
0002
3000
1003
0000
,
0001
0010
1000
0001
0100
1000
MMMM
0000
,
1000
0010
0001
1000
0100
0001
MMMM
0000
,
0001
0010
1000
0001
0100
1000
0010
0001
,
0011
0110
1010
1001
,
1000
0001
0010
1000
0010
0100
MMMM
0100
,
1000
0001
0100
1000
0001
0010
MMMM
0010
,
1000
0100
0010
1000
0010
0001
0010
0100
,
1100
0000
1001
0000
0101
0001
0100
1000
,
MMMM
0000
1000
0100
0001
0010
0100
1000
,
0010
0100
0001
1000
0100
0001
0100
1000
,
0010
0100
0001
0010
1000
0010
0100
1000
,
0002
0100
1003
0001
2000
0100
3001
1000
,
0002
0100
0103
0010
1000
0100
0010
0001
,
2000
0100
3100
0010
0001
1000
0001
0100
,
MMMM
0001
MMMM
0010
MMMM
0100
MMMM
1000
,
0M0M
M0M0
00MM
MM00
M00M
0000
0000
0000
,
0001
0000
0011
0000
0010
0100
0000
0000
,
2000
0000
3020
0000
0230
0000
1000
0302
,
0000
0000
0000
1003
,
0001
1000
0100
MMMM
0000
0000
0000
0000
,
0002
0203
0320
0032
,
0023
2030
3200
0301
,
0101
MMMM
1100
MMMM
,
0012
0000
1003
0000
0010
0100
1000
0100
,
0010
0000
1000
0001
0000
0020
0000
0030
,
0001
1000
0100
0010
0100
0001
0100
2000
,
0020
0000
0000
3000
1030
0000
0001
0000
,
0100
0010
0001
0010
0000
1000
0100
0000
,
1000
0001
0010
0100
0020
0000
0032
0000
,
2003
0000
3020
0000
0130
0001
1000
0001
,
MMMM
0100
MMMM
0010
MMMM
1000
MMMM
0100
,
1001
0000
MMMM
MMMM
,
0002
2003
3020
0230
,
0301
0000
2000
3200
,
0302
0203
0320
0032
,
1003
0000
0000
0000
,
0002
0203
2300
3200
,
0310
0000
2000
3002
,
0023
0000
0230
0000
2300
0000
3002
0203
,
0000
0000
0300
0000
,
0102
0203
0320
2030
,
3001
0000
0000
0000
0000
0000
0000
0000
2000
0000
0000
0000
3200
0000
0000
0300
,
0210
2300
3002
0203
,
1300
0000
0000
0000
,
1100
0100
0001
0010
0100
0010
1000
0010
,
0011
0000
0000
0000
1000
0001
0100
0010
,
1001
1000
0100
0010
1001
0001
0100
0010
,
1001
0000
0000
MMMM
0000
MMMM
0000
MMMM
,
1000
0100
0010
MMMM
1000
0001
0000
1000
,
0001
0100
0010
MMMM
0001
1000
0000
0001
,
1000
0100
0001
MMMM
0010
0001
0000
0100
,
0101
MMMM
1001
MMMM
1100
MMMM
1001
0000
,
0001
1000
0010
MMMM
1000
0100
0000
0001
,
1000
0001
0010
MMMM
0001
0100
0000
1000
,
0001
0100
1000
MMMM
0010
1000
0000
0001
,
1001
MMMM
1010
MMMM
0001
0001
1000
0100
,
MMMM
1000
0010
0001
1000
0010
0100
1000
,
MMMM
0010
1000
0100
0001
1000
0010
0001
,
MMMM
0100
0010
1000
0010
0001
0100
1000
,
0110
MMMM
1001
MMMM
0011
0000
1001
0000
,
0001
0010
0100
0100
0010
0001
1000
0010
,
MMMM
0100
MMMM
0001
MMMM
1000
MMMM
0100
,
MMMM
0010
MMMM
0001
MMMM
1000
MMMM
0010
,
1010
0000
1001
0000
0011
1000
0010
0000
,
1001
1000
0100
0010
0001
1000
0010
0001
,
0010
1000
0100
0010
0001
0100
1000
0100
,
0010
1000
0001
0100
0010
1000
0100
0001
,
0101
0110
1100
0110
,
0011
0001
1000
0010
0100
1000
0100
0010
,
1000
0001
0010
0100
0001
0100
0010
0001
,
1000
0100
0010
0001
0100
1000
0100
0010
,
MM00
00MM
M0M0
0M0M
0MM0
0000
0000
0000
,
1000
0001
0100
0000
0010
1000
0010
0100
,
0001
1000
0100
0000
0010
0001
0010
0100
,
1000
0001
0100
0000
0001
1000
0100
0010
,
0001
1000
0100
0000
0010
0001
1000
0010
,
0100
0001
1000
0000
0001
0000
1100
0000
,
0001
1000
0010
0000
0100
0000
0011
0000
,
0100
0010
1000
0000
0001
1000
0100
0000
,
0010
0001
0001
1000
0000
0010
0100
0000
,
MMMM
0000
0000
0000
;
