#VERSION:0.83;
#TITLE:A Starting Point;
#SUBTITLE:;
#ARTIST:河村 知之;
#TITLETRANSLIT:;
#SUBTITLETRANSLIT:;
#ARTISTTRANSLIT:Tomoyuki Kawamura;
#GENRE:;
#ORIGIN:;
#CREDIT:;
#BANNER:;
#BACKGROUND:;
#PREVIEWVID:;
#JACKET:;
#CDIMAGE:;
#DISCIMAGE:;
#LYRICSPATH:;
#CDTITLE:;
#MUSIC:A Starting Point.ogg;
#OFFSET:-0.440000;
#SAMPLESTART:37.219997;
#SAMPLELENGTH:14.400002;
#SELECTABLE:YES;
#BPMS:0.000=150.000;
#STOPS:;
#DELAYS:;
#WARPS:;
#TIMESIGNATURES:0.000=4=4;
#TICKCOUNTS:0.000=4;
#COMBOS:0.000=1;
#SPEEDS:0.000=1.000=0.000=0;
#SCROLLS:0.000=1.000;
#FAKES:;
#LABELS:0.000=Song Start;
#BGCHANGES:;
#KEYSOUNDS:;
#ATTACKS:
;

//---------------dance-single - ----------------
#NOTEDATA:;
#CHARTNAME:;
#STEPSTYPE:dance-single;
#DESCRIPTION:;
#CHARTSTYLE:;
#DIFFICULTY:Hard;
#METER:16;
#RADARVALUES:0.841878,0.890720,0.044986,0.134958,1.030177,655.000000,650.000000,5.000000,15.000000,3.000000,0.000000,0.000000,0.000000,0.000000,0.841878,0.890720,0.044986,0.134958,1.030177,655.000000,650.000000,5.000000,15.000000,3.000000,0.000000,0.000000,0.000000,0.000000;
#CREDIT:;
#NOTES:
// measure 0
0000
0000
0000
0000
,  // measure 1
0000
0000
0000
0000
,  // measure 2
0000
0000
0000
0000
,  // measure 3
0000
0000
0000
0000
,  // measure 4
1000
0100
0010
0000
0100
0000
0001
0000
0100
0010
0001
0000
0010
0000
0001
0000
,  // measure 5
1000
0010
0100
0000
0010
0000
0001
0000
0010
0100
0001
0000
1000
0100
0010
0000
,  // measure 6
0001
0100
0010
0000
0100
0001
1000
0000
0001
0010
0100
0000
0010
0001
1000
0000
,  // measure 7
1001
0000
0000
0000
,  // measure 8
1000
0000
0010
0000
0100
1000
0000
0100
0010
0000
0100
0000
0001
0000
0010
0000
,  // measure 9
0100
1000
0001
0000
1000
0010
0100
0000
0010
1000
0001
0000
1000
0000
1000
0000
,  // measure 10
0001
0000
0010
0000
0100
0001
0000
0100
0010
0000
0100
0000
1000
0000
0010
0000
,  // measure 11
0100
0001
1000
0000
0001
0010
0100
0000
0010
0001
1000
0000
0001
0000
0001
0100
,  // measure 12
0010
0000
0001
0000
0010
0100
0000
0010
1000
0000
0100
0000
0010
0000
1000
0000
,  // measure 13
0010
0100
1000
0000
0001
1000
0010
0000
0100
0010
1000
0000
0001
0000
0001
0000
,  // measure 14
0010
0100
1000
0000
0010
1000
0010
0000
0100
0010
1000
0000
0100
1000
0100
0000
,  // measure 15
0010
0100
1000
0001
0100
0010
0100
0001
1000
0100
0010
1000
0010
0100
1000
0000
,  // measure 16
0001
0100
0010
0001
0000
0000
0000
0000
0001
0010
0100
0001
0000
0000
0000
0000
,  // measure 17
0001
0010
0100
0000
0010
0001
0000
1000
0010
0100
0001
0000
1000
0000
0001
0000
,  // measure 18
1000
0001
0010
0100
0001
0000
0000
0000
0001
0100
0010
0001
0000
0000
0000
0000
,  // measure 19
1000
0100
0010
0000
0001
0000
1000
0001
0000
0000
0000
0000
0001
0000
1000
0000
,  // measure 20
0001
0100
0010
0100
1000
0000
1000
0100
0010
0100
0001
0000
0010
0100
1000
0000
,  // measure 21
0001
0010
0100
0010
1000
0000
1000
0010
0100
0010
0001
0000
0010
0000
0010
0001
,  // measure 22
1000
0010
0100
0010
0001
0000
0001
0010
0100
0010
1000
0000
0100
0010
0001
0000
,  // measure 23
0010
0001
1000
0001
0010
0100
1000
0001
0010
0100
0001
0100
0010
0001
0100
0010
,  // measure 24
0001
0000
0000
0000
0001
0000
0010
0100
0000
0010
1000
0000
0100
0010
0000
0100
,  // measure 25
1000
0010
0100
0000
1000
0000
0100
0010
0000
1000
0000
1000
0100
0000
0010
0000
,  // measure 26
1000
0000
0000
0000
1000
0000
0010
0100
0000
0010
0001
0000
0100
0010
0000
0100
,  // measure 27
0001
0010
0100
0000
1000
0000
0010
0100
0000
1000
0100
0010
1000
0100
0010
0100
,  // measure 28
0001
0000
0000
0000
0001
0000
0100
0010
0000
0100
1000
0000
0010
0100
0000
0010
,  // measure 29
1000
0100
0010
0000
1000
0000
0010
0100
0000
1000
0000
1000
0010
0000
0100
0000
,  // measure 30
1000
0000
0000
0000
1000
0000
0100
0010
0000
0100
0001
0000
0010
0100
0000
0010
,  // measure 31
0001
0100
0010
0000
1000
0000
0100
0010
0001
0100
0010
0001
0010
0100
0001
0000
,  // measure 32
1000
0000
0100
0000
0010
1000
0000
0010
0100
0000
0010
0000
0001
0000
0100
0000
,  // measure 33
0010
0100
1000
0000
0100
0010
0100
0000
0010
1000
0001
0000
1000
0000
1000
0000
,  // measure 34
0001
0000
0010
0000
0100
0001
0000
0100
0010
0000
0100
0000
1000
0000
0010
0000
,  // measure 35
0100
0010
0001
0000
0010
0100
0010
0000
0100
0001
1000
0000
0001
0000
0001
0010
,  // measure 36
0100
0000
0001
0000
0100
0010
0000
0100
1000
0000
0010
0000
0100
0000
1000
0000
,  // measure 37
0100
0010
0001
0000
0010
0100
0010
0000
1000
0100
0010
0000
0100
0000
0001
0000
,  // measure 38
1000
0010
0100
0000
1000
0001
1000
0000
0010
0100
1000
0000
0100
0010
0100
0000
,  // measure 39
0010
0100
0001
1000
0100
0010
0100
1000
0001
0100
0010
0001
0010
0100
0001
0000
,  // measure 40
1000
0000
0001
0010
0000
001M
1000
0000
1000
0100
0000
0000
00M1
1000
0001
1000
,  // measure 41
0001
0000
0001
0100
0000
010M
1000
0000
1000
0010
0000
0100
0001
1000
0001
1000
,  // measure 42
0001
0000
0001
0100
0000
1000
0000
0100
,  // measure 43
0002
0023
0230
2300
3020
0030
0100
0010
1000
0001
1000
0000
0001
0000
0000
0000
,  // measure 44
1000
0000
1000
0100
0000
0001
0000
0100
,  // measure 45
2000
3020
0230
0302
2003
3000
0001
1000
0010
0100
0010
0000
0100
0000
0001
0000
,  // measure 46
1000
0000
1000
0100
0000
0001
0000
0100
,  // measure 47
2000
3020
0230
0302
0023
0030
0100
0010
0001
1000
0001
0000
1000
0000
0000
0000
,  // measure 48
1010
1000
1001
0001
0011
0001
1001
0000
,  // measure 49
0001
0010
0100
1000
0010
0100
0010
1000
0100
0010
1000
0010
0100
1000
0010
0100
,  // measure 50
1000
0000
0000
0000
1000
0000
0100
0010
0000
0100
0001
0000
0010
0100
0000
0010
,  // measure 51
0001
0100
0010
0000
0001
0000
0010
0100
0000
0001
0000
0001
0010
0000
0100
0000
,  // measure 52
0001
0000
0000
0000
0001
0000
0100
0010
0000
0100
1000
0000
0010
0100
0000
0010
,  // measure 53
1000
0100
0010
0000
0001
0000
0100
0010
0000
0001
0010
0100
0001
0010
0100
0010
,  // measure 54
1000
0000
0000
0000
1000
0000
0010
0100
0000
0010
0001
0000
0100
0010
0000
0100
,  // measure 55
0001
0010
0100
0000
0001
0000
0100
0010
0000
0001
0000
0001
0100
0000
0010
0000
,  // measure 56
0001
0000
0000
0000
0001
0000
0010
0100
0000
0010
1000
0000
0100
0010
0000
0100
,  // measure 57
1000
0010
0100
0000
0001
0000
0010
0100
1000
0010
0100
1000
0100
0010
1000
0000
,  // measure 58
0001
0000
0010
0000
0100
0001
0000
0100
0010
0000
0100
0000
1000
0000
0010
0000
,  // measure 59
0100
0010
0001
0000
0010
0100
0001
0000
0010
0100
1000
0000
0001
0000
0001
0000
,  // measure 60
1000
0000
0010
0000
0100
1000
0000
0100
0010
0000
0100
0000
0001
0000
0010
0000
,  // measure 61
0100
0010
1000
0000
0010
0100
1000
0000
0010
0100
0001
0000
1000
0000
1000
0100
,  // measure 62
0010
0000
1000
0000
0010
0100
0000
0010
0001
0000
0100
0000
0010
0000
0001
0000
,  // measure 63
0010
0100
1000
0000
0100
0010
1000
0000
0001
0010
0100
0000
1000
0000
0001
0000
,  // measure 64
1000
0010
0100
0000
1000
0100
0010
0000
1000
0100
0010
0000
1000
0010
0100
0000
,  // measure 65
1000
0001
0100
0001
1000
0100
0010
0001
0100
0010
0001
0010
0100
0001
0010
0100
,  // measure 66
0001
0000
0000
0000
;

//---------------dance-single - ----------------
#NOTEDATA:;
#CHARTNAME:;
#STEPSTYPE:dance-single;
#DESCRIPTION:;
#CHARTSTYLE:;
#DIFFICULTY:Medium;
#METER:12;
#RADARVALUES:0.507698,0.623504,0.251921,0.071977,0.287910,395.000000,367.000000,28.000000,8.000000,0.000000,0.000000,0.000000,0.000000,0.000000,0.507698,0.623504,0.251921,0.071977,0.287910,395.000000,367.000000,28.000000,8.000000,0.000000,0.000000,0.000000,0.000000,0.000000;
#CREDIT:;
#NOTES:
0000
0000
0000
0000
,
0000
0000
0000
0000
,
0000
0000
0000
0000
,
0000
0000
0000
0000
,
1000
0001
0100
1000
0000
0100
0000
0001
,
0000
0010
0000
1000
0000
0001
0000
0100
,
1000
0001
0000
0001
0100
0010
0000
0100
,
0110
0000
0000
0000
,
1000
0000
0100
0000
0000
0100
0000
0000
0001
0000
0000
0000
0001
0000
0100
0000
,
0010
0000
0001
0000
0000
0001
0000
0000
1000
0000
0000
0000
1000
0000
0001
0000
,
0001
0000
0100
0000
0000
0100
0000
0000
1000
0000
0000
0000
1000
0000
0100
0000
,
0010
0000
1000
0000
0000
1000
0000
0000
0001
0000
0000
0000
0001
0000
0001
0000
,
0010
0000
1000
0000
0000
1000
0000
0000
0001
0000
0000
0000
0001
0000
1000
0000
,
0010
0000
0100
0000
0000
0100
0000
0000
1000
0000
0000
0000
1000
0000
0010
0000
,
0100
1000
0000
1000
0100
0010
0000
0010
,
1000
0001
0010
0100
0001
1000
0010
0100
,
1000
0010
0100
0000
1000
0100
0010
0000
,
1000
0000
0100
0000
0010
0000
0000
0010
0000
0000
0000
0000
0010
0000
0010
0000
,
0001
0100
0010
0000
0001
0010
0100
0000
,
0100
0000
0001
0000
1000
0000
0000
1000
0000
0000
0000
0000
0001
0000
0001
0000
,
1000
0010
0001
0001
0010
1000
0001
0000
,
1000
0100
0001
0001
0100
1000
0001
0100
,
0010
0001
1000
1000
0100
0001
1000
0000
,
0001
0010
0100
0010
1000
0001
0100
0010
,
0001
0000
0000
0000
1000
0000
0000
0010
0000
0000
0100
0000
0000
0100
0000
0001
,
0000
0000
0000
0000
0001
0000
1000
0000
0000
0001
0000
0000
0010
0000
0100
0000
,
1000
0000
0000
0000
0001
0000
0000
0100
0000
0000
0010
0000
0000
0010
0000
1000
,
0000
0000
1000
0001
1000
0100
0001
0100
,
1000
0000
0000
0000
0010
0000
0000
0100
0000
0000
0001
0000
0000
0001
0000
0010
,
0000
0000
0000
0000
0010
0000
0100
0000
0000
0010
0000
0000
0001
0000
1000
0000
,
0010
0000
0000
0000
0100
0000
0000
0010
0000
0000
1000
0000
0000
1000
0000
0100
,
0000
0000
0100
0010
0001
0100
1000
0100
,
0001
0000
1001
0000
0000
0011
0000
0000
1001
0000
0000
0000
0001
0000
0100
0000
,
0010
0000
1010
0000
0000
1001
0000
0000
1010
0000
1000
0000
0001
0000
0010
0000
,
0100
0000
0110
0000
0000
0011
0000
0000
0110
0000
0000
0000
0010
0000
0001
0000
,
1000
0000
1010
0000
0000
0110
0000
0000
1010
0000
1000
0000
0001
0000
0010
0000
,
0100
0000
1100
0000
0000
0110
0000
0000
1100
0000
0000
0000
1000
0000
0001
0000
,
0100
0000
0110
0000
0000
0101
0000
0000
0110
0000
0000
0000
0010
0000
1000
0000
,
0100
0010
0100
1000
0010
0100
0010
1000
,
0001
0010
0100
0001
1000
0010
0100
1000
,
1100
0000
0000
0110
0000
0000
0011
0000
0000
1001
0000
0000
0000
0000
0000
0000
,
0011
0000
0000
0110
0000
0000
1100
0000
0000
1001
0000
0000
0000
0000
0000
0000
,
0220
0000
0000
0000
,
0330
0000
0000
0000
0000
0002
0000
0020
,
0000
0000
0000
0000
,
0033
0000
0000
0000
0000
0020
0000
0200
,
0000
0000
0000
0000
,
0330
0000
0000
0000
0000
0200
0000
2300
,
0001
0001
0010
0010
,
3001
0010
0100
1000
0001
0100
1000
0100
,
0001
0000
0000
0000
1000
0000
0000
0010
0000
0000
0100
0000
0000
0100
0000
0001
,
0000
0000
0000
0000
0001
0000
1000
0000
0000
0001
0000
0000
0010
0000
0100
0000
,
1000
0000
0000
0000
0001
0000
0000
0100
0000
0000
0010
0000
0000
0010
0000
1000
,
0000
0000
1000
0001
1000
0100
0001
0100
,
1000
0000
0000
0000
0010
0000
0000
0100
0000
0000
0001
0000
0000
0001
0000
0010
,
0000
0000
0000
0000
0010
0000
0100
0000
0000
0010
0000
0000
0001
0000
1000
0000
,
0010
0000
0000
0000
0100
0000
0000
0010
0000
0000
1000
0000
0000
1000
0000
0100
,
0000
0000
0100
0010
0001
0100
1000
0100
,
0001
0000
0010
0000
0001
0010
0000
0001
0010
0000
0100
0000
1000
0000
0010
0000
,
1000
0000
0100
0000
1000
0100
0000
1000
0100
0000
0010
0000
0001
0000
1000
0000
,
0000
0000
0010
0000
1000
0010
0000
1000
0010
0000
0100
0000
0001
0000
0010
0000
,
0001
0000
0100
0000
0001
0100
0000
0001
0100
0000
0010
0000
1000
0000
0001
0000
,
0000
0000
1000
0000
0001
1000
0000
0001
0010
0000
0001
0000
1000
0000
0010
0000
,
0100
0000
0001
0000
1000
0001
0000
1000
0100
0000
1000
0000
0001
0000
0100
0000
,
0010
0000
1000
0000
0001
0010
0000
0100
0010
0000
0001
0000
0100
0000
0010
0000
,
1000
0000
0100
0000
0010
0100
0000
1000
0100
0000
0010
0000
0001
1000
0001
1000
,
0001
0000
0000
0000
;
