#VERSION:0.83;
#TITLE:A Place For My Head;
#SUBTITLE:;
#ARTIST:Linkin Park;
#TITLETRANSLIT:;
#SUBTITLETRANSLIT:;
#ARTISTTRANSLIT:;
#GENRE:;
#ORIGIN:;
#CREDIT:;
#BANNER:;
#BACKGROUND:;
#PREVIEWVID:;
#JACKET:;
#CDIMAGE:;
#DISCIMAGE:;
#LYRICSPATH:;
#CDTITLE:;
#MUSIC:A Place For My Head.ogg;
#OFFSET:-0.084000;
#SAMPLESTART:43.362053;
#SAMPLELENGTH:14.421345;
#SELECTABLE:YES;
#BPMS:0.000=133.136;
#STOPS:;
#DELAYS:;
#WARPS:;
#TIMESIGNATURES:0.000=4=4;
#TICKCOUNTS:0.000=4;
#COMBOS:0.000=1;
#SPEEDS:0.000=1.000=0.000=0;
#SCROLLS:0.000=1.000;
#FAKES:;
#LABELS:0.000=Song Start;
#BGCHANGES:;
#KEYSOUNDS:;
#ATTACKS:
;

//---------------dance-single - DS FS XO Wadat-----------------
#NOTEDATA:;
#CHARTNAME:;
#STEPSTYPE:dance-single;
#DESCRIPTION:DS FS XO Wadat-;
#CHARTSTYLE:;
#DIFFICULTY:Challenge;
#METER:15;
#RADARVALUES:0.727400,0.670157,0.282465,0.304765,0.802795,685.000000,647.000000,38.000000,41.000000,25.000000,0.000000,0.000000,0.000000,0.000000,0.727400,0.670157,0.282465,0.304765,0.802795,685.000000,647.000000,38.000000,41.000000,25.000000,0.000000,0.000000,0.000000,0.000000;
#CREDIT:Kingly;
#NOTES:
0000
0000
0000
0000
,
0000
0000
0000
0000
,
0000
0000
0000
0000
,
0000
0000
0000
0000
,
1001
0000
1001
0000
1000
0000
0100
0010
0100
0000
0001
0000
0100
0000
1000
0000
,
0002
0000
0000
0000
0013
0000
0100
1000
0001
0100
0001
0000
1000
0010
1000
0010
,
1000
0000
1010
0000
0001
0000
0100
0010
0100
0000
1000
0000
0100
0000
0001
0000
,
2000
0000
0000
0000
3010
0000
0100
0001
1000
0100
1000
0000
0001
0010
0001
0010
,
0001
0000
0011
0000
1000
0000
0100
0010
0100
0000
0001
0000
0100
0000
1000
0000
,
0002
0000
0000
0000
0013
0000
0100
1000
0001
0100
0001
0000
1000
0010
1000
0010
,
1000
0000
1010
0000
0001
0000
0100
0010
0100
0000
1000
0000
0100
0000
0001
0000
,
2000
0000
0000
0000
3100
0000
0010
0001
0010
0000
0100
1000
0001
0000
0100
0010
,
1000
0000
0000
0000
0001
0000
0010
0100
1000
0000
0001
0100
0001
0000
0020
0000
,
0000
0000
0100
0000
0031
0000
1000
0010
1000
0000
0001
0010
0001
0000
0000
1000
,
0100
0000
0010
0001
1000
0000
0010
1000
0000
0001
0100
0001
0000
1000
0100
0000
,
0010
0000
0000
0001
1000
0000
0010
0100
0010
0000
1000
0200
0000
0000
0000
0310
,
0001
0000
0100
0000
0001
1000
0100
1000
0010
0000
1000
0001
0000
0010
0001
0000
,
0000
0000
0100
0000
0001
0000
1000
0100
1000
0000
0010
1000
0000
0001
0010
0000
,
0100
0000
1000
0010
0000
1000
0100
0000
0010
0000
0001
0100
0000
0001
0010
0000
,
0000
0000
0100
0000
1000
0001
1000
0000
0010
0000
0100
0001
0000
0000
1000
0000
,
0100
00M0
0100
0002
0100
0000
1003
0000
0010
0M00
0010
0002
0010
0000
1003
0000
,
0100
0010
0001
0000
1000
0010
1000
0100
1000
0000
0002
0100
0000
0000
0000
0000
,
1003
0010
1000
0010
0100
0000
0000
0001
0100
00M0
0100
1000
0000
0000
0000
0001
,
0010
0001
0000
1000
0100
00M0
0100
0001
0100
0000
0010
0000
2000
0000
0000
0000
,
3001
0000
0000
1000
0001
0000
0100
0010
0100
0000
1000
0000
0100
0000
0001
0000
,
1000
0000
0000
0010
1000
0000
0100
1000
0100
00M0
0100
0001
0100
0000
0010
0000
,
1000
0000
0000
0001
1000
0000
0100
0010
0100
0000
0001
0000
0100
0000
1000
0000
,
0002
0000
0000
0000
0103
0000
0010
1000
0001
0000
1000
0100
00M0
0100
0000
0001
,
1000
0000
0000
0001
1000
0000
0100
0010
0100
0000
0001
0000
0100
0000
1000
0000
,
0001
0000
0000
0010
0001
0000
0100
0001
0100
00M0
0100
1000
0100
0000
0010
0000
,
0001
0000
0000
1000
0001
0000
0100
0010
0100
0000
1000
0000
0100
0000
0001
0000
,
1000
0000
0000
0100
1000
0000
0010
1000
0001
0000
0010
0100
1000
0001
0100
0001
,
1000
0000
0000
0000
0100
0000
0010
0001
0010
0000
0100
0000
1000
0000
0001
0000
,
0000
0000
1001
0000
0001
0000
0100
0010
1000
0000
0001
0000
0001
0000
0010
0100
,
0000
0010
0001
0000
1000
0010
0100
0001
0100
0001
0000
1000
0100
0000
0010
0000
,
0000
0000
0001
0100
0001
1000
0100
0000
1000
0000
0010
1000
0001
0000
1000
0100
,
0000
2000
0010
0000
3001
0000
0100
0002
0010
0000
1003
0000
0100
1000
0010
0000
,
0100
0001
1000
0100
1000
0000
0010
0100
0001
0000
1000
0000
0100
0000
1000
0000
,
0001
0100
0000
0001
0010
0000
0100
1000
0100
0000
0010
0001
0000
0000
1000
0000
,
0001
0100
0001
1000
0000
0100
0000
1000
0020
0000
0000
0000
1030
0000
0001
0000
,
0100
00M0
0100
2000
0100
0000
3001
0000
0010
0M00
0010
2000
0010
0000
3001
0000
,
0100
0010
1000
0000
0001
0010
0001
0100
0001
0000
2000
0100
0000
0000
0000
0000
,
3001
0010
0001
0010
0100
0000
0000
1000
0100
00M0
0100
0001
0000
0000
0000
1000
,
0010
1000
0000
0001
0100
00M0
0100
1000
0100
0000
0010
0000
0001
0000
1000
0000
,
0100
00M0
0100
0002
0100
0000
1003
0000
0010
0M00
0010
0002
0010
0000
1003
0000
,
0100
0010
0001
0000
1000
0010
1000
0100
1000
0000
0002
0100
0000
0000
0000
0000
,
1003
0010
1000
0010
0100
0000
0000
0001
0100
00M0
0100
1000
0000
0000
0000
0001
,
0010
0001
0000
1000
0100
00M0
0100
0001
0100
0000
0010
0000
1000
0001
1000
0001
,
0010
0000
0000
0001
0100
0000
0010
1000
0010
0000
0001
0000
0010
0000
0100
0000
,
0001
0000
0000
1000
0100
0000
0010
0001
0010
0M00
0010
1000
0010
0000
0100
0000
,
0001
0000
0000
1000
0100
0000
0010
0001
0010
0000
1000
0000
0010
0000
0100
0000
,
2000
0000
0000
0000
3001
0000
0010
0100
1000
0000
0001
0100
00M0
0100
0000
1000
,
0001
0000
0000
1000
0100
0000
0010
0001
0010
0000
1000
0000
0010
0000
0100
0000
,
1000
0000
0000
0001
0100
0000
0010
1000
0010
0M00
0010
0001
0010
0000
0100
0000
,
1000
0000
0000
0001
0100
0000
0010
1000
0010
0000
0001
0000
0010
0000
0100
0000
,
0002
0000
0000
0000
1003
0000
0010
0100
0001
0000
1000
0000
1100
0000
0001
0000
,
0101
0000
0101
0000
0000
0000
1000
0100
0010
0000
0011
0000
0000
0000
1000
0000
,
1100
0000
1100
0000
0000
0000
0001
0100
0010
0000
1010
0000
2002
0000
3003
0000
,
0021
0000
0000
0000
0030
0000
0021
0000
0000
0000
0000
0000
0000
0000
0000
0000
0000
0000
0001
0000
0000
1000
0000
0000
0000
0000
0000
0000
0030
0000
1010
0000
0000
0000
0000
0000
0000
0000
0000
0000
0000
0000
0001
0000
0000
0000
0000
0000
,
0101
0000
0101
0000
0000
0000
0001
1000
0100
0000
1100
0000
2002
0000
3003
0000
,
1020
0000
0000
0000
0030
0000
1020
0000
0000
0000
0000
0000
0000
0000
0000
0000
0000
0000
1000
0000
0000
0001
0000
0000
0000
0000
0000
0000
0030
0000
0011
0000
0000
0000
0000
0000
0000
0000
0000
0000
0000
0000
0001
0000
0000
0000
0000
0000
,
1001
0000
1001
0000
0000
0000
1000
0010
0100
0000
0110
0000
2002
0000
3003
0000
,
0201
0000
0000
0000
0300
0000
0210
0000
0000
0000
0000
0000
0000
0000
0000
0000
0000
0000
0001
0000
0000
1000
0000
0000
0000
0000
0000
0000
0300
0000
0210
0000
0000
0000
0000
0000
0000
0000
0000
0000
0000
0000
1000
0000
0000
0000
0300
0000
,
1200
0000
0000
0000
0300
0000
0210
0000
0000
0000
0000
0000
0000
0000
0000
0000
0000
0000
1000
0000
0000
0001
0000
0000
0000
0000
0000
0000
0300
0000
0110
0000
0000
0000
0000
0000
1000
0000
0000
0000
0001
0000
0000
0000
1000
0000
0000
0000
,
0100
00M0
0100
0002
0100
0000
1003
0000
0010
0M00
0010
0002
0010
0000
1003
0000
,
0100
0010
0001
0000
1000
0010
1000
0100
1000
0000
0001
0100
0010
0000
1000
0000
,
0001
0010
0100
0010
0001
0000
1000
0001
0100
00M0
0100
1000
0000
0000
0001
0100
,
0001
0010
0M00
0010
1000
0000
0001
0100
0010
0000
1000
0000
0100
0000
1000
0001
,
0100
00M0
0100
2000
0100
0000
3001
0000
0010
0M00
0010
2000
0010
0000
3001
0000
,
0100
0010
1000
0000
0001
0010
0001
0100
0001
0000
1000
0100
0010
0000
0001
0000
,
1000
0010
0100
0010
1000
0000
0001
1000
0100
00M0
0100
0001
0000
0000
0100
0010
,
1000
0100
1000
0001
0101
1000
1100
0000
,
1001
1001
0000
0000
0000
0000
0000
0000
;

//---------------dance-single - ----------------
#NOTEDATA:;
#CHARTNAME:;
#STEPSTYPE:dance-single;
#DESCRIPTION:;
#CHARTSTYLE:;
#DIFFICULTY:Medium;
#METER:10;
#RADARVALUES:0.454492,0.428901,0.000000,0.059466,0.007433,428.000000,428.000000,0.000000,8.000000,0.000000,0.000000,0.000000,0.000000,0.000000,0.454492,0.428901,0.000000,0.059466,0.007433,428.000000,428.000000,0.000000,8.000000,0.000000,0.000000,0.000000,0.000000,0.000000;
#CREDIT:;
#NOTES:
0000
0000
0000
0000
,
0000
0000
0000
0000
,
0000
0000
0000
0000
,
0000
0000
0000
0000
,
1000
1000
0001
0100
0001
0000
1000
0100
,
0010
0000
0001
0100
0010
1000
0010
1000
,
0001
0001
1000
0100
1000
0000
0001
0100
,
0010
0000
1000
0100
0010
0001
0010
0001
,
1000
1000
0010
0100
0001
0000
0010
0100
,
1000
0000
0001
0100
0010
1000
0010
1000
,
0001
0001
0010
0100
1000
0000
0010
0100
,
0001
0000
1000
0100
0010
0001
0010
0001
,
1000
0000
0001
0100
0001
0100
0010
1000
,
0000
0001
0010
0001
1000
0000
0010
0000
,
0100
0001
0100
0000
0010
0000
1000
0100
,
1000
0000
0001
0010
0100
1000
0010
0000
,
1000
0001
0010
0001
0100
0000
0001
1000
,
0000
0001
1000
0000
0100
0000
0010
0000
,
0001
0100
0001
0000
1000
0100
1000
0001
,
0000
1000
0001
0100
0010
0000
1000
0000
,
0001
0010
0001
0000
1000
0010
1000
0000
,
0001
0010
0100
1000
0100
0010
0001
0000
,
1000
0010
1000
0000
0001
0100
0001
0000
,
1000
0100
0010
0001
1000
0000
0001
0000
,
1000
0001
0010
0001
0100
0001
1000
0010
,
0000
1000
0010
0100
0001
0100
0010
1000
,
0000
0000
0010
0000
1000
0000
0000
0000
0001
0000
0000
0010
0000
0000
0002
0000
,
0000
0000
0000
1003
0010
0000
0100
0000
,
0001
1000
0010
1000
0100
1000
0001
0010
,
0000
0001
0010
0000
0100
1000
0100
0001
,
0000
0100
0010
0001
1000
0010
0100
0002
,
0000
0000
1003
0000
0001
0010
0001
0010
,
0100
0000
1000
0000
0001
0100
0001
0100
,
0000
0010
1000
0000
0001
0010
0001
0000
,
1000
0100
1000
0001
0100
0010
1000
0010
,
0000
0100
0001
1000
0001
0010
0100
0000
,
1000
0010
1000
0001
0010
0001
1000
0010
,
0100
0001
0100
0010
1000
0000
0001
0000
,
0010
0100
1000
0000
0010
0100
0001
0000
,
1000
0001
1000
0001
1000
0000
0001
0000
,
0010
0001
0100
0000
0010
1000
0100
0000
,
0010
0001
0100
0001
1000
0100
0010
0000
,
0001
1000
0001
0000
0100
0000
0010
0000
,
1000
0001
1000
0001
1000
0000
0001
1000
,
0010
1000
0100
0000
0010
0001
0100
0000
,
0010
1000
0100
1000
0001
0100
0010
0000
,
1000
0100
1000
0000
0001
0100
0001
0000
,
1000
0100
0010
0001
1000
0000
0001
0100
,
0001
1000
0100
1000
0010
1000
0001
0010
,
0000
0001
0010
0100
1000
0010
1000
0001
,
0000
0000
1000
0000
0001
0000
0000
0000
0010
0000
0000
0100
0000
0000
2000
0000
,
0000
0000
3001
0100
0001
0000
0010
0000
,
0100
1000
0100
0010
0001
0100
0001
1000
,
0000
0001
1000
0000
0100
0010
0001
0010
,
0000
0001
0010
0100
1000
0001
0100
0020
,
0000
0000
1030
0000
0001
1000
0001
0100
,
0010
1000
0000
0001
0010
0001
0000
1000
,
0100
1000
0000
0001
0100
0001
0020
0000
,
0130
1000
0000
0001
0100
0001
0000
1000
,
0010
1000
0000
0001
0010
0001
0200
0000
,
0310
1000
0000
0001
0010
0100
0000
1000
,
0010
0100
0000
0001
1000
0100
0020
0000
,
0031
0100
0000
0010
1000
0001
0000
0010
,
0100
1000
0000
0100
0010
0001
2000
0000
,
3001
0100
0001
0000
1000
0010
1000
0000
,
0001
0010
0100
1000
0100
0010
0001
0000
,
1000
0010
1000
0000
0100
0000
0010
0000
,
0001
1000
0001
1000
0001
0000
1000
0010
,
1000
0100
1000
0000
0001
0100
0001
0000
,
1000
0100
0010
0001
0010
0100
1000
0000
,
0001
0010
0001
0000
1000
0010
1000
0000
,
0001
0100
0000
0010
1000
0000
0001
0000
,
1000
1000
0000
0000
0000
0000
0000
0000
;

//---------------dance-single - ----------------
#NOTEDATA:;
#CHARTNAME:;
#STEPSTYPE:dance-single;
#DESCRIPTION:;
#CHARTSTYLE:;
#DIFFICULTY:Hard;
#METER:14;
#RADARVALUES:0.637139,0.616545,0.111499,0.096633,0.527763,600.000000,585.000000,15.000000,13.000000,0.000000,0.000000,0.000000,0.000000,0.000000,0.637139,0.616545,0.111499,0.096633,0.527763,600.000000,585.000000,15.000000,13.000000,0.000000,0.000000,0.000000,0.000000,0.000000;
#CREDIT:;
#NOTES:
// measure 0
0000
0000
0000
0000
,  // measure 1
0000
0000
0000
0000
,  // measure 2
0000
0000
0000
0000
,  // measure 3
0000
0000
0000
0000
,  // measure 4
1001
0000
1000
0000
0100
0000
0010
0001
0010
0000
0100
0000
1000
0000
0001
0000
,  // measure 5
0100
0000
0000
0000
0100
0000
0010
1000
0010
0000
0100
0000
0001
0000
1000
0000
,  // measure 6
1001
0000
0001
0000
0010
0000
0100
1000
0100
0000
0010
0000
0001
0000
1000
0000
,  // measure 7
0010
0000
0000
0000
0010
0000
0100
0001
0100
0000
0010
0000
1000
0000
0001
0000
,  // measure 8
1001
0000
1000
0000
0001
0000
0010
0100
0010
0000
0001
0000
0100
0000
0010
0000
,  // measure 9
1000
0000
0000
0000
1000
0000
0010
0100
0010
0000
1000
0000
0001
0000
1000
0000
,  // measure 10
1001
0000
0001
0000
1000
0000
0010
0100
0010
0000
1000
0000
0100
0000
0010
0000
,  // measure 11
0001
0000
0000
0000
0001
0000
0010
0100
0010
0000
0001
0000
1000
0000
0010
0000
,  // measure 12
0200
0000
0000
0000
0301
0000
1000
0100
1000
0000
0001
0100
0001
0000
0010
0000
,  // measure 13
0000
0000
0100
0000
1000
0000
0001
0100
0001
0000
1000
0100
1000
0000
0000
0001
,  // measure 14
0100
0000
0010
0000
1000
0000
0001
0100
0000
0001
1000
0001
0000
1000
0100
0000
,  // measure 15
0020
0000
0000
0130
1000
0000
0001
0100
0001
0000
0100
0002
0000
0000
0000
1003
,  // measure 16
0100
0000
0010
0000
0001
1000
0001
0000
0010
0000
0100
1000
0000
0100
1000
0000
,  // measure 17
0000
0000
0010
0000
1000
0000
0001
0000
0010
0000
0001
0100
0000
0001
0100
0000
,  // measure 18
0010
0000
1000
0100
0000
1000
0100
0000
0010
0000
0001
1000
0000
0001
1000
0000
,  // measure 19
0000
0000
0010
0000
1000
0001
1000
0000
0100
0000
0010
0000
0001
0000
1000
0000
,  // measure 20
0001
0000
0010
0100
0010
0000
0001
0000
1000
0000
0010
0100
0010
0000
1000
0000
,  // measure 21
0001
0010
0001
0000
1000
0100
1000
0000
0001
0000
0100
0020
0000
0000
0000
0000
,  // measure 22
1030
0000
0001
0010
0001
0000
0000
1000
0010
0000
1000
0010
0000
0000
0000
0100
,  // measure 23
0001
1000
0000
0001
0010
0000
0001
0010
0000
0000
0100
0000
2000
0000
3000
0000
,  // measure 24
1001
0000
0000
0000
0001
0000
0100
0010
0100
0000
0001
0000
1000
0000
0100
0000
,  // measure 25
0010
0000
0000
0000
0001
0000
1000
0010
1000
0000
0100
0000
0010
0000
0001
0000
,  // measure 26
0100
0000
0001
0000
1000
0000
0000
0000
0100
0000
0010
0001
0000
0100
0001
0000
,  // measure 27
1000
0000
0000
0100
1000
0000
0001
0000
0100
0000
0010
1000
0000
0001
0000
1000
,  // measure 28
0010
0000
0000
0000
1000
0000
0100
0010
0100
0000
1000
0000
0001
0000
0100
0000
,  // measure 29
0010
0000
0000
0000
1000
0000
0001
0010
0001
0000
0100
0000
0010
0000
1000
0000
,  // measure 30
0100
0000
1000
0000
0001
0000
0100
0010
0100
0000
0001
0000
0010
0000
0100
0000
,  // measure 31
1000
0000
0001
0100
0001
0000
1000
0100
1000
0000
0010
0000
1000
0001
1000
0001
,  // measure 32
1000
0000
0100
0010
0001
0010
0100
1000
,  // measure 33
0000
0000
0001
0000
0100
0000
0010
1000
0010
0000
0100
0000
0001
0000
1000
0100
,  // measure 34
0000
1000
0100
0000
0010
0001
1000
0000
0001
0100
0000
0001
0100
0000
0010
0000
,  // measure 35
0000
0000
1000
0001
1000
0000
0100
0000
0010
0000
0001
0000
0100
0000
0001
1000
,  // measure 36
0000
0001
1000
0000
0100
0000
0010
0001
0010
0000
0100
0000
1000
0010
1000
0000
,  // measure 37
0001
0100
0010
1000
0020
0000
0130
0001
,  // measure 38
1000
0100
0000
1000
0100
0000
0010
0000
0001
0000
1000
0010
0000
0000
1000
0000
,  // measure 39
0001
0000
0010
0100
0000
1000
0000
0100
0010
0000
0000
0000
0001
0000
1000
0000
,  // measure 40
1001
0000
0001
0100
0001
0000
1000
0000
0010
0000
1000
0100
1000
0000
0001
0000
,  // measure 41
0010
0100
0010
0000
0001
1000
0001
0000
0100
0000
0010
2000
0000
0000
0000
0000
,  // measure 42
3001
0000
0010
0000
0100
0000
0000
1000
0001
0000
1000
0001
0000
0000
0000
0100
,  // measure 43
0010
0100
0000
0001
1000
0000
0001
1000
0000
0000
0000
0000
0100
0000
0010
0000
,  // measure 44
1001
0000
1000
0100
1000
0000
0001
0000
0010
0000
0001
0100
0001
0000
1000
0000
,  // measure 45
0010
0100
0010
0000
1000
0001
1000
0000
0100
0000
0010
0002
0000
0000
0000
0000
,  // measure 46
1003
0000
0010
0000
0100
0000
0000
0001
1000
0000
0001
1000
0000
0000
0000
0100
,  // measure 47
0010
0100
0000
1000
0001
0000
1000
0001
0000
0000
0100
0000
0001
1000
0001
0000
,  // measure 48
1001
0000
0000
0000
1000
0000
0100
0010
0100
0000
1000
0000
0001
0000
0100
0000
,  // measure 49
0010
0000
0000
0000
1000
0000
0001
0010
0001
0000
0100
0000
0010
0000
1000
0000
,  // measure 50
0100
0000
1000
0000
0001
0000
0000
0000
0100
0000
0010
1000
0000
0100
1000
0000
,  // measure 51
0001
0000
0000
0100
0001
0000
1000
0000
0100
0000
0010
0001
0000
1000
0000
0001
,  // measure 52
0010
0000
0000
0000
0001
0000
0100
0010
0100
0000
0001
0000
1000
0000
0100
0000
,  // measure 53
0010
0000
0000
0000
0001
0000
1000
0010
1000
0000
0100
0000
0010
0000
0001
0000
,  // measure 54
0100
0000
0001
0000
1000
0000
0100
0010
0100
0000
1000
0000
0010
0000
0100
0000
,  // measure 55
0001
0000
1000
0100
0010
0001
0010
0100
,  // measure 56
1000
0000
1000
0000
0000
0000
0001
0100
0010
0000
1000
0000
0000
0000
0100
0000
,  // measure 57
1000
0000
1000
0000
0000
0000
0001
0100
0010
0000
1000
0000
2001
0000
0000
0000
,  // measure 58
3001
0000
0001
0000
0000
0000
1000
0100
0010
0000
0001
0000
0000
0000
0100
0000
,  // measure 59
0001
0000
0001
0000
0000
0000
1000
0100
0010
0000
0001
0000
1002
0000
0000
0000
,  // measure 60
0103
0000
0100
0000
0000
0000
0010
1000
0001
0000
0010
0000
0000
0000
0001
0000
,  // measure 61
0100
0000
0100
0000
0000
0000
0010
1000
0001
0000
0010
0000
2001
0000
0000
0000
,  // measure 62
3100
0000
0100
0000
0000
0000
0010
0001
1000
0000
0010
0000
0000
0000
1000
0000
,  // measure 63
0100
0000
0000
0000
0000
0000
0100
0000
0000
0000
0000
0000
0000
0000
0000
0000
0000
0000
0010
0000
0000
0001
0000
0000
1000
0000
0000
0000
0000
0000
0010
0000
0000
0000
0000
0000
0100
0000
0000
0000
0001
0000
0000
0000
0100
0000
0000
0000
,  // measure 64
0001
0000
0010
0100
0010
0000
0001
0000
1000
0000
0010
0100
0010
0000
1000
0000
,  // measure 65
0001
0010
0001
0000
1000
0100
1000
0000
0001
0000
0100
0020
0000
0000
0000
0000
,  // measure 66
1030
0001
1000
0001
1000
0000
0000
0001
0010
0000
0001
0010
0000
0000
0000
0100
,  // measure 67
1000
0001
0000
1000
0010
0000
1000
0010
0000
0000
0000
0000
0100
0000
0001
0000
,  // measure 68
1000
0000
0010
0100
0010
0000
1000
0000
0001
0000
0010
0100
0010
0000
0001
0000
,  // measure 69
1000
0010
1000
0000
0001
0100
0001
0000
1000
0000
0100
0020
0000
0000
0000
0000
,  // measure 70
0031
1000
0001
1000
0001
0000
0000
1000
0010
0000
1000
0010
0000
0000
0000
0100
,  // measure 71
0001
1000
0001
0010
0011
0000
1100
0000
,  // measure 72
1001
1001
0000
0000
0000
0000
0000
0000
;
