#VERSION:0.83;
#TITLE:996;
#SUBTITLE:;
#ARTIST:李化禹;
#TITLETRANSLIT:;
#SUBTITLETRANSLIT:;
#ARTISTTRANSLIT:;
#GENRE:;
#ORIGIN:;
#CREDIT:;
#BANNER:996.png;
#BACKGROUND:996-bg.png;
#PREVIEWVID:;
#JACKET:996-jacket.png;
#CDIMAGE:;
#DISCIMAGE:;
#LYRICSPATH:;
#CDTITLE:cdtitle.png;
#MUSIC:996.ogg;
#OFFSET:-0.392000;
#SAMPLESTART:43.249142;
#SAMPLELENGTH:12.000000;
#SELECTABLE:YES;
#BPMS:0.000=140.000,
100.000=280.000,
104.000=140.000;
#STOPS:100.000=0.215,
101.000=0.215,
102.000=0.215,
103.000=0.215,
252.000=1.290;
#DELAYS:;
#WARPS:34.000=4.000,
252.125=3.000;
#TIMESIGNATURES:0.000=4=4;
#TICKCOUNTS:0.000=4;
#COMBOS:0.000=1;
#SPEEDS:0.000=1.000=0.000=0,
38.000=2.000=2.000=0,
136.000=0.500=7.000=0,
156.000=0.250=2.000=0,
158.000=0.500=2.000=0,
256.000=1.000=2.000=0,
258.000=0.500=0.000=0,
272.000=1.000=2.000=0,
274.000=0.500=0.000=0,
288.000=1.000=2.000=0,
290.000=0.500=0.000=0,
304.000=1.000=2.000=0,
306.000=0.500=0.000=0;
#SCROLLS:0.000=1.000,
34.000=0.500,
100.000=0.250,
104.000=0.500,
136.000=2.000,
176.000=1.500,
192.000=2.000,
259.000=1.000,
263.000=1.500,
264.000=2.000,
275.000=1.000,
280.000=2.000,
291.000=1.000,
295.000=1.500,
296.000=2.000,
307.000=1.000,
312.000=2.000;
#FAKES:;
#LABELS:0.000=Song Start;
#LASTSECONDHINT:146.113007;
#BGCHANGES:;
#KEYSOUNDS:;
#ATTACKS:
;

//---------------dance-single - ----------------
#NOTEDATA:;
#CHARTNAME:;
#STEPSTYPE:dance-single;
#DESCRIPTION:;
#CHARTSTYLE:;
#DIFFICULTY:Hard;
#METER:14;
#RADARVALUES:0.569880,0.941524,0.403706,0.253172,0.879258,583.000000,524.000000,59.000000,37.000000,336.000000,0.000000,6.000000,0.000000,17.000000,0.569880,0.941524,0.403706,0.253172,0.879258,583.000000,524.000000,59.000000,37.000000,336.000000,0.000000,6.000000,0.000000,17.000000;
#CREDIT:Pilgrimsito;
#NOTES:
// measure 0
0000
0000
0000
0000
,  // measure 1
0000
0000
0000
0000
,  // measure 2
0000
0000
0000
0000
,  // measure 3
0000
0000
0000
0000
,  // measure 4
0000
0000
0000
0000
,  // measure 5
2000
0000
3010
0010
0200
0000
0310
0000
,  // measure 6
2000
0001
3001
0000
0020
0000
0130
0000
,  // measure 7
0020
0000
0031
0001
2000
0010
3010
1000
,  // measure 8
0002
0000
1003
1000
0110
0000
0000
0000
,  // measure 9
M00M
0000
0000
0000
000M
00M0
000M
0000
M000
0000
0M00
0000
0000
0000
0000
0000
,  // measure 10
1001
0000
0000
0000
0001
0010
0001
0000
1000
0000
0100
0000
1000
0010
1000
0000
,  // measure 11
0001
0000
0100
0000
0001
0010
0001
0000
1000
0100
0010
0000
0100
0000
1000
0000
,  // measure 12
1001
0000
0001
0100
1000
0100
0010
1000
,  // measure 13
0100
0000
0010
0001
0101
0000
0110
0000
,  // measure 14
1001
0000
0000
0000
1000
0100
1000
0000
0001
0000
0010
0000
0001
0100
0001
0000
,  // measure 15
1000
0000
0010
0000
1000
0100
1000
0000
0001
0010
0100
0000
0010
0000
0001
0000
,  // measure 16
1001
0000
1000
0010
0001
0010
0100
0001
,  // measure 17
0010
0000
0100
1000
1020
0000
0130
0000
,  // measure 18
0002
0003
0010
0000
0100
0000
0010
0000
0100
0000
0010
0000
0100
0000
0010
0000
,  // measure 19
2000
3000
0010
0000
0100
0000
0010
0000
0100
0000
0010
0000
0100
0000
1000
0001
,  // measure 20
2000
3000
0010
0000
0100
0000
0010
0000
0100
0000
0010
0000
0100
0000
0010
0000
,  // measure 21
0002
0003
0010
0000
0100
0000
0010
0000
0100
0000
0010
0000
0100
0000
0001
1000
,  // measure 22
0001
0010
0100
1000
0010
0100
0001
0100
0010
1000
0100
0010
,  // measure 23
0001
0010
0100
1000
0010
0100
0001
0100
0010
1000
0100
0010
,  // measure 24
0001
0100
0001
1000
0100
1000
0001
0010
0001
1000
0010
1000
,  // measure 25
M001
M000
M000
M000
00M0
00M0
00M0
00M0
0M00
0M00
0M00
0M00
000M
000M
000M
000M
,  // measure 26
1000
0100
0010
0100
1000
0000
0001
0100
0010
0100
0001
0000
,  // measure 27
1000
0100
0001
0100
1000
0000
0001
0100
1000
0100
0010
0100
,  // measure 28
0001
0010
0100
1000
0001
0000
1000
0010
0100
0001
1000
0000
,  // measure 29
0001
0000
0000
0000
0010
0000
0000
0000
0100
0000
0000
0000
1000
0000
0000
0000
0001
0000
0000
0000
0000
0000
0000
0000
M00M
0000
0000
M00M
0000
0000
0MM0
0000
0000
0MM0
0000
0000
MMMM
0000
0000
0MM0
0000
0000
0MM0
0000
0000
0000
0000
0000
,  // measure 30
1000
0010
0100
0010
1000
0000
0001
0010
0100
0010
0001
0000
,  // measure 31
1000
0010
0001
0010
1000
0000
0001
0010
1000
0010
0100
0010
,  // measure 32
0001
0100
0010
1000
0001
0000
1000
0100
0010
0001
1000
0000
,  // measure 33
0001
0000
0000
0000
0100
0000
0000
0000
0010
0000
0000
0000
1000
0000
0000
0000
0001
0000
0000
0000
0000
0000
0000
0000
0020
0000
0000
0030
0000
0000
0000
0000
0000
0000
0000
0000
0000
0000
0000
0000
0000
0000
0000
0000
0000
0000
0000
0000
,  // measure 34
2MM2
0MM0
0MM0
0MM0
0MM0
0MM0
0MM0
0MM0
0MM0
0MM0
0MM0
0MM0
0MM0
0MM0
0MM0
0MM0
,  // measure 35
0MM0
0MM0
0MM0
0MM0
0MM0
0MM0
0MM0
0MM0
0MM0
0MM0
0MM0
0MM0
3MM3
0000
0000
0000
,  // measure 36
0201
0000
0000
1000
0000
0000
0301
1000
0100
0010
0100
1000
,  // measure 37
1020
0000
0000
0001
0000
0000
1030
0001
0010
0100
0010
0001
,  // measure 38
0201
0000
0000
1000
0000
0000
0301
1000
0100
0010
0100
1000
,  // measure 39
2MM2
0MM0
0MM0
0MM0
0MM0
0MM0
0MM0
0MM0
0MM0
0MM0
0MM0
0MM0
0MM0
0MM0
3MM3
0000
,  // measure 40
0021
0000
0000
1000
0000
0000
0031
1000
0010
0100
0010
1000
,  // measure 41
1200
0000
0000
0001
0000
0000
1300
0001
0100
0010
0100
0001
,  // measure 42
0021
0000
0100
0100
0031
1000
0010
0100
,  // measure 43
0201
0000
0010
0010
0302
0003
2000
3000
,  // measure 44
1100
1100
0000
1010
0000
1001
1001
0000
,  // measure 45
MMMM
0000
MMMM
0000
,  // measure 46
0101
0101
0000
0011
0000
1001
0000
0000
,  // measure 47
MMMM
0000
0000
0000
MMMM
0000
0010
0010
,  // measure 48
1001
0000
1000
0000
0100
0010
0100
0000
1000
0000
0001
0000
0100
0010
0100
0000
,  // measure 49
0001
0000
1000
0000
0100
0010
0100
0000
1000
0001
1000
0000
0010
0000
0100
0000
,  // measure 50
0110
0010
1000
0010
0001
0010
0100
0001
,  // measure 51
0010
0000
0100
0000
1000
0000
0001
0100
0001
0100
0001
0000
0110
0000
0000
0000
,  // measure 52
1001
0000
1000
0000
0001
0100
0010
0000
0100
0000
0001
0000
1000
0100
0010
0000
,  // measure 53
0100
0000
1000
0000
0001
0100
0010
0000
0010
0100
0001
0000
0010
0000
0100
0000
,  // measure 54
0110
0010
0001
0100
1000
0100
0010
1000
,  // measure 55
0100
0000
0010
0000
0001
0000
1000
0010
1000
0010
1000
0000
0110
0000
0000
0000
,  // measure 56
1001
0000
0001
0000
0010
0100
0010
0000
0001
0000
1000
0000
0010
0100
0010
0000
,  // measure 57
1000
0000
0001
0000
0010
0100
0010
0000
0001
1000
0001
0000
0100
0000
0010
0000
,  // measure 58
0110
0100
0001
0100
1000
0100
0010
1000
,  // measure 59
0100
0010
0001
0001
1000
0000
1010
0000
,  // measure 60
1001
0000
0001
0100
0010
0100
0001
0000
1001
0000
1000
0100
0010
0100
1000
0000
,  // measure 61
1001
0000
1000
0010
0100
0010
1000
0000
1001
0000
0001
0010
0100
0010
0001
0000
,  // measure 62
1001
0000
0101
0101
0000
1100
1100
0000
1001
1001
0000
0110
,  // measure 63
0110
0000
0000
0001
1000
0001
1000
0001
1000
0001
1000
0001
1000
0000
0000
0000
0000
0000
0000
0000
0000
0000
0000
0000
,  // measure 64
2002
0000
0000
0000
0000
0000
0000
3003
0110
0000
0000
0000
2MM4
0MM0
0MM0
0MM0
,  // measure 65
0MM0
0MM0
0MM0
0MM0
0MM0
0MM0
0MM0
0MM0
0MM0
0MM0
0MM0
0MM0
0MM0
0MM0
3MM3
0000
,  // measure 66
1000
0100
1000
0010
0100
0000
0001
0100
0001
0010
0100
0000
,  // measure 67
1000
0010
1000
0100
1000
0000
0001
0010
0001
0100
0001
0000
,  // measure 68
1200
0000
0000
0000
0000
0000
0000
0000
0000
0000
0000
0000
0000
0000
0000
0000
0000
0000
0000
0000
0000
0000
0000
0000
0310
0000
0000
0000
0000
0000
0000
0000
0000
0000
0000
0000
M40M
0000
0000
M00M
0040
0000
M00M
0000
0000
M00M
0000
0000
,  // measure 69
M00M
M00M
M00M
M00M
M00M
M00M
M00M
M00M
M00M
M00M
M00M
M00M
M00M
M00M
M33M
0000
,  // measure 70
0110
0000
0000
0001
0010
0100
0001
0100
1000
0010
0100
1000
,  // measure 71
0100
0000
0010
0000
1000
0000
0100
0000
0010
0000
0001
0000
0100
0000
0010
0000
1000
0000
0200
0000
0000
0300
0000
0000
,  // measure 72
2002
0000
0000
0000
0000
0000
0000
3003
0110
0000
0000
0000
4MM2
0MM0
0MM0
0MM0
,  // measure 73
0MM0
0MM0
0MM0
0MM0
0MM0
0MM0
0MM0
0MM0
0MM0
0MM0
0MM0
0MM0
0MM0
0MM0
3MM3
0000
,  // measure 74
1001
0000
0000
1000
0100
0000
1000
0010
0100
0001
1000
0000
,  // measure 75
0001
0010
0000
1000
0010
0000
0001
0010
0000
1000
0010
0000
,  // measure 76
0021
0000
0000
0000
0000
0000
0000
0000
0000
0000
0000
0000
0000
0000
0000
0000
0000
0000
0000
0000
0000
0000
0000
0000
0130
0000
0000
0000
0000
0000
0000
0000
0000
0000
0000
0000
M04M
0000
0000
M00M
0400
0000
M00M
0000
0000
M00M
0000
0000
,  // measure 77
M00M
M00M
M00M
M00M
M00M
M00M
M00M
M00M
M00M
M00M
M00M
M00M
M00M
M00M
M33M
0000
,  // measure 78
0110
0000
0000
1000
0100
0010
1000
0010
0001
0100
0010
0001
,  // measure 79
0010
0000
0100
0000
0001
0000
0010
0000
0100
0000
1000
0000
0010
0000
0100
0000
0001
0000
0020
0000
0000
0030
0000
0000
,  // measure 80
0110
0000
0000
0000
MMM2
M0M0
M0M0
MMM0
00M0
00M0
00M0
MMM0
0000
0000
0000
0000
,  // measure 81
0000
0000
0000
0000
MMM0
M0M0
M0M0
MMM0
00M0
00M0
MMM0
0000
0000
0000
0000
0000
,  // measure 82
0000
0000
0000
0000
MMM0
M000
M000
MMM0
M0M0
M0M0
MMM0
0000
0000
0000
0000
0000
,  // measure 83
0000
0000
0000
0000
,  // measure 84
0000
0000
0000
0000
,  // measure 85
0000
0000
0000
0000
,  // measure 86
0003
0000
0000
0000
;
