#TITLE:{albus};
#SUBTITLE:;
#ARTIST:かめりあ;
#TITLETRANSLIT:albus;
#SUBTITLETRANSLIT:;
#ARTISTTRANSLIT:Camellia;
#GENRE:;
#CREDIT:;
#MUSIC:albus.ogg;
#BANNER:albus.png;
#BACKGROUND:;
#CDTITLE:;
#SAMPLESTART:78.840;
#SAMPLELENGTH:15.000;
#SELECTABLE:YES;
#OFFSET:-0.052;
#BPMS:0.000=198.000
,252.000=99.000
,256.000=198.000
,262.000=396.000
,264.000=198.000
,269.000=396.000
,272.000=198.000
,278.000=396.000
,280.000=198.000
,286.000=396.000
,288.000=99.000
,288.500=198.000
,293.500=396.000
,295.500=99.000
,296.000=198.000
,299.000=396.000
,303.000=198.000
,306.000=99.000
,306.500=198.000
,309.500=99.000
,310.000=198.000
,350.000=99.000
;
#STOPS:262.000=0.038
,262.250=0.038
,262.500=0.038
,262.750=0.038
,263.000=0.038
,263.250=0.038
,263.500=0.038
,263.750=0.038
,269.000=0.038
,269.250=0.038
,269.500=0.038
,269.750=0.038
,270.000=0.038
,270.250=0.038
,270.500=0.038
,270.750=0.038
,271.000=0.038
,271.250=0.038
,271.500=0.038
,271.750=0.038
,278.000=0.038
,278.250=0.038
,278.500=0.038
,278.750=0.038
,279.000=0.038
,279.250=0.038
,279.500=0.038
,279.750=0.038
,286.000=0.038
,286.250=0.038
,286.500=0.038
,286.750=0.038
,287.000=0.038
,287.250=0.038
,287.500=0.038
,287.750=0.038
,293.500=0.038
,293.750=0.038
,294.000=0.038
,294.250=0.038
,294.500=0.038
,294.750=0.038
,295.000=0.038
,295.250=0.038
,299.000=0.038
,299.250=0.038
,299.500=0.038
,299.750=0.038
,300.000=0.038
,300.250=0.038
,300.500=0.038
,300.750=0.038
,301.000=0.038
,301.250=0.038
,301.500=0.038
,301.750=0.038
,302.000=0.038
,302.250=0.038
,302.500=0.038
,302.750=0.038
;
#DISPLAYBPM:99.000:198.000;
#BGCHANGES:;
#FGCHANGES:;

//--------------- dance-single - PenTA ----------------
#NOTES:
     dance-single:
     PenTA:
     Beginner:
     7:
     0,0,0,0,0:
0000
0000
0000
0000
,
0000
0000
0000
0000
,
0000
0000
0000
0000
,
0000
0000
0000
0000
,
0000
0000
0000
0000
,
0001
0000
0000
1000
0000
0000
2002
0000
,
0000
0000
0000
0000
,
0000
0000
0000
0000
,
0000
0000
3003
0000
,
1000
0000
0010
0000
,
1000
0000
0010
0010
,
1000
0010
1000
0100
,
0010
0000
0100
0000
,
1000
1000
0010
0000
,
0100
0100
0001
0000
,
1000
0001
1000
0001
,
0010
0001
0010
0000
,
0001
0100
0001
0100
,
0010
0000
0000
0000
,
1000
0000
0100
0000
,
0001
0100
1000
0000
,
1000
0010
1000
0010
,
0100
0000
0000
0000
,
0001
0000
0000
1000
0000
0000
0000
2002
,
0000
0000
3003
0000
,
1000
0100
1000
0100
,
0010
0000
0000
0000
,
0001
0000
0100
0000
,
1000
0100
0001
0000
,
0001
0010
0001
0010
,
0100
0000
0000
0000
,
1000
0000
0000
0001
0000
0000
0000
2002
,
0000
0000
0000
3003
,
2000
0000
0000
3000
,
0020
0000
0000
0030
,
0200
0000
0000
0300
,
0002
0000
0000
0003
,
1000
0000
0100
0000
,
1000
0000
0100
0000
,
0010
0000
0001
0000
,
0010
0010
0001
0001
,
1000
1000
0010
0010
,
1000
1000
1000
0100
,
0020
0000
0000
0000
,
0030
0000
0000
0000
,
0200
0000
0000
0000
,
0300
0000
0000
0000
,
1000
0010
1000
0010
,
0100
0001
0100
0001
,
1000
1000
0100
0100
,
1000
0100
1000
0000
,
0002
0000
0000
0200
,
0000
0000
0303
0000
,
2000
0000
0000
0200
,
0000
0000
3300
0000
,
2000
0000
0000
0002
,
0000
0000
3003
0000
,
0001
0100
0001
0100
,
0001
0010
0010
0000
,
0001
0010
0001
0010
,
0100
0100
0100
0000
,
1000
0010
0100
0001
,
1000
0000
0000
1001
0000
0000
0000
0000
,
2002
0000
0000
3003
,
0001
0001
0010
0001
,
0100
0001
0200
0000
,
0310
0010
1000
0010
,
2000
0000
0000
0000
,
3001
0010
1000
0000
,
1000
0010
0001
0000
,
0001
0100
0010
1000
,
2002
0000
0000
0000
,
3003
0001
0000
0010
0000
0001
0000
0010
,
0000
0100
0000
2000
0000
0000
0000
3000
,
1000
0010
0100
0220
,
0000
0330
0000
0100
,
0100
0000
0010
0000
0000
1000
0000
1000
,
0000
0001
0000
0000
0010
0000
0100
0000
,
0010
0100
0220
0000
,
0330
0000
0001
0000
,
0010
0000
0001
0000
,
0100
0100
0001
0100
,
0100
0010
1000
0000
,
0001
0000
1000
0000
,
0100
0000
1000
0000
,
0100
0100
1000
0100
,
0010
0001
0010
0001
,
1000
0000
2002
0000
,
0000
0000
0000
0000
,
3003
0000
0000
0000
0020
0000
0000
0200
,
0000
0000
0330
0000
1000
1000
0100
0100
,
0010
0001
0001
0001
0000
0000
0000
0000
;

//--------------- dance-single - PenTA ----------------
#NOTES:
     dance-single:
     PenTA:
     Easy:
     10:
     0,0,0,0,0:
0000
0000
0000
0000
,
0000
0000
0000
0000
,
0000
0000
0000
0000
,
0000
0000
0000
0000
,
0000
0000
0000
0000
,
1000
0000
0000
0001
0000
0000
2002
0000
,
0000
0000
0000
0000
,
0000
0000
0000
0000
,
0000
0000
3003
0000
,
1000
0100
1000
0100
,
0010
0001
0010
0001
,
1000
1000
0001
0001
,
1000
0001
1001
0000
,
1000
0010
1000
0010
,
0100
0001
0100
0001
,
1000
0100
1000
0000
0001
0100
0001
0000
,
1000
0001
2002
3003
,
1000
0010
1000
0010
,
0100
0000
0001
0000
0100
0001
0100
0000
,
0001
0000
0000
0010
0000
0000
0100
0000
,
1000
0100
1000
0000
0100
0020
0000
0000
,
0031
0000
0100
0000
0001
0000
0100
0010
,
0100
0010
1000
0001
,
1000
1000
0000
0001
0000
1000
0000
2002
,
0000
0000
3003
0000
,
1000
0000
0100
0000
1000
0100
0000
0010
,
0000
0001
0010
0000
0001
0000
0001
0000
,
0100
0000
0100
0010
0000
0010
0000
0100
,
0010
1000
0001
0010
,
0100
0000
0100
0000
0010
0001
0000
0100
,
0000
0020
0000
0000
0000
0000
0030
0000
,
1000
0100
0000
0100
0000
1000
0010
0200
,
0000
0000
0000
0300
,
0002
0000
0023
0000
,
0230
0000
2300
0000
,
3020
0000
0230
0000
,
0301
0001
1000
1000
,
0001
0010
0011
0000
,
1000
0010
1010
0000
,
0001
0100
0101
0000
,
1000
0100
1000
0100
,
0010
0001
0010
0001
,
0100
0100
0010
0010
,
2000
0000
0000
0000
,
3002
0000
0000
0000
,
0203
0000
0000
0000
,
0320
0000
0000
0000
,
1030
1000
0100
1000
,
0100
0100
0010
0100
,
0010
0010
0001
0010
,
1000
0010
0001
0000
,
0202
0000
0303
2020
,
0000
0000
3030
0000
,
2200
0000
3300
0022
,
0000
0000
0033
0000
,
0220
0000
0330
2002
,
0000
0000
3003
0000
,
1000
1000
0010
0010
,
0100
0001
0100
0000
,
0001
0001
0010
0010
,
0100
1000
0100
0000
,
1000
0010
0001
0010
,
1000
0000
0000
1001
0000
0000
0000
0000
,
0002
0000
2003
0000
,
3001
0001
0100
0001
,
0100
0010
2000
0000
,
3001
0001
0010
0100
,
1000
0002
0000
0000
,
1003
1000
0100
0100
,
0010
0010
0002
0000
,
0013
0001
0100
0010
,
0110
0000
0000
2002
0000
0000
0000
0000
,
3003
1000
0000
0010
0000
1000
0000
0010
,
0001
0010
0000
2000
0000
3002
0000
0000
,
1003
0010
0100
0002
,
0000
2003
0000
3001
,
0100
0000
0001
0100
0002
1003
0000
0100
,
0000
1000
0100
2000
3100
0000
0100
0000
,
0010
0000
0010
0000
0110
0000
0000
2002
,
0000
3003
1000
0100
,
1000
0100
0010
0001
,
0010
0001
1000
0010
,
0001
0010
1000
1000
,
1000
0000
0001
0100
,
0001
0100
0010
1000
,
0010
1000
0001
0010
,
1000
0010
0001
0001
,
0001
0000
0000
0000
0000
0000
0000
0000
1000
0000
0000
0001
0000
0000
2002
0000
,
0000
0000
3003
0000
0001
0001
0100
0010
,
1000
0000
0000
0000
0000
0000
1000
0000
0002
0000
0000
0023
0000
0000
0230
0000
,
0000
0000
0000
0000
0300
0000
0000
0000
1000
0100
1000
0000
0001
0010
0001
0000
,
0100
0010
0100
0010
0100
0000
1001
0000
0000
0000
0000
0000
0000
0000
0000
0000
;

//--------------- dance-single - PenTA ----------------
#NOTES:
     dance-single:
     PenTA:
     Medium:
     14:
     0,0,0,0,0:
0000
0000
0000
0000
,
0000
0000
0000
0000
,
0000
0000
0000
0000
,
0000
0000
0000
0000
,
0000
0000
0000
0000
,
0002
0000
0000
0010
0000
0000
2000
0000
,
0000
0000
0000
0000
,
0000
0000
0000
0000
,
0000
0000
3003
0000
,
1000
0100
1000
0100
,
0010
0001
0010
0001
,
1000
0010
1000
0010
,
0100
0001
0100
0001
,
1000
0001
1000
0001
0100
0010
1000
0000
,
0001
1000
0001
1000
0100
0010
0001
0000
,
1000
0010
1000
0010
0100
0001
0100
0001
,
1000
0100
0001
0100
1000
0000
1001
0000
,
0001
0100
0001
0100
0010
1000
0100
0010
,
0000
1002
0000
0100
0000
0100
0103
0010
,
1000
0010
1000
0100
0000
0010
0100
1000
,
0000
0010
0100
1000
0100
0002
0000
0000
,
1003
0100
1000
0100
0010
0001
0100
0010
,
0000
2001
0000
0100
0000
0100
3100
0010
,
0001
0020
0000
0032
0000
0103
0010
0200
,
0000
0000
0300
0000
,
0010
1000
0010
1000
0100
0010
0001
1000
,
0000
0000
0000
1002
0000
0000
0000
0000
0000
0010
0000
0000
0000
0000
0000
1003
0000
0000
1000
0000
0100
0000
1000
0000
,
0100
0010
0001
0100
0000
0010
0100
0010
,
1000
0000
0001
0100
0001
0000
0010
0000
1000
0000
0010
0000
0002
0000
0000
0000
,
1003
0100
1000
0010
1000
0001
0100
0010
,
0000
2001
0000
0010
0000
0001
3001
0100
,
0010
1000
0000
1010
0000
0001
0010
0200
,
0000
0000
0000
0300
,
0020
0000
0000
1000
0000
0001
0001
0000
,
0230
0000
0001
0001
0000
0010
0000
1000
,
2300
0000
0010
0000
0001
0001
0000
3002
,
0000
0010
0010
0000
0100
0000
0103
0000
,
0010
0010
0100
0010
1000
0100
1000
0010
,
0100
0100
0010
0100
0001
0010
0001
0100
,
0010
1000
0010
0100
0010
0001
0010
1000
,
0001
1000
0001
1000
0100
0001
0100
1000
,
0001
0010
0001
0010
0001
0100
1000
0001
,
0010
1000
0010
1000
0100
0010
0001
1000
,
0020
0000
0000
0000
,
0230
0000
0000
0000
,
0302
0000
0000
0000
,
2003
0000
0000
0000
,
3100
0000
0100
0000
0010
0001
0010
0001
,
0100
0000
0100
0000
0010
1000
0010
1000
,
0100
1000
0100
1000
0010
1000
0010
1000
,
0100
0001
0100
1000
0010
0100
0001
1000
,
0010
0000
0000
0010
0000
0000
0110
0000
0000
0000
1000
0000
0000
0001
0000
0000
,
2002
0000
0000
3003
,
0010
0000
0000
0010
0000
0000
0110
0000
0000
0000
1000
0000
0000
1000
0000
0000
,
0001
0000
0000
2002
0000
0000
0000
0000
0000
0000
0000
0000
3003
0000
0000
0000
,
1000
0000
0000
0100
0000
0000
1100
0000
0000
0000
0001
0000
0000
0001
0000
0000
,
0010
0000
0000
0001
0000
0000
0022
0000
0000
0000
0000
0000
0030
0000
0000
0000
,
1003
1000
0010
0010
,
0100
0000
0000
0100
0000
0000
0002
0000
0000
1003
0100
0010
,
0001
0001
0100
0100
,
0010
0000
0010
0000
2000
0000
3001
0100
,
0010
1000
0010
1000
0010
0001
0010
0001
,
0010
0000
0000
1000
0000
0000
1001
0000
0000
0000
0000
0000
0000
0000
0000
0000
,
0002
0000
0000
0000
0023
0000
0000
0000
0230
0000
0000
0000
1300
0001
1001
0000
,
0001
0100
0010
0100
0001
0010
0100
0010
,
0001
0000
0000
0000
0000
0000
0000
0000
1000
0000
0000
0000
0000
0000
0000
0000
0100
0000
0000
0000
0000
0000
0000
0000
0001
0000
0000
0000
0000
0000
0000
0000
2000
3000
0000
0000
0000
0000
0000
0000
0020
0030
0000
0000
0000
0000
0000
0000
0002
0003
0000
0000
0000
0000
0000
0000
2000
3000
0000
0000
0000
0000
0000
0000
,
0010
0100
0010
0100
0001
1000
0100
0010
,
0100
0000
0000
0000
0000
0000
0000
0000
0010
0000
0000
0000
0000
0000
0000
0000
0002
0003
0000
0000
0000
0000
0000
0000
0200
0300
0000
0000
0000
0000
0000
0000
2000
3000
0000
0000
0000
0000
0000
0000
0200
0300
0000
0000
0000
0000
0000
0000
0002
0003
0000
0000
0000
0000
0000
0000
0200
0300
0000
0000
0000
0000
0000
0000
,
0010
1000
0010
1000
0010
0001
1000
0100
,
0001
0000
0000
0000
0000
0000
0000
0000
0100
0000
0000
0000
0000
0000
0000
0000
0001
0000
0000
0000
0000
0000
0000
0000
1000
0000
0000
0000
0000
0000
0000
0000
0200
0300
0000
0000
0000
0000
0000
0000
0020
0030
0000
0000
0000
0000
0000
0000
0200
0300
0000
0000
0000
0000
0000
0000
0020
0030
0000
0000
0000
0000
0000
0000
,
0001
0000
0100
0000
0010
0000
1000
0000
0100
0000
0010
0000
0000
0001
0000
0000
,
1001
0000
0000
0000
0000
0000
0000
0000
0000
0000
0000
0000
0110
0000
0000
0000
0000
0000
0000
0000
0000
0000
0000
0000
1001
0000
0000
0000
0000
0000
0000
0000
0002
0003
0000
0000
0000
0000
0000
0000
2000
3000
0000
0000
0000
0000
0000
0000
0200
0300
0000
0000
0000
0000
0000
0000
0020
0030
0000
0000
0000
0000
0000
0000
,
0002
0000
1003
0000
0000
0010
0000
0000
0001
0000
0000
1000
0000
0000
0100
0000
,
0001
0000
0000
0000
0000
0000
0000
0000
0100
0000
0000
0000
0000
0000
0000
0000
0001
0000
0000
0000
0000
0000
0000
0000
2000
3000
0000
0000
0200
0300
0000
0000
2000
3000
0000
0000
0000
0000
0000
0000
0002
0003
0000
0000
0200
0300
0000
0000
0002
0003
0000
0000
0000
0000
0000
0000
2000
0000
0000
0000
0000
0000
0000
0000
,
0010
0000
3000
0000
0000
0000
0000
0000
0000
0000
0000
0000
0001
0000
0000
0000
0000
0000
0000
0000
0000
0000
0000
0000
1000
0000
0000
0000
0000
0000
0000
0000
0000
0000
0000
0000
0100
0000
0000
0000
0000
0000
0000
0000
0000
0000
0000
0000
0002
0003
0000
0000
0020
0030
0000
0000
0002
0003
0000
0000
0000
0000
0000
0000
,
0020
0030
0000
0000
0000
0000
0000
0000
0200
0300
0000
0000
0000
0000
0000
0000
2000
3000
0000
0000
0200
0300
0000
0000
2000
3000
0000
0000
0000
0000
0000
0000
0200
0300
0000
0000
0000
0000
0000
0000
0020
0030
0000
0000
0000
0000
0000
0000
0001
0000
0000
0000
0100
0000
0000
0000
0000
0000
0000
0000
0001
0000
0000
0000
,
0100
0000
0010
1000
0000
0010
1000
0000
0002
0000
1003
0000
0000
0100
0000
0010
,
0000
0001
0010
0000
0001
0000
2000
0000
3010
0100
0000
0010
0100
0000
0010
0100
,
0000
0000
0010
0000
0000
1000
0000
0000
1001
0000
0000
0110
0000
0000
2002
0000
,
0000
0000
3003
0000
0001
0100
0010
0100
,
0001
0001
0010
0001
0100
0010
1000
0010
,
0100
0001
1000
0100
0010
1000
0010
1000
,
0001
0100
0001
0100
1000
0100
1000
0100
,
0010
0010
0001
0000
1000
0100
0010
0100
,
1000
1000
0010
1000
0100
0010
0001
0010
,
0100
1000
0001
0100
0010
0001
0010
0001
,
1000
0100
1000
0100
0001
0100
0001
0100
,
0010
0000
0010
0000
1000
0000
0000
0000
2000
0000
0000
0010
0000
0000
0002
0000
,
0000
0000
3003
0000
1000
1000
0100
0010
0001
0001
0100
0010
1000
0100
0001
0100
,
1000
0000
0000
0000
0000
0010
0100
0001
2000
0000
0000
0100
0000
0000
0002
0000
,
0000
0000
0000
0000
0000
0000
3003
0000
1000
1000
0100
1000
0100
0010
0001
0001
,
0010
0001
0100
1000
0001
0010
1000
0001
0000
0000
0000
0000
0000
0000
0000
0000
;

//--------------- dance-single - PenTA ----------------
#NOTES:
     dance-single:
     PenTA:
     Hard:
     18:
     0,0,0,0,0:
0000
0000
0000
0000
,
0000
0000
0000
0000
,
0000
0000
0000
0000
,
0000
0000
0000
0000
,
0000
0000
0000
0000
0000
0001
0100
0010
,
1000
0000
0000
1010
0000
0000
0202
0000
,
0000
0000
0300
0000
,
2000
0000
0000
0000
,
0000
0000
0000
3003
,
1000
1000
0100
0010
,
0001
0000
0001
0000
1000
0001
1000
0001
,
1000
0010
1000
0000
0001
0010
0001
0000
1000
0100
1000
0000
0001
0100
0001
0000
,
0100
0010
1000
0001
2000
0000
3100
0010
,
0001
0100
0001
0100
0010
1000
0100
0100
,
1000
0010
1000
0010
0100
0001
0010
0010
,
0001
1000
0100
0000
0010
0001
1000
0000
0001
0100
0010
0000
1000
0100
0010
0000
,
0001
1000
0001
1000
0001
1000
0001
1000
0001
0000
0000
0000
1001
0000
0000
0000
,
0001
0100
0010
0000
1000
0001
1000
0001
1000
0000
0100
0000
0010
0000
0011
0000
,
0000
0000
0102
0000
0000
0000
0103
0000
0010
0000
1000
0000
0010
0000
1000
0100
,
1000
0100
0001
0200
0000
0310
0001
1000
,
0001
1000
0001
0000
0100
0000
1000
0000
0100
0000
0002
0000
0000
0000
0000
0000
,
1003
0010
0100
0000
0001
1000
0001
1000
0001
0000
0010
0000
0100
0000
1100
0000
,
0000
0000
2010
0000
0000
0000
3010
0000
0100
0000
0001
0000
0100
0000
0001
1000
,
0100
1100
0000
0011
0000
0001
1000
0002
,
0000
0203
0320
0230
0320
0000
0030
0000
,
1000
0001
0100
0000
0001
0010
0001
0010
0001
0000
1000
0000
0010
0000
0110
0000
,
0000
0000
0000
1002
0000
0000
0000
0000
0000
1003
0000
0000
0100
0000
0000
0010
0000
0000
0001
0000
1000
0000
0001
0000
,
1000
0010
1000
0010
0100
0010
1000
0100
,
0010
0001
0010
0100
1000
0000
0100
0000
1000
0010
0100
0001
0100
0000
0010
0000
,
0100
0001
1000
0000
0100
1000
0100
1000
0100
0000
0010
0000
0001
0000
0011
0000
,
0000
0000
2100
0000
0000
0000
3010
0000
0100
0000
0010
0000
0100
0000
0001
1000
,
0010
1010
0000
0011
0000
0001
1000
2002
,
0000
0000
0000
3003
,
1000
0100
1000
0100
1000
0100
0010
0000
0000
0001
0100
0001
,
0100
0001
0100
0010
0000
0000
1000
0010
1000
0010
0100
0001
,
0100
0001
1000
0001
1000
0100
1000
0100
0010
0100
0010
0001
,
0010
0000
0001
0000
0100
0000
0010
0000
0100
0000
0010
0000
1000
0000
0000
0001
0000
0000
1000
0000
0000
0001
0000
0000
,
1000
0100
1000
0001
0100
0001
0010
0000
0000
0001
0010
0001
,
1000
0010
1000
0100
0000
0000
1000
0001
1000
0001
0100
0010
,
1000
0100
1000
0001
0100
0001
0100
0010
1000
0001
1000
0100
,
0010
0010
0100
0010
0011
0001
0100
0101
,
0001
0101
0010
1000
1100
0100
1100
1000
,
0010
0000
1010
0000
1000
0000
1010
0000
0100
0000
0001
0000
1000
0001
1000
0001
,
2000
0000
0000
0000
,
3200
0000
0000
0000
,
0320
0000
0000
0000
,
0032
0000
0000
0000
,
1003
0010
0100
0001
1000
0001
0100
0010
,
1000
0100
0010
0001
1000
0001
0010
0100
,
1000
0010
1000
0000
0001
0010
0001
0000
1000
0100
1000
0000
0001
0100
0001
0000
,
0100
0000
0010
0000
1000
0100
1000
0100
0010
0001
0010
0001
1000
0000
0000
0000
,
1100
0000
0000
1000
0000
0000
1100
0000
0000
0000
0101
0000
0000
0001
0000
0000
,
0202
0000
0000
0303
,
0011
0000
0000
0001
0000
0000
0011
0000
0000
0000
1010
0000
0000
1000
0000
0000
,
0010
0000
0000
2020
0000
0000
0000
0000
0000
0000
0000
0000
3030
0000
0000
0000
,
1001
0000
0000
1000
0000
0000
1001
0000
0000
0000
0110
0000
0000
0100
0000
0000
,
0110
0000
0000
0010
0000
0000
2002
0000
0000
0000
0000
0000
3003
0000
0000
0000
,
0001
0000
0000
0101
0000
0000
0100
0000
0010
0000
1000
0000
0000
1100
0000
0000
,
1000
0000
0000
0100
0000
0000
0010
0000
0000
0002
0000
0000
0000
0000
0000
0013
0000
0000
0100
0000
1000
0000
0100
0000
,
1000
0000
0000
1100
0000
0000
0100
0000
0010
0000
0001
0000
0000
0101
0000
0000
,
0001
0000
0100
0000
0010
0000
1000
0000
0002
0000
0000
0000
1003
0001
1000
0001
,
0100
0100
0010
0010
1000
1000
0001
0001
,
0011
0000
0000
1100
0000
0000
2002
0000
0000
0000
0000
0000
3003
0000
0000
0000
,
2000
0000
0000
0000
0000
0000
0000
0000
3020
0000
0000
0000
0000
0000
0000
0000
0230
0000
0000
0000
0000
0000
0000
0000
0301
1000
0001
1000
0002
0000
0000
0000
,
1003
0100
0000
1000
0100
0000
1000
0010
1000
0010
1000
0000
0001
0100
0000
0001
,
0100
0000
0000
0000
0000
0000
0000
0000
0001
0000
0000
0000
0010
0000
0000
0000
0000
0000
0000
0000
0001
0000
0000
0000
0000
0000
0000
0000
0010
0000
0000
0000
0200
0300
0000
0000
2000
3000
0000
0000
0200
0300
0000
0000
2000
3000
0000
0000
0002
0003
0000
0000
0200
0300
0000
0000
0002
0003
0000
0000
0200
0300
0000
0000
,
0010
1000
0000
0010
1000
0000
0001
0010
0001
0010
0001
0000
1000
0100
0000
1000
,
0100
0000
0000
0000
0000
0000
0000
0000
0010
0000
0000
0000
0000
0000
0000
0000
0002
0003
0000
0000
0200
0300
0000
0000
0002
0003
0000
0000
0200
0300
0000
0000
0020
0030
0000
0000
2000
3000
0000
0000
0020
0030
0000
0000
2000
3000
0000
0000
0002
0003
0000
0000
2000
3000
0000
0000
0002
0003
0000
0000
2000
3000
0000
0000
,
0001
0010
0000
0010
0100
0000
0100
1000
0000
1000
0001
0000
1000
0001
1000
0000
,
0001
0000
0000
0000
0000
0000
0000
0000
0001
0000
0000
0000
0100
0000
0000
0000
0000
0000
0000
0000
0100
0000
0000
0000
0000
0000
0000
0000
0010
0000
0000
0000
2000
3000
0000
0000
0020
0030
0000
0000
2000
3000
0000
0000
0020
0030
0000
0000
0200
0300
0000
0000
0002
0003
0000
0000
0200
0300
0000
0000
0002
0003
0000
0000
,
1000
0100
0010
0001
1000
0001
1000
0001
0100
0010
1000
0000
0000
0001
0000
0000
,
1001
0000
0000
0000
0000
0000
0000
0000
0000
0000
0000
0000
0110
0000
0000
0000
0000
0000
0000
0000
0000
0000
0000
0000
1001
0000
0000
0000
0000
0000
0000
0000
2000
3000
0000
0000
0200
0300
0000
0000
0020
0030
0000
0000
0002
0003
0000
0000
2000
3000
0000
0000
0020
0030
0000
0000
0200
0300
0000
0000
0002
0003
0000
0000
,
2000
0000
3001
0100
0000
0010
0000
0100
0001
0000
1000
0100
1000
0100
0010
0000
,
0100
0000
0000
0000
1000
0000
0000
0000
0000
0000
0000
0000
0010
0000
0000
0000
0000
0000
0000
0000
0100
0000
0000
0000
0002
0003
0000
0000
2000
3000
0000
0000
0020
0030
0000
0000
2000
3000
0000
0000
0002
0003
0000
0000
0020
0030
0000
0000
0002
0003
0000
0000
2000
3000
0000
0000
0020
0000
0000
0000
0000
0000
0000
0000
,
1030
0000
0000
0000
0001
0000
0000
0000
0000
0000
0000
0000
1000
0000
0000
0000
0000
0000
0000
0000
0100
0000
0000
0000
0010
0000
0000
0000
0000
0000
0000
0000
0100
0000
0000
0000
0010
0000
0000
0000
0000
0000
0000
0000
0001
0000
0000
0000
2000
3000
0000
0000
0020
0030
0000
0000
2000
3000
0000
0000
0020
0030
0000
0000
,
0200
0300
0000
0000
0020
0030
0000
0000
0200
0300
0000
0000
0020
0030
0000
0000
0200
0300
0000
0000
0002
0003
0000
0000
0200
0300
0000
0000
0002
0003
0000
0000
2000
3000
0000
0000
0002
0003
0000
0000
2000
3000
0000
0000
0002
0003
0000
0000
1000
0000
0000
0000
0100
0000
0000
0000
0000
0000
0000
0000
1000
0000
0000
0000
,
0100
0000
0000
0000
0000
0000
1000
0000
0000
0010
0000
0000
0000
0000
0000
1000
0000
0000
0020
0000
0000
0000
0000
0000
1030
0000
0001
0000
1000
0000
0001
0000
0000
0000
0000
0000
0010
0000
0000
0001
0000
0000
0000
0000
0000
0010
0000
0000
,
0000
0000
0001
0000
0100
0000
0001
0000
0200
0000
0000
0000
0310
1000
0010
1000
0001
0000
0100
0000
0001
0000
0100
0000
0001
0000
1000
0000
0100
0000
1000
0000
,
0100
0000
0010
0000
0000
0010
0000
0000
1001
0000
0000
0110
0000
0000
2002
0000
,
0000
0000
3003
0000
0001
0100
0001
0100
,
0010
0100
0010
0100
1000
0100
1000
0100
,
0001
0000
1000
0000
0001
0000
1000
0000
0100
1000
0001
0000
0010
0001
0100
0000
,
0010
1000
0001
0000
0100
0001
1000
0000
0100
0000
0100
0000
0010
0000
0001
0000
,
1000
0001
1000
0000
1001
0000
0000
0000
0001
0000
0010
0000
0001
0000
0010
0000
,
0100
0010
0100
0010
1000
0010
1000
0010
,
0001
0000
1000
0000
0001
0000
1000
0000
0001
0100
0001
0000
0100
0000
0010
0000
,
1000
0100
1000
0000
0100
0000
0010
0000
0001
0100
0001
0100
0010
1000
0010
1000
,
0001
0000
1000
0000
1001
0000
0000
0000
0011
0000
0000
0101
0000
0000
2002
0000
,
0000
0000
0000
0000
3003
0000
0000
0000
1000
0100
1000
0000
0100
0000
0010
0000
0001
0010
0001
0000
0100
0000
0010
0000
1000
0010
0100
0000
0010
0100
0001
0000
,
2000
0000
0000
0000
0000
3001
0010
0100
1000
0000
0000
1100
0000
0000
0022
0000
,
0000
0000
0000
0000
0030
0000
0000
0000
1003
1000
0010
0001
0010
1000
0001
0001
,
0010
0000
1000
0000
0010
0000
0001
0000
1000
0000
0010
0000
0100
0001
1000
0001
1000
0000
0000
0000
0000
0000
0000
0000
0000
0000
0000
0000
0000
0000
0000
0000
;
