#VERSION:0.83;
#TITLE:=El=Dorado=;
#SUBTITLE:;
#ARTIST:かめりあ;
#TITLETRANSLIT:;
#SUBTITLETRANSLIT:;
#ARTISTTRANSLIT:Camellia;
#GENRE:;
#CREDIT:;
#MUSIC:=El=Dorado=.ogg;
#BANNER:=El=Dorado=.png;
#BACKGROUND:=El=Dorado=-bg.png;
#CDTITLE:;
#SAMPLESTART:80.005;
#SAMPLELENGTH:15.000;
#SELECTABLE:YES;
#OFFSET:-0.012;
#BPMS:0.000=180.000;
#STOPS:;
#BGCHANGES:;
#FGCHANGES:;

//--------------- dance-single - chrononical ----------------
#NOTEDATA:;
#STEPSTYPE:dance-single;
#DESCRIPTION:chrononical;
#DIFFICULTY:Beginner;
#METER:8;
#RADARVALUES:0,0,0,0,0;
#NOTES:
0000
0000
0000
0000
,
0000
0000
0000
0000
,
0000
0000
0000
0000
,
0000
0000
0000
0000
,
0000
0000
0000
0000
,
1001
0000
0001
0000
,
0001
0000
0000
0000
0010
0010
0000
0000
,
2002
0000
0000
3003
,
1000
0000
0000
0100
0000
0000
0010
0000
,
0100
1000
0010
0010
,
0100
0001
0010
0010
,
0100
1000
0010
0010
,
0100
0001
0010
0010
,
0100
1000
0010
0100
,
0001
1000
0010
1000
,
0200
0000
0000
0000
,
0300
1000
0001
0100
,
0010
1000
0100
0010
,
0001
1000
1000
0010
,
0100
0001
0001
0001
,
1000
0100
0010
0001
,
0100
0001
0010
0100
,
1000
0001
0001
0100
,
0010
0000
1000
0000
1000
0000
1000
2000
,
0000
3100
0010
0001
,
2000
3010
0200
0310
,
0200
1300
0200
0000
,
0301
1000
0100
0010
,
0001
1000
0020
0000
,
2030
0000
0000
0000
3001
1000
0001
0000
,
0010
0100
1000
0001
,
1000
0000
0020
0000
0130
0000
0001
0002
,
0000
1003
0100
0010
,
0002
0000
0000
0000
1003
0001
1000
0000
,
0010
0100
0001
1000
,
0001
0000
0020
0000
0130
0000
1000
2000
,
0000
3001
0100
0010
,
2000
0000
0000
0000
3001
1000
0001
0000
,
0100
0010
1000
0001
,
1000
0000
0200
0000
0310
0000
0000
0001
,
0000
0000
1000
0000
0000
0010
0000
0000
,
0100
0000
0000
0001
0000
0000
1000
0000
,
1001
0000
0001
0010
0000
0010
0100
0000
,
1000
0001
1000
0010
,
1000
0000
0001
0010
0000
0010
0100
0000
,
1000
0010
0100
0001
,
0001
2000
0010
0001
,
0010
0001
3010
0200
,
0301
0000
2000
0000
3100
0000
1000
2000
,
0000
3010
0100
0001
,
1001
0000
1000
0100
0000
0100
0010
0000
,
0001
1000
0001
0200
,
0301
0000
1000
0100
0000
1000
0100
2000
,
0000
3200
0320
0032
,
2003
3100
0020
0130
,
0020
1030
0020
0000
,
0031
0000
0000
1000
0000
0000
0010
0000
,
0010
0000
0000
0100
0000
0000
0001
0000
,
0001
0010
0100
1000
,
0001
0100
0010
1000
,
0001
0000
0010
0000
0100
0000
1000
0001
,
1000
0000
0010
0000
0100
0000
0001
1000
,
0001
0000
0010
0000
0100
1000
0100
0000
,
1000
0000
0010
0000
0100
0001
0100
0000
,
0001
1000
0001
0000
0010
0100
0010
0000
,
0001
1000
0001
0000
0100
0010
0100
0000
,
0001
0100
1000
0100
,
0001
0010
1000
0010
,
0100
0000
1000
0000
0010
0100
0010
0000
,
0100
0001
0001
1000
,
0100
1100
1000
1001
,
0001
0101
0100
0110
,
0100
0000
0001
0000
0010
0100
0010
0000
,
0100
1000
1000
0001
,
0100
0101
0001
1001
,
1000
1100
0100
0010
,
0001
0000
1000
0000
0010
0100
0001
0000
,
1000
0000
0001
0000
0010
0100
1000
0000
,
0001
0000
0100
0000
0010
0100
0001
0000
,
1000
0000
0000
0000
0100
0000
0000
0000
0010
0000
0000
0010
0000
0000
0010
0000
,
0001
1000
0000
0001
1000
0000
0010
1000
,
0000
0010
1000
0000
0200
0000
0000
0000
,
2300
0000
0000
3001
1000
0001
1000
0000
,
0001
0010
0100
1000
,
0001
0000
0200
0000
0310
0000
1000
0001
,
1000
0000
0100
0000
0010
0001
1000
0000
,
0001
0100
0010
0000
0100
0010
1000
0000
,
0001
0010
0100
0000
0010
0100
2000
0000
,
3001
0000
0100
0010
1000
0001
1000
0000
,
0100
0010
0001
0000
0100
0000
0100
0000
,
0001
0000
0001
0000
,
0001
0000
0000
0000
0100
0100
0000
0000
,
0020
0000
0030
0000
;

//--------------- dance-single - chrononical ----------------
#NOTEDATA:;
#STEPSTYPE:dance-single;
#DESCRIPTION:chrononical;
#DIFFICULTY:Easy;
#METER:11;
#RADARVALUES:0,0,0,0,0;
#NOTES:
0000
0000
0000
0000
,
0000
0000
0000
0000
,
0000
0000
0000
0000
,
0000
0000
0000
0000
,
0000
0000
0000
0000
,
1001
0000
0001
0000
,
0001
0000
0000
0000
0100
0100
0000
0000
,
2002
0000
0000
3003
,
1000
0001
0000
0001
0010
0000
0010
0100
,
1000
0001
0200
0000
1000
0000
0301
0000
,
0001
1000
0200
0000
0001
0000
1300
0000
,
1000
0001
0020
0000
1000
0000
0031
0000
,
0001
1000
0020
0000
0001
0000
1030
0000
,
2000
3100
0010
0000
0002
0103
0010
0000
,
1000
0001
0000
0001
0100
0000
0100
0010
,
2000
0000
0000
0000
,
3000
0001
0010
0100
,
1000
0010
0001
0010
,
1000
0100
0010
0001
,
0100
1000
0100
0010
,
1000
0000
0001
0000
0010
0000
0100
1000
,
0001
0100
1000
0100
,
0001
0010
0100
1000
,
0010
0000
0001
0000
0010
0000
0100
0002
,
0000
1003
0100
0010
,
0002
0103
0020
0130
,
0020
0001
0230
0000
,
0301
1000
0100
0010
,
0001
1000
0020
0000
,
2030
0000
0000
0000
0000
0000
0000
0000
3010
1000
0000
0000
0010
1000
0000
0000
,
0010
0000
1000
0000
0010
0000
0000
0000
1000
0000
0000
0100
0000
0000
0010
0000
,
0001
0000
0002
0000
1003
0000
0010
0200
,
0000
0310
0100
0000
0001
0000
0010
0000
,
0002
0000
0000
0000
0000
0000
0000
0000
0103
0001
0000
0000
0100
0001
0000
0000
,
0100
0000
0001
0000
0100
0000
0000
0000
0001
0000
0000
0010
0000
0000
0100
0000
,
1000
0000
2000
0000
3001
0000
0100
0020
,
0000
0130
0010
0000
1000
0000
0100
0000
,
2000
0000
0000
0000
0000
0000
0000
0000
3100
1000
0000
0000
0100
1000
0000
0000
,
0100
0000
1000
0000
0100
0000
0000
0000
1000
0000
0000
0010
0000
0000
0100
0000
,
0001
0000
0002
0000
1003
0000
0000
0010
,
0000
0000
0100
0000
0000
0001
0000
0000
,
1000
0000
0000
0100
0000
0000
0010
0000
,
0001
0000
0000
0000
0100
0000
0000
0010
0000
0000
0010
0000
1000
0000
0000
0000
,
0001
0010
0100
0000
0010
0100
1000
0000
,
0001
0000
0000
0000
0100
0000
0000
0010
0000
0000
0010
0000
1000
0000
0000
0000
,
0001
0010
0001
0000
0100
0000
0120
0000
,
1030
0001
0102
1003
,
0102
1003
0101
0011
,
0001
0000
1000
0000
1100
0000
1000
0020
,
0000
0130
0001
0000
1000
0000
1002
0000
,
0013
0000
0000
0000
0100
0000
0000
0010
0000
0000
0010
0000
0001
0000
0000
0000
,
1000
0010
0100
0000
0010
0100
0001
0000
,
1000
0000
0100
0000
0020
0000
0031
2000
,
0000
3020
0230
0302
,
2003
3100
0020
0130
,
0020
0000
1000
0000
0230
0000
0000
0300
,
1100
0000
0000
1001
0000
0000
0101
0000
,
0101
0000
0000
1001
0000
0000
1100
0000
,
1100
0110
0011
1001
,
1000
0010
0100
0010
1000
0000
0200
0000
,
1300
0000
0000
0100
0000
0000
0010
0000
0000
0001
0000
0000
1000
0000
0001
0000
,
1000
0000
0000
0010
0000
0000
0100
0000
0000
0001
0000
0000
1000
0000
0001
0000
,
1000
0100
0010
0001
1000
0000
1000
0000
,
0001
0100
0010
1000
0100
0000
0100
0000
,
1000
0100
0010
0000
0010
0001
1000
0000
,
0001
0100
0010
0000
0010
1000
0100
0000
,
1000
0000
0001
0000
0100
0010
1000
0000
,
0001
0000
1000
0000
0100
0010
0001
0000
,
1000
0000
0010
0000
0001
0010
0100
0000
,
0001
0000
1000
0000
0100
0000
0010
0001
,
1000
0101
0001
1100
,
1000
0101
0001
1100
,
0001
0000
0010
0000
1000
0010
0100
0000
,
1000
0000
0001
0000
0100
0000
0010
1000
,
0001
1010
1000
0011
,
0001
0000
1010
0000
1000
0100
0010
0001
,
1000
0010
0100
0000
0001
1000
0100
0000
,
1000
0100
0010
0000
0001
1000
0010
0000
,
0100
0010
1000
0000
0001
0010
0100
0000
,
0100
0000
0010
0000
0001
0000
0000
0000
1000
0000
0000
0010
0000
0000
0100
0000
,
0001
2000
0000
3001
1000
0000
0010
2000
,
0000
3010
2000
0000
3200
0000
0000
0000
,
2300
0000
0000
0000
0000
0000
3001
0000
1000
0001
0000
0000
0100
0010
0000
0000
,
1000
0000
0001
0000
0010
0000
0000
0000
0100
0000
0000
1000
0000
0000
0001
0000
,
1000
0000
2000
0000
3001
0000
0100
0010
,
1000
0001
0010
0000
0100
1000
0010
0000
,
0200
1000
0320
0001
,
0130
0001
1000
0000
0100
0010
0001
1000
,
0001
0000
0100
0010
1000
0100
0010
0001
,
1000
0001
1000
0010
0100
0000
0010
0100
,
0001
0000
0001
0000
,
0001
0000
0010
0000
0100
0100
0000
0000
,
2000
0000
3000
0000
;

//--------------- dance-single - chrononical ----------------
#NOTEDATA:;
#STEPSTYPE:dance-single;
#DESCRIPTION:chrononical;
#DIFFICULTY:Medium;
#METER:14;
#RADARVALUES:0,0,0,0,0;
#NOTES:
0000
0000
0000
0000
,
0000
0000
0000
0000
,
0000
0000
0000
0000
,
0000
0000
0000
0000
,
0000
0000
0000
0000
,
1001
0000
0001
0000
,
0001
0000
0000
0000
0110
0110
0000
0000
,
2002
0000
0000
3003
,
1000
0010
0100
0010
0100
0001
1000
0001
,
1000
0100
0010
0200
0001
0000
1300
0000
,
0001
0100
0010
0200
1000
0000
0301
0000
,
1000
0010
0100
0020
0001
0000
1030
0000
,
0001
0010
0100
0020
1000
0000
0031
0000
,
0021
0031
0100
0000
1020
1030
0100
0000
,
0010
0001
1000
0010
1000
0001
0010
0001
,
0200
0000
0000
0000
,
0300
0101
0110
1010
,
2001
0000
3100
0000
0001
0100
1000
0010
,
0200
0000
0000
0000
0310
0100
0000
0001
1000
0000
0100
0000
0020
0000
0030
0000
,
0110
0000
0010
0001
0100
0010
1000
0000
,
1000
0000
0010
0000
0100
0001
0000
1000
0001
0000
0010
0000
1000
0000
0010
0000
,
0002
0000
0103
0000
1000
0100
0001
0010
,
0200
0000
0000
0000
0310
0100
0000
1000
0001
0000
0100
0000
0020
0000
0030
0000
,
0110
0000
0010
1000
0100
0010
0001
0200
,
0000
0310
1000
0100
0001
0100
1000
0001
,
1002
0103
1020
0130
,
0120
0001
0230
0000
,
0301
1000
0010
1000
0001
1000
0100
1000
,
0001
0100
0010
1000
0200
0000
0000
0300
,
2100
0000
0000
0000
0000
0000
3001
0000
1000
0001
1000
0000
0001
1000
0001
0000
,
0100
0000
0010
0000
1000
0000
0001
0000
0010
0000
0000
1000
0000
0000
0010
0000
,
0100
0000
0002
0000
0103
1000
0010
0200
,
0000
0310
1000
0001
0010
0000
0110
0000
,
0012
0000
0000
0000
0000
0000
1003
0000
0001
1000
0001
0000
1000
0001
1000
0000
,
0010
0000
0100
0000
0001
0000
1000
0000
0100
0000
0000
0001
0000
0000
0100
0000
,
0010
0000
2000
0000
3010
0001
0100
0020
,
0000
0130
0001
1000
0100
0000
1100
0000
,
2010
0000
0000
0000
0000
0000
3001
0000
1000
0001
1000
0000
0001
1000
0001
0000
,
0010
0000
0100
0000
1000
0000
0001
0000
0100
0000
0000
1000
0000
0000
0100
0000
,
0010
0000
0002
0000
0013
0100
0000
0100
,
0001
0000
0010
0100
0000
0100
1000
0000
,
0010
1000
0000
1000
0001
0000
0010
0001
,
0200
0000
0000
0000
0310
0000
1000
0001
1000
0000
0001
0000
0010
0000
0100
0000
,
1000
0010
0001
1000
0100
0001
0020
0000
,
0230
0000
0000
0000
0310
0000
0001
1000
0001
0000
0100
0000
0010
0000
1000
0000
,
0001
0010
1000
0010
0001
0100
0010
0000
,
1010
0000
0101
0000
0012
0000
0103
0001
,
0012
0000
0103
0001
0011
0000
0010
0100
,
1000
0000
1100
0000
1010
0000
0010
0002
,
0000
0000
0013
0000
0100
0000
0010
0000
1000
0001
1000
0000
0100
0000
0000
0000
,
1002
0000
0000
0000
0103
0000
0001
0100
0001
0000
1000
0000
0100
0000
0010
0000
,
0001
0100
1000
0001
0010
1000
0200
0000
,
0320
0000
0000
0000
0130
0000
1000
0100
1000
0000
0010
0000
0010
0000
2000
0000
,
0000
0000
3200
0000
0320
0000
0032
0003
,
2001
3010
0201
0310
,
0210
1000
0320
0000
,
0130
0001
1000
0100
1000
0001
0100
0001
,
0010
0001
1000
0010
1000
0001
0010
0001
,
0100
0010
1000
0001
0010
0100
1000
0001
,
1000
0010
0001
0010
1000
0100
0010
0000
,
0001
0000
0010
0100
0000
0010
0100
0000
1000
0001
0000
1000
0010
0000
0100
0000
,
0001
0000
0100
0010
0000
0100
0010
0000
1000
0001
0000
1000
0100
0000
0010
0000
,
0001
0010
0100
0010
0001
0100
0010
0100
,
1000
0100
0010
0100
0002
0000
0000
0000
,
1003
0010
0100
0100
0001
0010
0100
0100
,
1000
0010
0100
0100
1000
0100
0001
0010
,
0100
1000
0001
0001
0100
0001
1000
1000
,
0010
1000
0001
0001
0010
0001
1000
0001
,
1001
1000
0100
0010
1000
0010
0001
0100
,
0010
0100
0001
1000
0001
0100
1000
0100
,
0001
0010
0210
0000
1300
0010
0210
0000
,
0301
0010
0210
0000
1300
0010
0110
0000
,
1001
0001
0100
0010
0001
0010
1000
0100
,
0010
0100
1000
0001
1000
0100
0001
0100
,
1000
0010
0210
0000
0301
0010
0210
0000
,
1300
0000
0010
0000
0100
0000
0001
0000
1000
0000
1000
0000
0001
1000
0001
1000
,
0001
0000
0010
0000
0100
0000
1000
0000
0001
0000
0100
0010
0000
0100
0010
0000
,
1000
0000
0100
0000
0010
0000
0001
0000
1000
0000
0010
0100
0000
0100
0001
0000
,
1000
0000
0010
0000
0100
0000
0001
0000
1000
0000
0100
0010
0000
0100
0010
0000
,
0001
0000
0100
0000
0010
0000
1000
0000
0100
1000
0000
0010
1000
0000
0001
0100
,
0001
0100
0100
0010
0100
0100
0001
0100
,
0100
0010
0100
0100
1000
0100
0001
0000
,
0102
0000
0000
0000
0000
0000
1003
0000
0100
0010
0001
0000
0100
0010
1000
0000
,
0001
0000
0010
0000
0100
0000
1000
0000
0010
0000
0000
0001
0000
0000
0010
0000
,
0100
0000
0100
0000
2000
0000
0000
0000
3100
0010
1000
0000
0001
0010
0100
0000
,
1000
1000
0100
0100
0010
0001
1000
0000
,
0010
1000
0100
0100
0010
0001
0100
0100
,
0010
0000
1000
0000
0001
0010
0000
0100
0010
0001
0010
0000
0001
0000
0100
0000
,
0010
1000
0001
0001
1000
1000
0100
0010
,
0001
0100
1000
0100
0001
0100
1000
0100
,
0001
0000
0001
0000
,
0001
1000
0100
0010
0110
0110
0000
0010
,
0002
0000
0003
0000
;

//--------------- dance-single - chrononical ----------------
#NOTEDATA:;
#STEPSTYPE:dance-single;
#DESCRIPTION:chrononical;
#DIFFICULTY:Hard;
#METER:17;
#RADARVALUES:0,0,0,0,0;
#NOTES:
0000
0000
0000
0000
,
0000
0000
0000
0000
,
0000
0000
0000
0000
,
0000
0000
0000
0000
,
0000
0000
0000
0000
,
1001
0000
0001
0000
,
0001
0000
0000
0000
0110
0110
0000
0000
,
2002
0000
0000
3003
,
1000
0100
0010
0001
1000
0000
0001
0100
0010
1000
0001
0000
1000
0100
0010
0100
,
1000
0010
0100
1000
1100
0000
0101
0000
,
0001
0010
0100
0001
0101
0000
1100
0000
,
1000
0100
0010
1000
1010
0000
0011
0000
,
0001
0100
0010
0001
0011
0000
1010
0000
,
1200
0310
0001
0100
0201
0310
1000
0100
,
1000
0100
0010
0100
0010
0001
1000
0001
1000
0010
0100
0001
1000
0010
0100
0001
,
0020
0000
0000
0000
,
0030
0011
0101
1010
,
1200
0000
0301
0000
0101
0100
1000
0010
,
0210
0000
0000
0000
0310
1000
0000
1000
0100
0010
0001
0000
0200
0000
0300
0000
,
0120
0000
1030
1000
0010
0001
0010
0000
,
1001
0000
0001
0000
0010
0100
0000
0100
2000
0000
0010
0000
3002
0000
0103
0000
,
0201
0000
1300
0000
1100
0100
0001
0010
,
0210
0000
0000
0000
0310
0001
0000
0001
0100
0010
1000
0000
0200
0000
0300
0000
,
0120
0000
0031
0001
0010
1000
0010
0200
,
0000
1300
0010
0100
1000
0100
0010
1000
,
2001
3100
1002
0103
,
2001
3020
0230
0000
,
0301
0100
0010
0100
0001
0010
0100
0010
,
0001
0010
0100
1000
0001
0010
0100
1000
0020
0000
0000
0000
0030
0000
0000
0000
,
2001
0000
0000
0000
0000
0000
3001
0100
0010
1000
0010
0000
0010
1000
0010
0000
,
0100
0000
0001
0000
0010
0000
0100
0000
0110
0000
0000
1100
0000
0000
1010
0000
,
1001
0000
0001
0100
0002
0000
0000
0000
0013
0001
0010
0000
0010
0100
0002
0000
,
0000
0000
0103
0000
1000
0000
0001
0000
0100
0010
0100
0000
1000
0100
0010
0100
,
0002
0000
0000
0000
0000
0000
1003
0100
0010
0001
0010
0000
0010
0001
0010
0000
,
0100
0000
1000
0000
0010
0000
0100
0000
0110
0000
0000
0101
0000
0000
0011
0000
,
1001
0000
1000
0100
2000
0000
0000
0000
3100
0010
0100
0000
0100
0010
2000
0000
,
0000
0000
3010
0000
0001
0000
1000
0000
0010
0100
0010
0000
0001
0010
0100
0010
,
2000
0000
0000
0000
0000
0000
3001
0010
0100
1000
0100
0000
0100
1000
0100
0000
,
0010
0000
0001
0000
0100
0000
0010
0000
0110
0000
0000
1010
0000
0000
1100
0000
,
1001
0000
0001
0010
0002
0000
0000
0000
0103
0010
1000
0001
1000
0000
0100
0010
,
0001
1000
0001
0000
0010
0100
1000
0001
1000
0000
0010
0100
0001
1000
0001
0000
,
1000
0100
0010
0001
1000
0000
0001
0100
0010
1000
0001
0000
1000
0001
1000
0000
,
1002
0000
0000
0000
0103
0000
0010
1000
0001
1000
0100
0000
0010
0100
1000
0001
,
1000
0000
0001
0100
0001
0000
1000
0100
1000
0000
0100
1000
0010
0000
0000
0000
,
2001
0000
0000
0000
3010
0000
0100
0001
1000
0001
0010
0000
0100
0010
0001
1000
,
0001
0100
0101
0000
0110
0000
1001
0000
,
1000
0100
0001
0000
1100
0000
1000
0001
,
1010
0000
0001
1000
0011
0001
0100
0010
,
1000
0010
0001
0000
1010
0000
1000
1001
,
0000
0000
1100
0000
0100
0000
0010
0000
0001
1000
0001
0100
0010
0000
0000
0000
,
0201
0000
0000
0000
0310
0000
0100
0001
1000
0001
0010
0000
0100
0010
0001
1000
,
0001
0000
1000
0010
1000
0000
0001
0010
0001
0000
0010
0001
0100
0000
0000
0000
,
2001
0000
0000
0000
3100
0000
0010
0000
0100
0010
0100
1000
0001
0100
2000
0000
,
0000
3100
0010
0000
0200
0000
0301
0100
0020
0000
1030
0100
0002
0003
0100
0000
,
2001
3010
1002
0013
,
2001
0000
3200
0000
0320
0000
0000
0030
,
0011
0001
0100
0110
0010
0100
0110
0010
,
1010
1000
0100
0110
0010
0100
0110
0010
,
0001
1000
0010
1000
0001
1000
0100
0010
0001
1000
0100
1000
0001
1000
0010
0100
,
0001
0100
0010
1000
0001
0100
0010
1000
0001
0010
0100
1000
0002
0000
0000
0000
,
0013
0000
0010
0100
0000
0100
1000
0000
1000
0001
0000
0001
0100
0000
1000
0000
,
0100
0000
0100
0010
0000
0010
1000
0000
1000
0001
0000
0001
0020
0000
0130
0000
,
1000
0001
1000
0010
0100
0001
1000
0100
0010
0001
1000
0010
0100
0001
1000
0100
,
0010
0000
0100
1000
0001
0000
0100
0001
2000
0000
0000
0000
0000
0000
0000
0000
,
3001
0010
0100
0000
0100
0010
0001
0000
1000
0010
0100
0000
0100
0010
1000
0000
,
0010
0100
0001
0000
0001
0010
0100
0000
0001
0100
0010
0100
1000
0001
0100
0010
,
1000
0000
0010
0100
0010
0000
0001
0000
1000
0000
0100
0010
0100
0000
0001
0000
,
1000
0000
0100
0010
0100
0000
0001
0000
1000
0000
0010
0100
1000
0000
0001
0000
,
0101
0100
1000
0100
1100
0100
0001
0010
,
0110
0000
0100
0000
1000
0001
0100
0010
2000
0000
0010
0000
3002
0000
0103
0000
,
0110
0010
1002
0013
0110
0100
2001
3010
,
0110
0100
1002
0013
0110
0100
2001
3010
,
1010
0010
0001
0010
0011
0010
1000
0100
,
0110
0000
0010
0000
0001
1000
0010
0100
0002
0000
0100
0000
2003
0000
3010
0000
,
1010
0010
1002
0013
0011
0010
2001
3100
,
1100
0000
0100
0000
1002
0000
0103
0000
0010
0000
1000
0001
1000
0001
1000
0001
,
1000
0000
0100
0000
0010
0100
1000
0000
0010
0100
0001
1000
0000
1000
0001
0000
,
1000
0000
0001
0000
0100
0010
1000
0000
0100
0010
0001
1000
0000
1000
0001
0100
,
0001
0000
0010
0000
0100
0010
0001
0000
0100
0010
1000
0001
0000
0001
1000
0000
,
0001
0000
0100
0000
0010
0100
0001
0000
0020
0031
1000
0020
1030
0001
0020
0031
,
0100
0000
0010
1000
0001
1000
0100
0000
0010
0001
1000
0001
0100
0000
0010
1000
,
0001
1000
0100
0000
0010
0001
1000
0010
0200
0000
0000
0000
0300
0000
0000
0000
,
1002
0000
0000
0000
0000
0000
0000
0000
0000
0000
0000
0000
0000
0000
0000
0000
0000
0000
1003
0000
0000
0001
0000
0000
1000
0000
0010
0000
1000
0000
0010
0000
0000
0000
0000
0000
0100
0000
0001
0000
0100
0000
0001
0000
0000
0000
0000
0000
,
0100
0000
0001
0000
0010
0000
0100
0000
0110
0000
0000
1100
0000
0000
1010
0000
,
1001
0000
0000
0000
0000
0000
0001
0000
0000
0100
0000
0000
0002
0000
0000
0000
0000
0000
0000
0000
0000
0000
0000
0000
0013
0000
0001
0000
0010
0000
0001
0000
0000
0000
0000
0000
0100
0000
0001
0000
0100
0000
0001
0000
0000
0000
0000
0000
,
1000
1000
0010
0010
0100
0110
1001
0000
,
1200
0000
0001
0000
0310
0100
1000
0000
1020
0000
0001
0000
0130
0010
1000
0000
,
0001
0000
0010
0000
0100
1000
0000
1000
0001
0100
0010
0100
1000
0100
0010
1000
,
0001
0000
1000
0000
1010
0000
0010
0000
0110
0000
0100
0000
1001
0000
1000
0001
,
0010
0100
1000
0001
0200
0000
1000
0000
0320
0000
0001
0000
0130
0000
0010
0000
,
1001
0000
0001
0000
,
0001
0100
0010
1000
0001
1000
0100
0000
0110
0000
0210
0000
0000
0000
0310
0001
,
0200
0000
0300
0000
;
