#TITLE:popdod;
#SUBTITLE:;
#ARTIST:AKIRA YAMAOKA;
#TITLETRANSLIT:;
#SUBTITLETRANSLIT:;
#ARTISTTRANSLIT:;
#GENRE:;
#CREDIT:;
#MUSIC:popdod.ogg;
#BANNER:;
#BACKGROUND:;
#CDTITLE:;
#SAMPLESTART:66.632;
#SAMPLELENGTH:13.241;
#SELECTABLE:YES;
#OFFSET:-0.427;
#BPMS:0.000=145.000
,30.000=290.000
,32.000=145.000
,46.000=72.500
,47.000=145.000
,77.000=290.000
,79.000=145.000
,93.000=290.000
,95.000=145.000
,107.500=290.000
,109.000=145.000
,131.000=72.500
,135.000=145.000
,149.000=72.500
,150.000=145.000
,196.000=290.000
,198.000=145.000
,208.000=290.000
,210.000=145.000
,218.000=72.500
,220.000=145.000
,228.000=72.500
,232.000=145.000
,270.000=72.500
;
#STOPS:30.000=0.103
,30.500=0.103
,31.000=0.103
,31.500=0.103
,77.000=0.207
,78.000=0.207
,93.000=0.207
,94.000=0.207
,107.500=0.155
,108.250=0.103
,108.750=0.052
,122.750=1.655
,196.000=0.155
,196.750=0.155
,197.500=0.103
,208.000=0.103
,208.500=0.052
,208.750=0.052
,209.000=0.103
,209.500=0.103
;
#DISPLAYBPM:73.000:145.000;
#BGCHANGES:;
#FGCHANGES:;

//--------------- dance-single - eataninja ----------------
#NOTES:
     dance-single:
     eataninja:
     Beginner:
     3:
     0,0,0,0,0:
0000
0000
0000
0000
,
0000
0000
0000
0000
,
0000
0000
0000
0000
,
0000
0000
0000
0000
,
1000
0000
0001
0000
,
0010
0000
0001
0000
,
1000
0000
0010
0000
,
0100
0000
0000
0000
,
0001
0000
1000
0000
,
0100
0000
1000
0000
,
0001
0000
0100
0000
,
0010
0000
0000
0100
,
0100
0010
0000
0100
,
0000
0001
0000
0010
,
0010
0100
0000
0010
,
0000
0001
0000
1000
,
0000
0010
0000
0100
,
0000
0000
0000
0100
,
0000
0110
0000
0001
,
0000
0000
0000
0010
,
0000
0100
0000
1000
,
0000
0001
0000
0100
,
0000
0100
0000
0010
,
0000
0000
0000
0010
,
0010
0100
0000
0001
,
0000
0000
0000
0010
,
0010
0100
0000
1000
,
0000
0000
0000
0001
,
0001
0100
0000
0010
,
0000
0000
0000
1000
,
1000
0100
0000
0010
,
0000
0001
0000
1000
,
0000
1000
0000
0020
,
0030
0020
0030
0100
,
0000
0001
0000
1000
,
1000
1000
0000
0100
,
0000
0010
0000
0002
,
0000
0003
1001
0000
,
1001
0000
0100
0000
,
0000
0000
0110
0000
,
0110
0000
0001
0000
,
0000
0000
1001
0000
,
1001
0000
0010
0000
,
0000
0000
0110
0000
,
0110
0000
1000
0000
,
0000
0000
1000
0000
,
0001
0000
0100
0000
,
0010
0000
0100
0000
,
0001
0000
1000
0000
,
0000
0000
1000
0000
,
0001
0000
0010
0000
,
0100
0000
1000
0000
,
0000
0000
0001
1000
,
0001
0000
1001
0000
,
0110
0000
0100
0000
,
0110
0000
1001
0000
,
0001
0001
1000
0000
,
1001
0110
0100
0000
,
0110
0000
1001
0000
,
1000
1000
0010
0000
,
0100
0000
0001
0000
,
1000
0000
0001
0000
,
0010
0000
0100
0000
,
1000
0000
1000
0000
,
0010
0000
1000
0000
,
0001
0000
1000
0000
,
0100
0000
0010
0000
,
0001
0000
0200
0000
,
0000
0000
0000
0000
,
0300
0000
0000
0000
;

//--------------- dance-single - eataninja ----------------
#NOTES:
     dance-single:
     eataninja:
     Easy:
     6:
     0,0,0,0,0:
0000
0000
0000
0000
,
0000
0000
0000
0000
,
0000
0000
0000
0000
,
0000
0000
0000
0000
,
1000
1000
0001
0001
,
0010
0010
0100
0100
,
1000
1000
0001
0001
,
0100
0100
0010
0000
,
1000
1000
0001
0001
,
0020
1030
0020
0031
,
1000
1000
0001
0001
,
0100
0010
2000
3001
,
0010
1000
0010
0100
,
0010
0001
0000
1000
,
0010
0001
0010
0100
,
0010
1000
0000
0001
,
0010
0100
0100
1000
,
0000
1001
1001
1000
,
0010
0001
0010
0100
,
0001
0000
0000
1000
,
0100
0002
0103
0010
,
0001
0000
1001
0000
1001
0000
0100
0100
,
0100
0001
1000
0100
,
0010
0000
0000
0001
,
1000
0020
0230
0301
,
1000
0000
0001
0000
0010
0000
0100
0100
,
0000
2000
3002
0103
,
0000
0010
0110
1000
,
0001
0020
0230
1300
,
1100
1000
1100
0001
,
1000
0000
0020
0000
0130
0000
0000
0001
,
0000
0001
1000
0000
0100
0000
0010
0000
,
0000
0001
1000
0020
,
0100
0130
0020
0000
0100
0130
0001
0000
,
1000
0001
0001
0010
,
0100
0001
0100
2000
,
3002
0203
0320
2030
,
3002
0013
0110
0000
,
1001
0000
1000
0010
,
0001
0010
0110
0000
,
1001
0000
0100
0100
,
0010
0010
0110
0000
,
1001
0000
0001
0100
,
1000
0100
0110
0000
,
1001
0000
0010
0010
,
0200
2300
3001
0001
,
1000
1000
0010
0010
,
0100
0100
0001
0001
,
1000
1000
0100
0100
,
0000
0000
1000
0001
,
0100
0010
1000
0100
,
0010
0001
1000
0010
,
0000
0000
1000
0010
,
0002
0013
0110
0000
,
1001
0000
0000
0000
1000
0100
0010
0001
,
1001
0000
0110
0000
,
0100
0100
0001
0010
,
0110
0000
1001
0000
0001
0010
0100
1000
,
1001
0000
0110
0000
,
0100
0100
0020
2030
,
3001
0001
0010
0010
,
1000
1000
0010
0010
,
0001
0001
0010
0010
,
0100
0100
1000
1000
,
0001
0001
0100
0100
,
1000
1000
0100
0100
,
0001
0001
0100
0100
,
0010
0010
2000
0002
,
0000
0000
0000
0000
,
3003
0000
0000
0000
;

//--------------- dance-single - eataninja ----------------
#NOTES:
     dance-single:
     eataninja:
     Medium:
     11:
     0,0,0,0,0:
0000
0000
0000
0000
,
0000
0000
0000
0000
,
0000
0000
0000
0000
,
0000
0000
0000
0000
,
1000
0000
0000
0100
0000
0000
1000
0000
0001
0000
0000
0001
0000
0000
0001
0000
,
0100
0000
0000
0010
0000
0000
0100
0000
0001
0000
0000
1000
0000
0000
1000
0000
,
0001
0000
0000
0010
0000
0000
0001
0000
1000
0000
0000
1000
0000
0000
1000
0000
,
0010
0000
0000
0100
0000
0000
0001
0000
2000
3000
0002
0003
0020
0030
0200
0300
,
1000
0000
0001
0100
2000
0000
3000
0000
,
0100
0000
0000
0010
0000
0000
0100
0000
0001
0000
0000
0010
0000
0000
0100
0000
,
1000
0000
0001
0010
2000
0000
3000
0000
,
0010
0000
0000
0100
0000
0000
1000
0000
0002
0000
0000
0000
1003
0000
0000
0000
,
0001
0000
0011
0000
1000
0000
1000
0010
,
0100
0001
1000
0000
0000
0000
0001
0000
,
1000
0000
1010
0000
0001
0000
0001
1000
,
0100
0010
0001
0000
0000
0000
0001
1000
,
2000
0000
3001
0010
2000
0000
3010
0100
,
0000
0100
2000
3000
2000
3000
0001
1000
,
0000
1000
0010
0000
0010
0200
0000
0301
,
1000
0000
0002
0003
0002
0003
1000
0100
,
1000
0100
0002
0000
0103
0000
0010
0001
,
1000
0000
0020
0030
0020
0030
0100
1000
,
0100
1100
0101
1000
,
0001
0000
0020
0030
0020
0030
1000
0010
,
0010
0000
0100
1000
0001
0000
0100
1000
,
1000
0000
0100
0010
0100
0000
0001
1000
,
0000
0000
1000
0000
0100
0000
0010
0000
0002
0000
0000
0000
1003
0000
0020
0030
,
0000
0020
0030
0000
0100
0000
0100
0000
1001
0000
0000
0000
1000
0000
0100
0000
,
1000
0100
0010
0001
0100
0000
0001
0100
,
1000
0000
1000
0100
0001
0000
1000
0001
,
1000
1000
0100
0010
0001
0000
1000
0100
,
0000
0100
0010
0001
1000
0010
0200
0000
,
1000
0000
0000
0000
0010
0000
0000
0000
0301
0000
0000
0000
1000
0002
0000
0000
,
0013
0000
0011
0000
1000
0002
0000
0000
0103
0000
0101
0000
1000
0000
0001
0000
,
0000
1000
0100
0010
0100
0010
0001
0000
,
0001
0010
0100
1000
0010
0100
0020
0000
,
0001
0100
1030
0002
,
0010
0000
0000
0000
1003
0000
0000
0000
0100
0000
0000
1100
0000
0000
0000
0000
,
0100
0000
0000
1100
0000
0000
0000
0000
1000
0000
0000
0000
0001
0000
0000
0000
,
0100
0000
0010
0000
0100
0000
0000
0000
0001
0000
0000
0101
0000
0000
0000
0000
,
0001
0000
0000
0101
0000
0000
0000
0000
0100
0000
0000
0100
0000
0000
0010
0000
,
1000
0000
0000
0000
1000
0000
0000
0000
0001
0000
0000
0011
0000
0000
0000
0000
,
0001
0000
0000
0011
0000
0000
0000
0000
1000
0000
0000
0000
1000
0000
0000
0000
,
0001
0000
0100
0000
0010
0000
0000
0000
1000
0000
0000
1010
0000
0000
0000
0000
,
1000
0000
0000
1010
0000
0000
0000
0000
0010
0000
0000
0010
0000
0000
0100
0000
,
0002
0000
0000
0000
2003
0000
0000
0000
3100
0000
0000
0100
0000
0000
0100
0000
,
0010
0000
0000
0010
0000
0000
0010
0000
0001
0000
0000
1000
0000
0000
0001
0000
,
0100
0000
0000
0010
0000
0000
0100
0000
0001
0000
0000
0001
0000
0000
0001
0000
,
1000
0000
0000
1000
0000
0000
1000
0000
0100
0000
0000
0010
0000
0000
0001
0000
,
2000
0000
0000
0000
0000
0000
3000
0000
0010
0000
0000
0010
0000
0000
0010
0000
,
0100
0000
0000
0100
0000
0000
0100
0000
0001
0000
0000
1000
0000
0000
0001
0000
,
0010
0000
0000
0100
0000
0000
0010
0000
0001
0000
1000
0000
1100
0000
0000
0000
,
2000
3000
0002
0003
2000
3000
0002
0003
0200
0000
0000
0000
1000
0000
0000
0000
,
0302
0000
0000
0000
0013
0000
0000
0000
0100
0000
0000
1100
0000
0000
0000
0000
,
0100
0000
0000
0000
0000
0000
1100
0000
0000
0000
0000
0000
0000
0000
0000
0000
1000
0000
0000
0001
0000
0000
1000
0000
0000
0000
0010
0000
0010
0000
0000
0000
,
0100
0000
0000
0101
0000
0000
0000
0000
0100
0000
0000
0101
0000
0000
0000
0000
,
1000
0000
0000
1000
0000
0000
0001
0000
0010
0000
0000
0100
0000
0000
1000
0000
,
0010
0000
0000
1010
0000
0000
0000
0000
0010
0000
0000
1010
0000
0000
0000
0000
1000
0000
0000
0000
0100
0000
0000
0000
0001
0000
0000
0000
0100
0000
0000
0000
,
0010
0000
0000
0011
0000
0000
0000
0000
0010
0000
0000
0011
0000
0000
0000
0000
,
0001
0000
0000
0001
0000
0000
1000
0000
0020
0000
0000
0000
0230
0000
0000
0000
,
0301
0000
0000
1000
0000
0000
0001
0000
0010
0000
0000
0100
0000
0000
1000
0000
,
0001
0000
0000
0100
0000
0000
0100
0000
1000
0000
0000
0100
0000
0000
0100
0000
,
0010
0000
0000
1000
0000
0000
0010
0000
0100
0000
0000
0001
0000
0000
1000
0000
,
0100
0000
0000
0100
0000
0000
0100
0000
0010
0000
0000
0010
0000
0000
0010
0000
,
0001
0000
1000
0010
0002
0000
0003
0000
,
0010
0000
0000
0100
0000
0000
0001
0000
0010
0000
0000
0100
0000
0000
1000
0000
,
0001
0000
1000
0100
0002
0000
0003
0000
,
0100
0000
0000
0010
0000
0000
0001
0000
0200
0000
0000
0000
0020
0000
0000
0000
,
0000
0000
0000
0000
,
0330
0000
0000
0000
;

//--------------- dance-single - eataninja ----------------
#NOTES:
     dance-single:
     eataninja:
     Hard:
     13:
     0,0,0,0,0:
0000
0000
0000
0000
,
0000
0000
0000
0000
,
0000
0000
0000
0000
,
0000
0000
0000
0000
,
1000
0000
0000
1000
0000
0010
0100
0000
0001
0000
0000
0001
0000
1000
0100
0000
,
0010
0000
0000
0010
0000
0100
1000
0000
0010
0000
0000
0010
0000
1000
0001
0000
,
0100
0000
0000
0100
0000
0010
1000
0000
0001
0000
0000
0001
0000
1000
0100
0000
,
0010
0000
0000
0010
0000
0001
1000
0000
0020
0030
0200
0300
0002
0003
2000
3000
,
0100
0000
0000
0100
0000
0010
0001
0000
1000
0000
0000
1000
0000
0001
0100
0000
,
0010
0000
0000
0010
0000
0100
0001
0000
0010
0000
0000
0010
0000
0100
1000
0000
,
0001
0000
0000
0001
0000
0100
0010
0000
1000
0000
0000
1000
0000
0100
0010
0000
,
0001
0000
0000
0001
0000
1000
0010
0000
0200
0000
0000
0000
0301
0000
1000
0000
,
0100
0010
1000
0010
0100
1000
0001
1000
,
0010
0000
0100
0000
0001
0000
0001
0000
1000
0100
0010
0000
0001
0000
1000
0000
,
0010
0100
1000
0100
0010
1000
0001
1000
,
0100
0000
0010
0000
0001
0010
0001
0000
1000
0010
1000
0000
0001
0000
0100
0000
,
0102
0000
1003
1000
0100
0010
0001
0100
,
0000
0000
0100
0000
0020
0000
0000
0030
0020
0000
0000
0030
1000
0000
1001
0000
,
0000
0001
0010
0000
0010
2000
0000
3010
,
0100
0000
1000
0000
0002
0000
0000
0003
0002
0000
0000
0003
1000
0000
0010
0000
,
0001
1000
0100
0010
1000
0001
0010
0100
,
0001
0000
0100
0000
0020
0000
0000
0030
0020
0000
0000
0030
0001
0000
1000
0000
,
0010
0000
0101
0000
0101
0000
1000
0001
,
0010
0000
0100
0000
2000
0000
3000
0000
0002
0000
0003
0000
1000
0000
0010
0100
,
0000
0100
0000
0001
1000
0000
0100
0000
0001
0000
0100
0000
0010
0000
0001
1000
,
0000
1000
0000
0010
0100
0000
0100
0000
0001
1000
0000
0001
1000
0000
0100
0002
,
0000
0000
0103
0000
0020
0000
0000
0000
0031
0000
1000
0000
0010
0000
0200
0300
,
0000
0020
0030
0200
0301
0000
0001
0000
0010
0000
0100
0000
1000
0000
0001
0100
,
0000
0100
0000
0010
1000
0000
0100
0002
0000
0000
0103
0000
0010
0000
0001
1000
,
0000
0001
1000
0000
0010
0000
0100
0001
0000
0100
0001
0000
1000
0000
0001
0010
,
0000
0010
0000
0100
1000
0000
0010
0002
0000
0000
0013
0000
0100
0000
0001
0000
,
0000
0001
0010
0100
1000
1000
0020
0000
,
0130
0000
0000
0000
1000
0000
0100
0000
0001
0000
0000
0000
1000
1200
0000
0000
,
0310
0000
1001
0000
0001
0201
0000
0000
0310
0000
1001
0000
0001
0000
0010
0000
,
0000
0010
1000
0010
0001
0010
0100
0000
,
0100
0010
0001
1000
0010
0100
0001
0000
,
0101
0000
1000
0000
1100
0000
0010
0001
,
1000
0000
0000
0000
0010
0000
0000
0000
0100
0000
0000
0100
0010
0000
0000
0010
1000
0000
0000
0000
0000
0000
0101
0000
0000
0000
0000
0000
0000
0000
0000
0000
,
1000
0000
0000
0101
0000
0000
0000
0000
0001
0000
0000
0001
0000
0000
0010
0000
,
0100
0000
0001
0000
0100
0000
1000
0000
0001
0000
0000
1010
0000
0000
0000
0000
,
0001
0000
0000
1010
0000
0000
0000
0000
0010
0000
0000
0010
0000
0000
0100
0000
,
0001
0000
0000
0010
0000
0000
0100
0000
1000
0000
0000
0011
0000
0000
0000
0000
,
1000
0000
0000
0011
0000
0000
0000
0000
0001
0000
0000
0001
0000
0000
0100
0000
,
0010
0000
0001
0000
0010
0000
1000
0000
0001
0000
0000
1100
0000
0000
0000
0000
,
0001
0000
0000
1100
0000
0000
0000
0000
1000
0000
0000
0001
0000
0000
0100
0000
,
0020
0000
0000
0000
0230
0000
0000
0000
0301
0000
1000
0010
0000
1000
0010
0000
,
0100
0000
0001
1000
0000
0001
1000
0000
0100
0000
0010
0001
0000
0010
0001
0000
,
0100
0000
0010
1000
0000
0010
1000
0000
0001
0000
1000
0100
0000
1000
0100
0000
,
0001
0000
0100
0010
0000
0100
0010
0000
0001
0000
1000
0010
0000
1000
0010
0000
,
0200
0300
0000
0200
0300
0000
2002
3003
0001
0100
0000
0100
0010
0000
1000
0000
,
0001
0010
0000
0010
0100
0000
1000
0001
0000
0001
0100
0000
0100
0000
0010
0000
,
1000
0000
0001
0000
0010
0100
0000
1000
0010
0000
0010
0000
0100
0000
0100
0000
,
0002
0003
2000
3002
2003
3000
0200
0300
0010
0000
0001
0010
0000
0001
1000
0000
,
0010
0000
0100
0010
0000
0100
0001
0000
1000
0000
0000
0101
0000
0000
0000
0000
,
0100
0000
0000
0000
0000
0000
1010
0000
0000
0000
0000
0000
0000
0000
0000
0000
0001
0000
0000
1000
0000
0000
0200
0000
0000
0000
0010
0000
0310
0000
0000
0000
,
0001
0000
0000
1100
0000
0000
0000
0000
0100
0000
0000
0011
0000
0000
0000
0000
,
0001
0000
0000
0010
0000
0000
0010
0000
0100
0000
0000
1000
0000
0000
0001
0000
,
1000
0000
0010
0100
0000
0010
0100
0000
0001
0000
0010
0100
0000
0010
0100
0000
1000
0000
0000
0010
0000
0000
0100
0000
0001
0000
0000
0010
0000
0000
0100
0000
,
1000
0000
0000
0011
0000
0000
0000
0000
0010
0000
0000
1100
0000
0000
0000
0000
,
1000
0000
0000
0010
0000
0000
0100
0000
0002
0000
0000
0000
2003
0000
0000
0000
,
3010
0000
0100
0001
0000
1000
0100
0000
0010
0000
0001
1000
0000
0010
0100
0000
,
0001
0000
1000
0010
0000
0100
0010
0000
1000
0000
0001
0010
0000
0100
0010
0000
,
0001
0000
1000
0010
0000
0100
0001
0000
1000
0000
0001
0010
0000
0100
1000
0000
,
0001
0000
0100
0010
0000
0100
0001
0000
1000
0000
0100
0010
0000
0100
1000
0000
,
0001
0000
1000
0010
0100
0000
0010
0000
1000
0000
0001
0010
0000
0001
0010
0000
,
0100
0000
1000
0001
1000
0000
0010
0000
0001
0000
0010
0100
0010
0000
1000
0000
,
0001
0000
0010
0100
1000
0000
0001
0000
1000
0000
0010
0100
0000
0010
1000
0000
,
0001
0010
0100
1000
0020
0000
0200
0000
,
0000
0000
0000
0000
,
0330
0000
0000
0000
;
