#TITLE:mastodonk;
#SUBTITLE:;
#ARTIST:dendy crew;
#TITLETRANSLIT:;
#SUBTITLETRANSLIT:;
#ARTISTTRANSLIT:;
#GENRE:;
#CREDIT:;
#MUSIC:mastodonk.ogg;
#BANNER:mastodonk.png;
#BACKGROUND:mastodonk-bg.png;
#CDTITLE:;
#SAMPLESTART:57.963;
#SAMPLELENGTH:15.000;
#SELECTABLE:YES;
#OFFSET:0.796;
#BPMS:0.000=145.000;
#STOPS:;
#BGCHANGES:;
#FGCHANGES:;

//--------------- dance-single - ----------------
#NOTES:
     dance-single:
     :
     Beginner:
     6:
     0.171854,0.384504,0.119303,0,0,121,109,12,0,0,0,0.171854,0.384504,0.119303,0,0,121,109,12,0,0,0:
0000
0000
0000
0000
,
0000
0000
0000
0000
,
0000
0000
0000
0000
,
0000
0000
0000
0000
,
0000
0000
0000
0000
,
1000
0000
0000
0000
,
0000
0000
0000
0000
,
1000
0000
0000
0000
,
0000
0000
0000
0000
,
0001
0000
0000
0000
,
0000
0000
0000
0000
,
0001
0000
0000
0000
,
0000
0000
0000
0000
,
1000
0000
0000
0000
,
0000
0000
0000
0000
,
1000
0000
0000
0000
,
0000
0000
0000
0000
,
0010
0000
0000
0000
,
0010
0000
0010
0000
,
0010
0000
0000
0000
,
0010
0000
0010
0000
,
0100
0000
0000
0000
,
0100
0000
0100
0000
,
0100
0000
0000
0000
,
2002
0000
0000
0000
,
0000
0000
0000
0000
,
3003
0000
1001
0000
,
0001
0000
1000
0000
,
1000
0000
1000
0000
,
1000
0000
0001
0000
,
0001
0000
0001
0000
,
0001
0000
0100
0000
,
0100
0000
0100
0000
,
0100
0000
0010
0000
,
0010
0000
0010
0000
,
0010
0000
1000
0000
,
1000
0000
1000
0000
,
1000
0000
0001
0000
,
0001
0000
0001
0001
,
0001
0000
1001
0000
,
0110
0000
1001
1001
,
1001
0000
1001
0000
,
0110
0000
1001
1001
,
1001
1001
1000
1000
,
0100
0000
0001
0001
,
0100
0100
0001
0001
,
0010
0000
1000
1000
,
0100
0100
1000
1000
,
1001
0000
0001
0001
,
1001
0000
0110
0110
,
0110
0110
0110
0110
,
0110
0110
1001
0000
,
1000
0000
0001
0000
,
0010
0010
0110
0000
,
1001
0000
0110
0000
,
1000
1000
0100
0000
,
0100
0000
0010
0010
,
0010
0010
0001
0010
,
0100
1000
0010
0100
,
0001
0010
0110
0000
;

//--------------- dance-single - ----------------
#NOTES:
     dance-single:
     :
     Easy:
     11:
     0.477213,0.473236,0.059652,0,0,336,330,6,0,0,0,0.477213,0.473236,0.059652,0,0,336,330,6,0,0,0:
0000
0000
0000
0000
,
0000
0000
0000
0000
,
0000
0000
0000
0000
,
0000
0000
0000
0000
,
0000
0000
0000
0000
,
0000
1000
0100
0100
0000
0010
0100
0100
,
0000
1000
0010
0100
0000
0001
1000
0000
,
0000
0001
0100
0100
0000
0010
0100
0100
,
0000
0001
0010
0100
1000
0010
0100
0000
,
0000
0010
0100
0001
0000
0010
0100
1000
,
0000
0001
0100
0001
0000
0010
0001
0000
,
0000
0010
0100
1000
0000
0010
0100
0001
,
0000
1000
0100
1000
0010
0010
1000
0000
,
0000
0010
0100
0001
0000
0010
0100
1000
,
0000
0001
0100
0001
0010
0010
0001
0000
,
0000
0010
0100
1000
0000
0010
0100
0001
,
0000
1000
0100
1000
0010
0010
1000
0000
,
0000
0001
0010
0100
0000
1000
0010
0100
,
0000
0001
0010
0100
0110
0000
1001
0000
,
0000
1000
0010
0100
0000
0001
0010
0100
,
0000
1000
0010
0100
0110
0000
1001
0000
,
0000
0001
0100
0010
0000
1000
0100
0010
,
0000
0001
0100
0010
1000
0001
1001
0000
,
0000
1000
0100
0010
0000
0001
0100
0010
,
0220
0000
0000
0000
,
0000
0000
0000
0000
,
0330
0000
0110
0000
,
2000
0000
3002
0000
0013
0001
0100
0010
,
1000
0100
0010
0001
0100
0001
0010
0100
,
1000
0010
0100
0000
0010
1000
0100
0010
,
0001
0100
0010
1000
0100
0010
0100
0000
,
1000
0010
0100
0000
0010
1000
0100
0010
,
0001
0100
0010
1000
0100
0010
0100
1000
,
0010
0100
0010
0000
0100
0001
0010
0100
,
1000
0010
0100
0001
0010
0100
0010
0000
,
0001
1000
0010
0000
0100
0010
0100
0001
,
0010
0100
0020
0000
0130
1000
0010
0100
,
1000
0100
0001
0000
0010
0100
0010
0001
,
0100
0010
0200
0000
0310
1000
0100
0010
,
1000
0010
0100
0000
0010
0100
0001
1000
,
0100
1000
0020
0230
0301
0010
0100
1000
,
0010
0100
0001
0000
0010
0100
1000
0001
,
0100
0001
0010
0000
0100
0000
0100
0000
,
0100
1000
0010
0000
0100
0001
0010
0100
,
1000
0010
0100
0000
0100
0010
1000
0100
,
0010
0000
0010
0000
0100
1000
0010
0100
,
0001
0010
0100
0000
0010
0100
1000
0000
,
0010
1000
0010
0000
0100
0010
1000
0010
,
0100
0001
0010
0001
0100
0010
1000
0010
,
0100
0001
0010
0000
0100
0010
0100
0000
,
1000
0001
1000
0000
0010
0100
0010
1000
,
0001
0010
0100
0000
1000
0000
1000
0000
,
1000
0010
1000
0000
0001
0000
0001
0000
,
0001
0010
0001
0000
0100
0000
0100
0000
,
0100
0010
0100
0000
0001
0010
0100
1000
,
0010
0000
0100
0000
0010
1000
0010
0000
,
0100
0001
0100
0000
0001
0010
0100
0010
,
0001
0100
0010
0000
1000
0000
0100
0000
,
1000
0010
0100
0000
0010
1000
0100
0100
,
0010
0001
0100
0100
0010
0000
0000
0000
;

//--------------- dance-single - ----------------
#NOTES:
     dance-single:
     :
     Medium:
     14:
     0,0,0,0,0,0,0,0,0,0,0,0,0,0,0,0,0,0,0,0,0,0:
0000
0000
0000
0000
,
0000
0000
0000
0000
,
0000
0000
0000
0000
,
0000
0000
0000
0000
,
0000
0000
0000
0000
,
0000
0000
1000
0100
0000
0100
0010
0000
0000
0000
0100
0000
1000
0000
0010
0000
,
0000
0000
0100
0001
0000
0001
0010
0000
0000
0000
0100
0010
0100
0000
1000
0000
,
0000
0000
0001
0100
0000
0100
0010
0000
0000
0000
0100
0000
0001
0000
0010
0000
,
0000
0000
0100
0000
0010
0001
0100
0000
0010
0000
0100
0010
0100
0000
0001
1000
,
0000
0000
1000
0100
0000
0100
0010
0000
0000
0000
0100
0000
1000
0000
0010
0000
,
0000
0000
0100
0010
0000
0000
1000
0000
0000
0000
0001
0010
0001
0000
0100
0000
,
0000
0000
0001
0010
0000
0010
0100
0000
0000
0000
1000
0000
0010
0000
0100
0000
,
0000
0000
0001
0000
0010
0000
0001
0000
0100
0000
1000
0100
0001
0000
0010
0000
,
0000
0000
0100
1000
0000
1000
0010
0000
0000
0000
0100
0000
0010
0000
1000
0000
,
0000
0000
0100
0010
0000
0000
0001
0000
0100
0000
0010
0100
0010
0000
0000
0000
,
0000
0000
0100
0001
0000
0001
0010
0000
0000
0000
0100
0000
0010
0000
0001
0000
,
0000
0000
0100
0000
0010
0100
0010
0000
1000
0000
0100
0000
0010
0000
0001
0100
,
0000
0000
0010
0100
0010
0000
1000
0000
0000
0000
0100
0000
0100
0000
0010
0000
,
0000
0000
0001
0100
0001
0000
0010
0000
0100
0000
1000
0000
0010
0000
0000
0000
,
0000
0000
0100
0010
0100
0000
0001
0000
0000
0000
0010
0000
0010
0000
0100
0000
,
0000
0000
0010
0000
0001
0100
0001
0000
0010
0000
0100
0000
1000
0000
0000
0000
,
0000
0000
0010
0100
0010
0000
1000
0000
0000
0000
0100
0000
0100
0000
0010
0000
,
0000
0000
0100
1000
0100
0000
0010
0000
0001
0000
0100
0000
0010
0000
0000
0000
,
0000
0000
0100
0010
0100
0000
0001
0000
0000
0000
0010
0000
0100
0000
1000
0000
,
2002
0000
0000
0000
,
0000
0000
0000
0000
,
0000
3003
1001
0000
,
0001
0000
0010
0001
0100
0000
0010
0100
0001
0010
0100
0000
1000
0010
0100
0000
,
0001
0010
0100
0000
1000
0010
0100
0000
0001
0100
0010
0000
1000
0100
0010
0000
,
0001
0100
0010
0100
0000
0000
0001
0000
0010
0100
1000
0000
0010
0100
0001
0000
,
0010
0100
1000
0000
0010
0100
0001
0000
0010
0001
0100
0000
0010
0100
0000
0000
,
0001
0010
1000
0010
0001
0000
1000
0000
0100
1000
0010
0000
0100
0001
0010
0000
,
0100
1000
0010
0000
0100
0001
0010
0000
0100
0010
0001
0000
0100
0010
1000
0000
,
0100
0010
0001
0100
0020
0000
0000
0000
0130
0001
0010
0000
0100
1000
0010
0000
,
0100
0001
0010
0000
0100
1000
0010
0000
0100
0010
1000
0000
0100
0010
0000
0000
,
0001
0100
1000
0100
0001
0000
1000
0000
0100
0010
0100
0000
1000
0000
0010
0000
,
0100
0000
0001
0000
0020
0000
0032
0000
0103
0010
0100
0000
0001
0000
0010
0000
,
0001
0000
0100
0000
0010
0000
0000
0000
0100
0010
0100
0000
0001
0000
0010
0000
,
0100
0000
1000
0010
2000
0000
3002
0000
0013
0000
0100
0010
0100
0000
1000
0001
,
1000
0000
0010
0000
0100
0000
0000
0000
0010
0100
0010
0000
1000
0000
0100
0010
,
0000
0010
0001
0000
0200
0000
2300
0000
3100
0001
0010
0000
0100
0000
0100
0000
,
0001
0000
0100
0000
0010
0000
0000
0000
0001
0100
0001
0000
0010
0000
0010
0000
,
0100
1000
0001
0100
0010
0000
0010
0100
,
0001
0000
0010
0000
0100
1000
0010
0100
0001
0010
0001
0000
0100
0000
0010
0000
,
1000
0000
0100
1000
0100
0000
0010
0000
0001
0100
0010
0000
1000
0000
1000
0000
,
0100
0000
0010
0000
0001
0000
0000
0000
1000
0010
1000
0000
0100
0000
0010
0000
,
0001
0000
0100
0001
0100
0000
0010
0000
1000
0000
0100
0010
0001
0000
0001
0000
,
0100
0000
0010
0000
1000
0000
0000
0000
0100
0010
0100
0000
1000
0000
0010
0100
,
0000
0100
0001
0000
0020
0000
0230
0000
0310
0000
0001
0100
0010
0000
0010
0000
,
1000
1000
0100
0000
0010
0010
0001
0001
,
0100
0000
0100
0000
0010
0000
0010
1000
0100
0000
0100
0000
0010
0000
0010
0000
,
0001
0000
0100
0010
1000
0000
0100
0010
0001
1000
0001
0000
0100
0000
0100
0000
,
0010
0000
1000
0000
0100
0100
0000
0000
1000
0001
1000
0000
0010
0100
0010
0000
,
0001
0000
0010
0000
0100
0000
0000
0000
0010
0001
0100
0000
0010
1000
0100
0000
,
0001
0000
0100
0000
1000
0000
0010
0000
0100
0000
0010
0100
0001
0000
0010
0100
,
1000
0000
0001
0000
0100
0000
0000
0000
0010
0100
0010
0000
1000
0000
0100
0000
,
0010
0100
0010
0000
1000
0000
0010
0000
0100
0010
1000
0000
0100
0010
0001
0000
,
0100
0010
1000
0000
0001
0000
0000
0000
0010
0000
0001
0100
0010
0000
0100
0001
,
0000
0001
0010
0000
0100
0000
1000
0000
0010
1000
0001
0000
0010
0001
1000
0000
,
0100
1000
0001
0000
0100
0001
1000
0100
0010
0000
0000
0000
0000
0000
0000
0000
;

//--------------- dance-single - ----------------
#NOTES:
     dance-single:
     :
     Hard:
     17:
     0.845065,0.97605,0.059652,0.069594,1.073729,595,589,6,7,0,0,0.845065,0.97605,0.059652,0.069594,1.073729,595,589,6,7,0,0:
0000
0000
0000
0000
,
0000
0000
0000
0000
,
0000
0000
0000
0000
,
0000
0000
0000
0000
,
0000
0000
0000
0000
,
1000
0000
0100
0010
0000
0010
0100
0000
1000
0000
0010
0000
0100
0000
0001
0000
,
0010
0000
0001
0100
0000
0100
0010
0000
1000
0000
0100
0010
0100
0000
1000
0000
,
0001
0000
0100
0010
0000
0010
0100
0000
0001
0000
0010
0000
0100
0000
1000
0000
,
0010
0000
1000
0000
0100
0010
0100
0000
1000
0000
0001
0100
0010
0000
0100
0001
,
0011
0000
0001
0010
0000
0010
0100
0000
1000
0000
0010
0000
0100
0000
0001
0000
,
0010
0000
0000
0000
0000
0000
0100
0000
0000
0001
0000
0000
0100
0000
0000
0000
0000
0000
1000
0000
0000
0000
0000
0000
0010
0000
0000
0000
0000
0000
0100
0000
0001
0000
0100
0000
0001
0000
0000
0000
0000
0000
0010
0000
0000
0000
0000
0000
,
1100
0000
1000
0010
0000
0010
0100
0000
0001
0000
0010
0000
0100
0000
1000
0000
,
0010
0000
0100
0000
1000
0100
0001
0000
0010
0000
0001
0100
1000
0000
0100
0010
,
1010
0000
1000
0100
0000
0100
0010
0000
0001
0000
0100
0000
0010
0000
1000
0000
,
0100
0000
0000
0000
0000
0000
0010
0000
0000
1000
0000
0000
0010
0000
0000
0000
0000
0000
0001
0000
0000
0000
0000
0000
1000
0000
0000
0000
0000
0000
0100
0000
0010
0000
0100
0000
0010
0000
0000
0000
0000
0000
0100
0000
0000
0000
0000
0000
,
0101
0000
0001
0010
0000
0010
0100
0000
1000
0000
0010
0000
0100
0000
0001
0000
,
0010
0000
0100
0000
0001
0100
1000
0000
0010
0000
0100
0010
1000
0000
0100
0010
,
0001
0000
0100
0001
0100
0001
0100
0000
0000
0000
0010
0000
0010
0000
1000
0000
,
0000
0000
0100
1000
0100
1000
0100
0000
0010
0000
0001
1000
0001
0000
0100
0000
,
0000
0000
0010
1000
0010
1000
0010
0000
0000
0000
0100
0000
0100
0000
0001
0000
,
0000
0000
0010
0000
0010
0001
0010
0000
0010
0000
0010
0001
1000
0000
0000
0000
,
0000
0000
0010
1000
0100
1000
0100
0000
0000
0000
0010
0000
0010
0000
0001
0000
,
0000
0000
0010
0001
0100
0001
0100
0000
0010
0000
0100
0001
0010
0000
0000
0000
,
0000
0000
0100
1000
0010
1000
0010
0000
0000
0000
0100
0000
0001
0000
0010
0000
,
0220
0000
0000
0000
,
0000
0000
0000
0000
,
0000
0330
1001
0000
,
0001
0010
0100
1000
0010
1000
0100
0010
0001
0100
1000
0100
0001
0010
1000
0010
,
0001
0100
1000
0100
0001
0010
1000
0010
0001
0100
1000
0100
0001
0010
1000
0010
,
0001
0100
1000
0100
0000
0000
0010
0000
1000
0100
0001
0100
1000
0010
0001
0010
,
1000
0100
0001
0100
1000
0010
0001
0010
1000
0100
0001
0100
1000
0010
0000
0000
,
0100
0010
1000
0001
0020
0000
0230
0000
0301
0100
0010
0100
0001
0100
0010
0100
,
0001
0100
0010
0100
0001
0100
0010
0100
0001
0100
0010
0100
0001
0100
0010
0100
,
0001
0100
0010
0001
0200
0000
0000
0000
1300
0100
0010
0100
1000
0100
0010
0100
,
1000
0100
0010
0100
1000
0100
0010
0100
1000
0100
0010
0100
0010
0010
0000
0000
,
0001
0100
1000
0100
0010
0000
1000
0000
0100
1000
0100
0000
0010
0000
0001
0100
,
0000
0100
0010
0000
2000
0000
3200
0000
0310
0100
0010
0000
0001
0100
0001
0000
,
0100
0000
0000
0000
0000
0000
0001
0000
1000
0000
0001
0000
1000
0000
0000
0000
0000
0000
0000
0000
0000
0000
0000
0000
0100
0000
0000
0010
0000
0000
0100
0000
0000
0000
0000
0000
1000
0000
0000
0010
0000
0000
1000
0000
0000
0000
0000
0000
,
0010
0000
0010
0100
0001
0010
0001
0000
0100
0000
0001
1000
0001
0010
0100
0010
,
0100
1000
0000
1000
0010
0000
0000
0000
0100
0001
0100
0000
0010
0000
1000
0100
,
0000
0100
0010
0000
0002
0000
0203
0000
0310
0100
0010
0000
1000
0100
1000
0000
,
0100
0000
0000
0000
0000
0000
1000
0000
0001
0000
1000
0000
0001
0000
0000
0000
0000
0000
0000
0000
0000
0000
0000
0000
0100
0000
0000
0010
0000
0000
0100
0000
0000
0000
0000
0000
0001
0000
0000
0010
0000
0000
0001
0000
0000
0000
0000
0000
,
0010
0000
0010
0100
1000
0010
1000
0000
0100
0000
0000
0000
1000
0000
0010
0000
,
0100
0001
0100
0001
0100
0010
0100
0010
1000
0100
1000
0000
0010
0000
0100
0000
,
0001
0000
0000
0000
0000
0000
0010
0000
0100
0000
0010
0000
0100
0000
0000
1000
0000
0000
0001
0000
0000
0000
0000
0000
0100
0000
0000
0010
0000
0000
0100
0000
0000
0000
0000
0000
0001
0000
0000
1000
0000
0000
0001
0000
0000
0000
0000
0000
,
0010
0000
0000
0000
0000
0000
0001
0000
0100
0000
0001
0000
0100
0000
0000
0000
0000
0000
0010
0000
0000
0000
0000
0000
1000
0000
0000
0100
0000
0000
1000
0000
0000
0000
0000
0000
0001
0000
0000
0100
0000
0000
0001
0000
0000
0000
0000
0000
,
0010
0000
0100
1000
0010
1000
0000
0100
0010
0000
0001
0100
0010
1000
0000
0000
,
0100
0001
0000
0001
0100
0000
1000
0000
0001
0100
0001
0000
0010
0000
0100
1000
,
0000
0000
0000
0100
0000
0000
1000
0000
0000
0000
0000
0000
0010
0000
0000
0000
0000
0000
0100
0000
0000
0010
0000
0000
1000
0000
0000
0001
0000
0000
0010
0000
0100
0000
0010
0000
0100
0000
0000
1000
0000
0000
0010
0000
0000
0000
0000
0000
,
1000
0000
0001
0010
0001
0000
0000
0000
0100
0000
0100
0010
0000
0100
0001
0010
,
0100
0000
0100
0010
0000
0010
0100
1000
0010
0000
0010
0100
0000
0100
0001
0000
,
0010
0100
1000
0010
0100
0000
0001
0000
1000
0100
1000
0000
0001
0000
0100
0000
,
0010
0000
0000
0000
0000
0000
1000
0000
0100
0000
0010
0000
0001
0000
0000
0100
0000
0000
0000
0000
0000
0000
0000
0000
0001
0000
0000
0010
0000
0000
0001
0000
0000
0000
0000
0000
1000
0000
0000
0010
0000
0000
1000
0000
0000
0000
0000
0000
,
0100
0000
0010
0100
0010
0000
0001
0000
0100
0001
0010
0000
0100
1000
0010
0000
,
0100
0000
0001
0010
0100
0010
0000
0001
1000
0000
0001
0100
0001
0000
1000
0100
,
1000
0000
0000
0010
0000
0000
0100
0000
0000
0001
0000
0000
0010
0000
0000
0000
0000
0000
0000
0000
0000
0000
0000
0000
0100
0000
0000
0010
0000
0000
0100
0000
0000
0000
0000
0000
1000
0000
0010
0000
1000
0000
0010
0000
0000
0100
0000
0000
,
0001
0000
0000
0010
0000
0000
0001
0000
0000
0000
0000
0000
0100
0000
0000
0001
0000
0000
0010
0000
0000
0100
0000
0000
1000
0000
0000
0010
0000
0000
0100
0000
0001
0000
0100
0000
0001
0000
0000
0010
0000
0000
1000
0000
0000
0010
0000
0000
,
0001
0100
1000
0100
0001
0000
0010
0001
0100
0000
0010
1000
0100
0000
0010
0100
,
0000
0000
0000
0100
0000
0000
1000
0000
0000
0000
0000
0000
0010
0000
0100
0000
0010
0000
0100
0000
0000
0001
0000
0000
1000
0000
0000
0010
0000
0000
0100
0000
0000
0100
0000
0000
0001
0000
0000
0010
0000
0000
0100
0000
0000
0100
0000
0000
,
0010
0001
1000
0010
0100
0001
1000
0100
0010
0000
0000
0000
0000
0000
0000
0000
;
