#VERSION:0.83;
#TITLE:Жужжалка76;
#SUBTITLE:;
#ARTIST:かめりあ;
#TITLETRANSLIT:Zhuzhzhalka76;
#SUBTITLETRANSLIT:;
#ARTISTTRANSLIT:Camellia;
#GENRE:;
#CREDIT:;
#MUSIC:Zhuzhzhalka76.ogg;
#BANNER:Zhuzhzhalka76.png;
#BACKGROUND:Zhuzhzhalka76-bg.png;
#CDTITLE:cdtitle.png;
#SAMPLESTART:87.273;
#SAMPLELENGTH:10.909;
#SELECTABLE:YES;
#OFFSET:0.000;
#BPMS:0.000=176.000;
#STOPS:;
#SPEEDS:0.000=1.000=0.000=0;
#SCROLLS:0.000=1.000;
#TICKCOUNTS:0.000=4;
#TIMESIGNATURES:0.000=4=4;
#LABELS:0.000=Song Start;
#COMBOS:0.000=1;
#ORIGIN:;
#TAGS:;
#PREVIEWVID:;
#JACKET:Zhuzhzhalka76-jacket.png;
#CDIMAGE:;
#DISCIMAGE:;
#BGCHANGES:;
#FGCHANGES:;

//--------------- dance-single - MEGAtive ----------------
#NOTEDATA:;
#STEPSTYPE:dance-single;
#DESCRIPTION:MEGAtive;
#DIFFICULTY:Beginner;
#METER:4;
#RADARVALUES:0.151459,0.265805,0.112789,0.308289,0,141,126,15,41,0,0,0,0,0,0.151459,0.265805,0.112789,0.308289,0,141,126,15,41,0,0,0,0,0;
#CHARTNAME:;
#CHARTHASH:1306676013:;
#BANNER:;
#CHARTSTYLE:;
#METERF:0.000000;
#CREDIT:;
#NOTES:
0000
0000
0000
0000
,
0000
0000
0000
0000
,
0000
0000
0000
0000
,
0000
0000
0000
0000
,
1000
0000
0000
0000
,
0001
0000
0000
0000
,
0100
0000
0000
0000
,
0000
2002
0000
0000
3003
0000
0000
0000
,
1001
0000
0000
0000
,
0100
0000
0000
0000
,
0010
0000
0000
0000
,
1000
0000
0000
0000
,
0001
0000
0000
0000
,
0010
0000
0000
0000
,
0100
0000
0000
0000
,
1000
0000
0000
0000
,
0002
0000
0000
0000
,
0000
0000
0003
0000
,
2000
0000
0000
0000
,
0000
0000
3000
0000
,
0020
0000
0000
0000
,
0000
0000
0030
0000
,
0200
0000
0000
0000
,
0300
0000
0000
0000
,
0001
0000
0010
0000
,
0001
0000
0000
0000
,
1000
0000
0010
0000
,
1000
0000
0000
0000
,
2002
0000
0000
0000
,
3003
0000
0000
0000
,
1000
1000
1000
0000
,
1001
0000
0000
0000
,
0002
0000
0103
0000
,
0002
0000
1003
0000
,
2000
0000
3100
0000
,
2000
0000
3001
0000
,
0002
0000
0013
0000
,
0002
0000
1003
0000
,
2000
0000
3010
0000
,
2000
0000
0002
3003
,
0000
0001
0001
0000
,
0100
0100
0100
0000
,
0010
0010
1000
0000
,
0100
0100
0100
0000
,
0020
0000
0000
0000
,
2030
0000
0000
3000
,
2002
0000
0000
0000
,
3003
0000
0000
0000
,
0002
0000
0000
0003
,
0200
0000
0000
0300
,
0220
0000
0000
0000
,
0330
0000
0000
0000
,
0020
0000
0000
0030
,
2000
0000
0000
3000
,
2002
0000
0000
0000
,
3003
0000
0000
0000
,
1000
0000
0000
1000
0000
0000
1000
0000
,
0000
1000
0000
0000
1000
0000
0000
0000
,
0001
0000
0000
0001
0000
0000
0001
0000
,
0000
0001
0000
0000
0001
0000
0000
0000
,
2002
0000
0000
0000
,
3003
0000
0000
0000
,
0220
0000
0000
0000
,
0330
0000
0000
0000
,
1000
1000
0010
0000
,
0001
0001
0010
0000
,
1000
1000
0100
0000
,
0001
0001
0100
0000
,
1000
1000
0010
0000
,
0001
0001
0010
0000
,
1000
1000
0100
0000
,
0001
0001
0100
0000
,
1000
0010
1000
0000
,
0001
0010
0001
0000
,
1000
0010
1000
0000
,
0001
0010
0001
0000
,
0001
0100
0001
0000
,
1000
0100
1000
0000
,
0001
0010
0001
0000
,
1001
0000
0000
0000
,
2002
0000
0000
3003
0000
0000
0000
0000
,
0000
0000
0000
0000
,
0220
0000
0000
0330
0000
0000
0000
0000
,
0000
0000
0000
0000
,
1001
0000
0000
0000
,
0000
0000
0000
0000
,
0000
0000
0000
0000
,
0000
0000
2002
0000
0000
3003
0000
0000
,
0220
0000
0000
0330
0000
0000
0000
0000
;

//--------------- dance-single - MEGAtive ----------------
#NOTEDATA:;
#STEPSTYPE:dance-single;
#DESCRIPTION:MEGAtive;
#DIFFICULTY:Easy;
#METER:6;
#RADARVALUES:0.247061,0.338836,0.112789,0.218058,0,230,215,15,29,0,0,0,0,0,0.247061,0.338836,0.112789,0.218058,0,230,215,15,29,0,0,0,0,0;
#CHARTNAME:;
#CHARTHASH:2147483647:;
#BANNER:;
#CHARTSTYLE:;
#METERF:0.000000;
#CREDIT:;
#NOTES:
0000
0000
0000
0000
,
0000
0000
0000
0000
,
0000
0000
0000
0000
,
0000
0000
0000
0000
,
0002
0000
0000
0000
,
0203
0000
0000
0000
,
0320
0000
0000
0000
,
0030
2002
0000
0000
0000
0000
3003
0000
,
2000
0000
3100
0000
,
0002
0000
0103
0000
,
2000
0000
3010
0000
,
0002
0000
0013
0000
,
2000
0000
3100
0000
,
0002
0000
0103
0000
,
2000
0000
3010
0000
,
0002
0000
0013
0000
,
1000
0000
1000
0000
,
1000
0000
0000
0000
,
0001
0000
0001
0000
,
0001
0000
0000
0000
,
0010
0000
0010
0000
,
0010
0000
0000
0000
,
0100
0000
0100
0000
,
0100
0000
0000
0000
,
1000
0100
1000
0100
,
0010
0001
0100
0000
,
0001
0100
0001
0100
,
0010
1000
0100
0000
,
2002
0000
0000
0000
,
3003
0000
0000
0000
,
0001
0001
1000
1000
,
0010
0000
0000
0000
,
1000
0000
1000
0000
,
0001
0100
0010
1000
,
0001
0000
0001
0000
,
1000
0100
0010
0001
,
1000
0000
1000
0000
,
0001
0100
0010
1000
,
0001
0000
0001
0000
,
1000
0100
0010
0002
,
0003
1000
0010
1000
,
0010
0001
0010
1000
,
0001
0010
0001
0010
,
1000
0010
0001
0010
,
0001
0000
1000
0000
0000
1000
0000
1000
,
0010
0000
0010
0000
0000
0010
0000
0000
,
2002
0000
0000
0000
,
3003
0000
0000
0000
,
0001
0010
0100
1000
,
0001
0100
0010
1000
,
0001
0000
0000
0001
0000
0001
0000
0000
,
0100
0000
0000
0100
0000
0100
0000
0000
,
0001
0100
0010
1000
,
0001
0010
0100
1000
,
0001
0000
0000
0001
0000
0001
0000
0000
,
0010
0000
0000
0020
0000
0000
0000
0000
,
0031
0000
0000
1001
0000
0000
1000
0000
,
0000
1001
0000
0000
0001
0000
0100
0000
,
0010
0000
0000
0110
0000
0000
0100
0000
,
0000
0110
0000
0000
0010
0000
1000
0000
,
0002
0000
0000
0000
,
0003
0000
0000
0000
,
1000
0100
0001
0100
,
0000
2000
0000
0000
0000
3000
0000
0000
,
1000
0100
1000
0010
,
0100
0001
0010
0001
,
1000
0010
1000
0100
,
0010
0001
0100
0001
,
1000
0100
0010
0001
,
0100
0010
0100
0001
,
1000
0010
0100
0001
,
0010
0100
0010
0001
,
1000
0100
0001
0100
,
1000
0100
0001
0100
,
1000
0010
0001
0010
,
1000
0010
0001
0010
,
1000
0100
0001
0100
,
1000
0100
0001
0100
,
1000
0010
0001
0010
,
2000
0000
3000
0000
,
1001
0000
0000
2002
0000
0000
0000
0000
,
3003
0000
0000
0000
,
0110
0000
0000
0220
0000
0000
0000
0000
,
0330
0000
0000
2000
0000
0000
0000
0000
,
3001
0000
0000
0000
,
0000
0000
0000
0000
,
0000
0000
0000
0000
,
0000
0000
1001
0000
0000
1001
0000
0000
,
0110
0000
0000
0220
0000
0000
0000
0000
,
0000
0000
0000
0000
,
0000
0330
0000
0000
0000
0000
0000
0000
;

//--------------- dance-single - MEGAtive ----------------
#NOTEDATA:;
#STEPSTYPE:dance-single;
#DESCRIPTION:MEGAtive;
#DIFFICULTY:Medium;
#METER:10;
#RADARVALUES:0.350182,0.406603,0.082712,0.187981,0.060154,326,315,11,25,0,0,0,0,0,0.350182,0.406603,0.082712,0.187981,0.060154,326,315,11,25,0,0,0,0,0;
#CHARTNAME:;
#CHARTHASH:1234126036:;
#BANNER:;
#CHARTSTYLE:;
#METERF:0.000000;
#CREDIT:;
#NOTES:
0000
0000
0000
0000
,
0000
0000
0000
0000
,
0000
0000
0000
0000
,
0000
0000
0000
0000
,
2000
0000
0000
0000
0000
0010
0000
0000
,
3002
0000
0000
0010
0000
0000
0000
0000
,
2003
0000
0000
0000
,
3000
2002
0000
0000
0000
0000
3003
0000
,
1000
0000
0000
0000
1000
0000
0000
0000
0001
0000
0000
0100
0000
0000
0010
0000
,
0000
0100
0010
0000
1000
0000
0100
0000
,
0010
0000
0000
0000
0010
0000
0000
0000
0001
0000
0000
1000
0000
0000
0100
0000
,
0000
1000
0100
0000
0010
0000
0001
0000
,
1000
0000
0000
0000
1000
0000
0000
0000
0001
0000
0000
0010
0000
0000
0100
0000
,
0000
0010
0100
0000
1000
0000
0010
0000
,
0100
0000
0000
0000
0100
0000
0000
0000
0001
0000
0000
1000
0000
0000
0010
0000
,
0000
1000
0010
0000
0100
0000
0001
0000
,
1000
1000
1000
1000
,
1000
1000
0000
0000
,
0001
0001
0001
0001
,
0001
0001
0000
0000
,
0010
0010
0010
0010
,
0010
0010
0000
0000
,
0100
0100
0100
0100
,
0200
0000
0000
0300
0000
0000
0000
0000
0000
0000
0000
0000
0000
0000
0000
0000
,
1000
0100
1000
0000
0001
0100
0001
0000
,
0010
0100
0010
0000
0001
0000
0001
0000
,
1000
0010
1000
0000
0001
0010
0001
0000
,
0100
0010
0100
0000
0001
0000
0001
0000
,
2000
0000
0000
0000
,
0000
0000
0000
0000
,
3001
0010
0001
0000
0100
0010
0100
0000
,
0002
0000
0003
0000
,
1000
1000
0001
0001
,
1000
0100
0001
0100
,
1000
1000
0001
0001
,
1000
0000
0010
0000
0100
0000
0001
0100
,
0001
0001
1000
1000
,
0001
0010
1000
0010
,
0001
0001
1000
1000
,
0001
0000
0100
0000
0010
0100
0020
0000
,
0030
1000
1000
0001
,
0010
0000
1000
0000
0010
0000
0001
1000
,
0001
0001
1000
0010
,
0001
0000
0010
0000
1000
0000
0100
0010
,
0100
0000
1000
0001
0000
0001
1000
0000
,
0010
0000
0100
0010
0000
0010
0100
0000
,
0002
0000
0000
0000
,
0003
0000
0000
0000
,
0001
0000
0100
0010
0100
0000
0001
1000
,
0001
0000
0010
0100
0010
0000
0002
0000
,
1003
0000
0010
0100
0000
0001
0100
0000
,
0001
0000
0010
0100
0000
0010
0001
0000
,
1000
0000
0100
0010
0100
0000
1000
0001
,
1000
0000
0010
0100
0010
0000
2000
0000
,
3001
0000
0010
0100
0000
1000
0100
0000
,
1000
0000
0010
0100
0020
0000
0000
0000
,
1030
0100
0000
0001
0100
0000
1000
0100
,
0000
0001
0100
0000
1000
0000
1000
0000
,
0001
0100
0000
1000
0100
0000
0001
0100
,
0000
1000
0100
0000
0001
0000
0001
0000
,
2002
0000
0000
0000
,
3003
0000
0000
0000
,
1000
0100
1000
0000
0001
0100
0001
0000
,
0000
2002
0000
0000
0000
0000
3003
0000
,
1000
0000
0000
0000
0100
0000
0010
0000
0100
0000
0000
1000
0000
0000
0010
0000
,
0000
0100
0010
0000
0001
0000
0010
0000
,
1000
0000
0000
0000
0010
0000
0100
0000
0010
0000
0000
1000
0000
0000
0100
0000
,
0000
0010
0100
0000
0001
0000
0100
0000
,
1000
0000
0000
0000
0100
0000
0010
0000
0100
0000
0000
1000
0000
0000
0010
0000
,
0000
0100
0010
0000
0001
0000
0010
0000
,
1000
0000
0000
0000
0010
0000
0100
0000
0010
0000
0000
1000
0000
0000
0100
0000
,
0000
0010
0100
0000
0001
0000
0100
0000
,
1000
0000
0000
1000
0100
0000
0000
0000
0001
0000
0000
0000
0100
0000
0000
0000
,
1000
0000
0000
1000
0010
0000
0000
0000
0001
0000
0000
0000
0010
0000
0000
0000
,
0100
0000
0000
0100
0001
0000
0000
0000
0010
0000
0000
0000
1000
0000
0000
0000
,
0010
0000
0000
0010
0100
0000
0000
0000
1000
0000
0000
0000
0001
0000
0000
0000
,
1000
0000
0000
1000
0010
0000
0000
0000
0001
0000
0000
0000
0010
0000
0000
0000
,
1000
0000
0000
1000
0100
0000
0000
0000
0001
0000
0000
0000
0100
0000
0000
0000
,
0010
0000
0000
0010
0001
0000
0000
0000
0100
0000
0000
0000
1000
0000
0000
0000
,
0200
0000
0300
0000
,
0101
0000
0000
2020
0000
0000
0000
0000
,
3030
0000
0000
0000
,
1100
0000
0000
0022
0000
0000
0000
0000
,
0033
0000
0000
0001
0010
0000
0100
0010
,
0200
0000
0000
0000
,
0000
0000
0000
0000
,
0000
0000
0000
0000
,
0300
0000
1100
0000
0000
1001
0000
0000
,
0101
0000
0000
2002
0000
0000
0000
0000
,
0000
0000
0000
0000
,
0000
3003
0000
0000
0000
0000
0000
0000
;

//--------------- dance-single - MEGAtive ----------------
#NOTEDATA:;
#STEPSTYPE:dance-single;
#DESCRIPTION:MEGAtive;
#DIFFICULTY:Hard;
#METER:13;
#RADARVALUES:0.508086,0.609905,0.127827,0.646655,0.180462,473,456,17,86,15,0,0,0,0,0.508086,0.609905,0.127827,0.646655,0.180462,473,456,17,86,15,0,0,0,0;
#BPMS:0.000=176.000
,86.250=352.000
,87.000=176.000
,101.500=352.000
,102.000=176.000
,116.000=352.000
,117.000=176.000
;
#STOPS:70.000=0.128
,78.125=0.128
,86.250=0.215
,101.500=0.595
,116.000=0.510
,131.000=0.340
;
#WARPS:70.000=8.000,
78.250=8.000,
93.000=8.500,
108.000=8.000,
123.000=8.000
;
#SPEEDS:0.000=1.000=0.000=0;
#SCROLLS:0.000=1.000;
#TICKCOUNTS:0.000=4;
#TIMESIGNATURES:0.000=4=4;
#LABELS:0.000=Song Start;
#COMBOS:0.000=1;
#DISPLAYBPM:176.000;
#CHARTNAME:;
#CHARTHASH:1419999331:;
#BANNER:;
#CHARTSTYLE:;
#METERF:0.000000;
#CREDIT:;
#NOTES:
0000
0000
0000
0000
,
0000
0000
0000
0000
,
0000
0000
0000
0000
,
0000
0000
0000
0000
,
2000
0000
0000
0000
0000
0010
0000
0000
,
3002
0000
0000
0100
0000
0000
0000
0000
,
2003
0000
0200
0000
,
3300
0022
0000
0000
0000
0000
0033
0000
,
2001
0000
0000
0000
3010
0000
0000
0000
0001
0000
0000
0010
0000
0000
2000
0000
,
0000
0000
3100
0000
0010
0000
0100
0000
2000
0000
0000
0010
0000
0000
0000
0000
,
3001
0000
0000
0000
0010
0000
0000
0000
1000
0000
0000
0010
0000
0000
0002
0000
,
0000
0000
0103
0000
0010
0000
0100
0000
0002
0000
0000
0010
0000
0000
0000
0000
,
1003
0000
0000
0000
0100
0000
0000
0000
0001
0000
0000
0100
0000
0000
2000
0000
,
0000
0000
3010
0000
0100
0000
0010
0000
2000
0000
0000
0100
0000
0000
0000
0000
,
3001
0000
0000
0000
0100
0000
0000
0000
1000
0000
0000
0100
0000
0000
0002
0000
,
0000
0000
0013
0000
0100
0000
0010
0000
0002
0000
0000
0100
0000
0000
0000
0000
,
1003
1000
1000
1000
,
1000
1000
0000
000M
,
0000
0000
0000
0000
,
0000
0000
0000
0000
0000
0000
0000
0000
0000
0000
0000
0000
0000
0M0M
0000
0000
,
0000
0000
0000
0000
,
0000
0000
0000
0101
,
0001
0001
0001
0001
,
0001
MM00
0000
0000
,
0000
0000
0000
0000
,
0000
0000
1100
1000
,
1000
1000
1000
1000
,
0000
00MM
0000
0000
,
0000
0000
0000
0000
,
0000
0011
0001
0001
,
0001
0000
0000
0000
2000
0000
0000
3000
0000
0000
0000
0000
0000
0000
0000
0000
,
0000
0000
0000
0000
,
0000
0000
0000
0000
,
1000
0010
0001
0000
0001
0010
1000
0000
,
1000
0010
0001
0010
1000
0001
1000
0000
,
0001
0010
1000
0000
1000
0010
0001
0000
,
0001
0010
1000
0010
0001
1000
0001
0000
,
2000
0000
0000
0000
,
0000
0000
0000
0000
,
3001
0100
1000
0001
0010
1000
0100
0010
,
0002
0000
0003
0000
,
1000
0200
0000
0001
0000
0001
0000
1300
,
0001
0010
0100
0010
1000
0010
0100
0100
,
1000
0020
0000
0001
0000
0001
0000
1030
,
0001
0010
0000
0000
0100
0000
1000
0000
1000
0010
0000
0000
0020
0000
0000
0000
,
1030
0020
0000
0001
0000
0001
0000
1030
,
0001
0100
0010
0100
1000
0100
0010
0010
,
1000
0200
0000
0001
0000
0001
0000
1300
,
0001
0010
0000
0000
0011
0000
0001
0000
0100
0000
1000
0000
0200
0000
0000
0000
,
0301
0000
0001
0100
0001
0100
1000
0100
,
0001
1000
0010
0001
0010
1000
0002
0000
,
1003
0100
1000
0100
0001
0100
0001
0100
,
1000
0010
0000
0000
0001
0000
0010
0000
1000
0010
0000
0000
1000
0000
0000
0000
,
0101
0000
0000
0000
0100
0001
0020
0000
0000
0000
0130
0000
0001
0000
0100
0000
,
2000
0000
0000
0000
3010
0100
0010
0100
0000
0010
1000
0000
0001
0000
0000
0000
,
2002
0000
0000
0000
,
3003
0000
0000
0000
,
1000
0100
0001
0100
1000
0100
0001
0100
,
1000
0001
0100
1000
0100
0001
2000
0000
,
3002
0000
0103
0010
0100
1000
0100
0010
,
1000
0001
0010
0100
0001
1000
0020
0000
,
0031
0100
1000
0100
0001
0100
1000
0100
,
0001
1000
0100
0001
0100
1000
0002
0000
,
2003
0000
3100
0010
0100
0001
0100
0010
,
0001
1000
0010
0100
1000
0001
0020
0000
,
1030
0000
0100
00M0
0100
0000
0001
0000
0010
0M00
0010
0000
1000
0000
0100
00M0
,
0100
0000
0001
0000
0010
0M00
0010
0000
1000
0000
0100
0000
0001
0000
0100
0000
,
1000
0000
0010
0M00
0010
0000
0001
0000
0100
00M0
0100
0000
1000
0000
0010
0M00
,
0010
0000
0001
0000
0100
00M0
0100
0000
1000
0000
0010
0000
0001
0000
0010
0000
,
1000
0001
0010
0001
1000
0010
1000
1000
,
0001
0100
0001
1000
0100
1000
0001
0001
,
1000
0100
0001
1000
0010
0100
0010
0001
,
0000
2002
0000
0000
0000
0000
3003
0000
,
1000
0000
0001
0000
0100
0010
0100
0000
2000
0000
0000
3002
0000
0000
0023
0000
,
1030
0100
0010
0100
0002
0000
0203
0000
,
1300
0000
0001
0000
0010
0100
0010
0000
2000
0000
0000
3002
0000
0000
0203
0000
,
1300
0010
0100
0010
0002
0000
0013
1000
,
0001
0000
1000
0000
0100
0010
0100
0000
0002
0000
0000
2003
0000
0000
3020
0000
,
0031
0100
0010
0100
2000
0000
3200
0000
,
0301
0000
1000
0000
0010
0100
0010
0000
0002
0000
0000
2003
0000
0000
3200
0000
,
0301
0010
0100
0010
2000
0000
3010
0001
,
1000
0010
0000
0002
0000
0000
0013
0000
1000
0000
0100
0000
0020
0000
0000
0000
,
1030
0010
0000
0002
0000
0000
1003
0000
0200
0000
0000
0000
0301
0000
0100
0000
,
1000
0010
0000
0002
0000
0000
0013
0000
1000
0000
0100
0000
0020
0000
0000
0000
,
1030
0010
0000
0002
0000
0000
1003
0000
0200
0000
0000
0000
1300
0000
1000
0000
,
0001
0010
0000
2000
0000
0000
3010
0000
0001
0000
0100
0000
0020
0000
0000
0000
,
0031
0010
0000
2000
0000
0000
3001
0000
0200
0000
0000
0000
1300
0000
0100
0000
,
0001
0010
0000
2000
0000
0000
3010
0000
0001
0000
0100
0000
0010
0000
1000
0000
,
0002
0000
0003
0000
,
0011
0000
0000
2100
0000
0001
0000
0001
,
0000
0010
0000
0010
0000
0001
0000
3001
,
0101
0000
0000
2010
0000
0001
0000
0001
,
0000
0100
0000
3100
0010
1000
0001
0100
,
0020
0000
0000
0000
0230
0000
1300
0001
,
2000
3020
0230
0000
,
2300
0000
3200
0000
,
0300
0000
2002
0000
3003
2200
0000
3300
,
0202
0000
0303
0220
0000
0000
0000
0000
,
0000
0000
0000
0000
,
0000
0330
0000
0000
0000
0000
0000
0000
;

//--------------- dance-single - MEGAtive ----------------
#NOTEDATA:;
#STEPSTYPE:dance-single;
#DESCRIPTION:MEGAtive;
#DIFFICULTY:Challenge;
#METER:15;
#RADARVALUES:0.630543,0.857147,0.127827,0.691771,0.439876,587,570,17,92,6,0,0,0,1,0.630543,0.857147,0.127827,0.691771,0.439876,587,570,17,92,6,0,0,0,1;
#BPMS:0.000=176.000
,86.250=352.000
,87.000=176.000
,101.000=352.000
,102.000=176.000
,116.000=352.000
,117.000=176.000
;
#STOPS:70.000=0.128
,78.125=0.128
,86.250=0.215
,101.500=0.595
,116.000=0.510
,131.000=0.340
;
#WARPS:70.000=8.000,
78.250=8.000,
93.000=8.500,
108.000=8.000,
123.000=8.000
;
#SPEEDS:0.000=1.000=0.000=0;
#SCROLLS:0.000=1.000;
#TICKCOUNTS:0.000=4;
#TIMESIGNATURES:0.000=4=4;
#LABELS:0.000=Song Start;
#COMBOS:0.000=1;
#CHARTNAME:;
#CHARTHASH:1786247513:;
#BANNER:;
#CHARTSTYLE:;
#METERF:0.000000;
#CREDIT:;
#NOTES:
0000
0000
0000
0000
,
0000
0000
0000
0000
,
0000
0000
0000
0000
,
0000
0000
0000
0000
,
0002
0000
0000
0000
0000
1000
0000
0000
,
0203
0000
0000
0010
0000
0000
0000
0000
,
0302
0000
2000
0000
,
3003
0000
0001
0000
0100
0010
0000
1000
0000
0100
0010
0000
0100
0000
0000
0000
,
1200
0000
0000
0000
0001
0000
0000
0000
2300
0000
0000
0010
0000
0000
3002
0000
,
0000
0000
0103
0000
1000
0000
0100
0000
0002
0000
0000
1000
0000
0000
0000
0000
,
0023
0000
0000
0000
1000
0000
0000
0000
0032
0000
0000
0100
0000
0000
2003
0000
,
0000
0000
3010
0000
0001
0000
0010
0000
2000
0000
0000
0001
0000
0000
3100
1000
,
0020
0000
0000
0000
0001
0000
0000
0000
2030
0000
0000
0100
0000
0000
3002
0000
,
0000
0000
0013
0000
1000
0000
0010
0000
0002
0000
0000
1000
0000
0000
0000
0000
,
0203
0000
0000
0000
1000
0000
0000
0000
0302
0000
0000
0010
0000
0000
2003
0000
,
0000
0000
3100
0000
0001
0000
0100
0000
2000
0000
0000
3002
0000
0000
0000
0000
,
1003
1000
1000
1000
,
1000
1000
0000
000M
,
0000
0000
0000
0000
,
0000
0000
0000
0000
0000
0000
0000
0000
0000
0000
0000
0000
0000
0000
0000
0000
0000
0000
0000
0000
0000
0000
0000
0000
0000
00MM
0000
0000
0000
0000
0000
0000
,
0000
0000
0000
0000
,
0000
0000
0000
0011
,
0001
0001
0001
0001
,
0001
0000
M0M0
0000
,
0000
0000
0000
0000
,
0000
0000
1010
1000
,
1000
1000
1000
1000
,
0000
0M0M
0000
0000
,
0000
0000
0000
0000
,
0000
0101
0001
0001
,
0001
0000
0000
0000
0002
0000
0000
0003
0000
0000
0000
0000
0000
0000
0000
0000
,
0000
0000
0000
0000
,
0000
0000
0000
0000
,
1000
0010
1000
0010
0100
0001
0100
0001
,
1000
0100
0010
0100
1000
0010
0100
0010
,
1000
0100
1000
0100
0010
0001
0010
0001
,
1000
0010
0100
0010
1000
0100
0010
0100
,
2000
0000
0000
0000
,
0000
0000
0000
0000
,
3001
0010
0001
0010
0001
1000
0010
0100
0010
1000
0001
0010
0100
1000
0010
0100
,
0002
0000
0003
0000
,
1000
0100
1000
0100
0001
0100
0001
0100
,
1000
0000
0100
0000
0010
0000
0100
0000
0001
0000
0100
0000
0010
0001
0000
1000
,
0010
1000
0010
1000
0010
0001
0010
0001
,
0010
0100
0001
0000
0010
0000
0100
1000
0100
1000
0000
1000
0020
0000
0000
0000
,
1030
0010
1000
0010
0001
0010
0001
0010
,
1000
0000
0010
0000
0100
0000
0010
0000
0001
0000
0010
0000
0100
0010
0000
1000
,
0100
1000
0100
1000
0100
0001
0100
0001
,
0100
0010
0001
0000
1000
0000
0010
0100
0010
0000
0001
0000
0020
0000
0000
0000
,
1030
0000
0001
0010
0100
0010
1000
0010
,
0100
0000
1000
0000
0001
0000
0100
0000
0010
0000
0100
0000
1000
0200
0010
0000
,
0301
0100
0010
0100
1000
0100
0010
1000
,
0001
0010
0100
0000
0001
0000
0200
0010
0000
2300
0000
0000
3001
0000
0000
0000
,
0201
0000
0000
0000
1300
0100
0002
0000
0000
0000
0010
0000
0023
0000
0130
1000
,
0020
0000
0000
0000
0130
0001
1000
0001
0000
0001
0020
0000
0030
0000
0001
0000
,
0001
0010
0100
1000
0010
0100
0001
0010
,
0200
0000
0300
0000
,
1000
0100
1000
0000
0001
0100
0001
0000
1000
0010
1000
0000
0001
0010
0001
0000
,
1000
0100
1000
0000
0001
0010
0001
0000
1000
0010
1000
0000
0002
0000
0000
0000
,
0203
0000
0000
0000
1300
0000
0100
0000
0001
0000
0010
0000
0100
0010
0100
0000
,
1000
0001
0010
1000
0001
0100
2000
0000
,
3001
0100
0001
0000
1000
0100
1000
0000
0001
0010
0001
0000
1000
0010
1000
0000
,
0001
0100
0001
0000
1000
0010
1000
0000
0001
0010
0001
0000
2000
0000
0000
0000
,
3200
0000
0000
0000
0301
0000
0100
0000
1000
0000
0010
0000
0100
0010
0100
0000
,
0001
1000
0010
0001
1000
0100
0002
0000
,
1003
0001
0010
0000
0100
0000
0001
0100
0010
0000
0001
0000
1000
0010
0100
0000
,
1000
0000
0100
0010
1000
0000
0001
0000
0010
0100
1000
0000
0001
0010
0100
0000
,
1000
0001
0100
0000
0010
0000
0001
0010
0100
0000
0001
0000
1000
0100
0010
0000
,
1000
0000
0010
0100
1000
0000
0001
0000
0100
0010
1000
0000
0001
0100
0010
0000
,
1000
0001
0010
0001
1000
0100
0010
0100
,
1000
0001
0100
1000
0100
0001
0010
0100
,
1000
0100
0010
0000
0001
0100
0010
0000
1000
0100
0010
0000
0001
0100
0010
1000
,
0000
0002
0000
0000
0000
0000
0003
0000
,
0021
0000
0130
0000
0010
0001
0010
0001
0100
0000
0000
1000
0100
0000
0002
0000
,
1003
0000
0010
0000
0100
0000
0001
0000
0020
0100
0000
0000
0032
0000
0003
0000
,
0201
0000
0310
0000
0100
0001
0100
0001
0010
0000
0000
1000
0010
0000
0002
0000
,
1003
0000
0100
0000
0010
0000
0001
0000
0200
1000
0000
0000
0320
0000
0030
0000
,
1020
0000
0130
0000
0010
1000
0010
1000
0100
0000
0000
0001
0100
0000
2000
0000
,
3001
0000
0010
0000
0100
0000
1000
0000
0020
0100
0000
0000
2030
0000
3000
0000
,
1200
0000
0310
0000
0100
1000
0100
1000
0010
0000
0000
0001
0010
0000
2000
0000
,
3001
0000
0100
0000
0010
0000
1000
0000
0200
0001
0000
0000
0310
0000
0001
0000
,
2000
0010
0000
3020
0000
0000
0130
0010
0100
0000
1000
0000
0200
0000
0000
0000
,
0302
0010
0000
0023
0000
0000
0130
0000
0200
0000
0000
0000
0310
0000
0001
0000
,
2000
0010
0000
3020
0000
0000
0130
0010
0100
0000
1000
0000
0200
0000
0000
0000
,
0302
0010
0000
0023
0000
0000
0130
0000
0200
0000
0000
0000
1300
0000
1000
0000
,
0002
0010
0000
0023
0000
0000
0130
0010
0100
0000
0001
0000
0200
0000
0000
0000
,
2300
0010
0000
3020
0000
0000
0130
0000
0200
0000
0000
0000
0310
0000
1000
0000
,
0002
0010
0000
0023
0000
0000
0130
0010
0100
1000
0000
1000
0010
0100
0001
1000
,
0002
0000
0003
0000
,
1010
0000
0001
0021
0000
1000
0000
1000
,
0000
0100
0000
0100
0000
0001
0000
0031
,
0011
0000
1000
1020
0000
0001
0000
0001
,
0000
0000
0100
0000
0000
0000
0130
0010
0100
0001
1000
0100
0010
0100
1000
0001
,
0020
0000
0000
0000
0230
0000
1300
0001
,
0200
0320
0032
0000
,
0023
0000
2030
0000
,
0000
3000
2100
0000
3001
0102
0000
1003
,
2010
0000
3001
0022
0000
0000
0000
0000
,
0000
0000
0000
0000
,
0000
0033
0000
0000
0000
0000
0000
0000
;

//--------------- dance-single - Original CSP ----------------
#NOTEDATA:;
#STEPSTYPE:dance-single;
#DESCRIPTION:Original CSP;
#DIFFICULTY:Edit;
#METER:15;
#RADARVALUES:0.630543,0.779323,0.127827,0.691771,0.436116,587,570,17,92,7,0,0,0,0,0.630543,0.779323,0.127827,0.691771,0.436116,587,570,17,92,7,0,0,0,0;
#CHARTNAME:;
#CHARTHASH:2147483647:;
#BANNER:;
#CHARTSTYLE:;
#METERF:0.000000;
#CREDIT:;
#NOTES:
0000
0000
0000
0000
,
0000
0000
0000
0000
,
0000
0000
0000
0000
,
0000
0000
0000
0000
,
0002
0000
0000
0000
0000
1000
0000
0000
,
0203
0000
0000
0010
0000
0000
0000
0000
,
0302
0000
2000
0000
,
3003
0000
0001
0000
0100
0010
0000
1000
0000
0100
0010
0000
0100
0000
0000
0000
,
1200
0000
0000
0000
0001
0000
0000
0000
2300
0000
0000
0010
0000
0000
3002
0000
,
0000
0000
0103
0000
1000
0000
0100
0000
0002
0000
0000
1000
0000
0000
0000
0000
,
0023
0000
0000
0000
1000
0000
0000
0000
0032
0000
0000
0100
0000
0000
2003
0000
,
0000
0000
3010
0000
0001
0000
0010
0000
2000
0000
0000
0001
0000
0000
3100
1000
,
0020
0000
0000
0000
0001
0000
0000
0000
2030
0000
0000
0100
0000
0000
3002
0000
,
0000
0000
0013
0000
1000
0000
0010
0000
0002
0000
0000
1000
0000
0000
0000
0000
,
0203
0000
0000
0000
1000
0000
0000
0000
0302
0000
0000
0010
0000
0000
2003
0000
,
0000
0000
3100
0000
0001
0000
0100
0000
2000
0000
0000
3002
0000
0000
0000
0000
,
1003
1000
1000
1000
,
1000
0000
1000
0000
000M
00MM
0000
0000
,
0011
0001
0001
0001
,
0001
0001
M0M0
0000
,
1010
1000
1000
1000
,
1000
1000
0M0M
0000
,
0101
0001
0001
0001
,
0002
0000
0000
0003
0000
0000
0000
0000
0000
0000
0000
0000
0000
0000
0000
0000
,
1000
0010
1000
0010
0100
0001
0100
0001
,
1000
0100
0010
0100
1000
0010
0100
0010
,
1000
0100
1000
0100
0010
0001
0010
0001
,
1000
0010
0100
0010
1000
0100
0010
0100
,
2000
0000
0000
0000
,
0000
0000
0000
0000
,
3001
0010
0001
0010
0001
1000
0010
0100
0010
1000
0001
0010
0100
1000
0010
0100
,
0002
0000
0003
0000
,
1000
0100
1000
0100
0001
0100
0001
0100
,
1000
0000
0100
0000
0010
0000
0100
0000
0001
0000
0100
0000
0010
0001
0000
1000
,
0010
1000
0010
1000
0010
0001
0010
0001
,
0010
0100
0001
0000
0010
0000
0100
1000
0100
1000
0000
1000
0020
0000
0000
0000
,
1030
0010
1000
0010
0001
0010
0001
0010
,
1000
0000
0010
0000
0100
0000
0010
0000
0001
0000
0010
0000
0100
0010
0000
1000
,
0100
1000
0100
1000
0100
0001
0100
0001
,
0100
0010
0001
0000
1000
0000
0010
0100
0010
0000
0001
0000
0020
0000
0000
0000
,
1030
0000
0001
0010
0100
0010
1000
0010
,
0100
0000
1000
0000
0001
0000
0100
0000
0010
0000
0100
0000
1000
0200
0010
0000
,
0301
0100
0010
0100
1000
0100
0010
1000
,
0001
0010
0100
0000
0001
0000
0200
0010
0000
2300
0000
0000
3001
0000
0000
0000
,
0201
0000
0000
0000
1300
0100
0002
0000
0000
0000
1000
0000
0023
0000
0130
1000
,
0020
0000
0000
0000
0130
0001
1000
0001
0000
0001
0020
0000
0030
0000
0001
0000
,
0001
0010
0100
1000
0010
0100
0001
0010
,
0200
0000
0300
0000
,
1000
0100
1000
0000
0001
0100
0001
0000
1000
0010
1000
0000
0001
0010
0001
0000
,
1000
0100
1000
0000
0001
0010
0001
0000
1000
0010
1000
0000
0002
0000
0000
0000
,
0203
0000
0000
0000
1300
0000
0100
0000
0001
0000
0010
0000
0100
0010
0100
0000
,
1000
0001
0010
1000
0001
0100
2000
0000
,
3001
0100
0001
0000
1000
0100
1000
0000
0001
0010
0001
0000
1000
0010
1000
0000
,
0001
0100
0001
0000
1000
0010
1000
0000
0001
0010
0001
0000
2000
0000
0000
0000
,
3200
0000
0000
0000
0301
0000
0100
0000
1000
0000
0010
0000
0100
0010
0100
0000
,
0001
1000
0010
0001
1000
0100
0002
0000
,
1003
0001
0010
0000
0100
0000
0001
0100
0010
0000
0001
0000
1000
0010
0100
0000
,
1000
0000
0100
0010
1000
0000
0001
0000
0010
0100
1000
0000
0001
0010
0100
0000
,
1000
0001
0100
0000
0010
0000
0001
0010
0100
0000
0001
0000
1000
0100
0010
0000
,
1000
0000
0010
0100
1000
0000
0001
0000
0100
0010
1000
0000
0001
0100
0010
0000
,
1000
0001
0010
0001
1000
0100
0010
0100
,
1000
0001
0100
1000
0100
0001
0010
0100
,
1000
0100
0010
0000
0001
0100
0010
0000
1000
0100
0010
0000
0001
0100
0010
1000
,
0000
0002
0000
0000
0000
0000
0003
0000
,
0021
0000
0130
0000
0010
0001
0010
0001
0100
0000
0000
1000
0100
0000
0002
0000
,
1003
0000
0010
0000
0100
0000
0001
0000
0020
0100
0000
0000
0032
0000
0003
0000
,
0201
0000
0310
0000
0100
0001
0100
0001
0010
0000
0000
1000
0010
0000
0002
0000
,
1003
0000
0100
0000
0010
0000
0001
0000
0200
1000
0000
0000
0320
0000
0030
0000
,
1020
0000
0130
0000
0010
1000
0010
1000
0100
0000
0000
0001
0100
0000
2000
0000
,
3001
0000
0010
0000
0100
0000
1000
0000
0020
0100
0000
0000
2030
0000
3000
0000
,
1200
0000
0310
0000
0100
1000
0100
1000
0010
0000
0000
0001
0010
0000
2000
0000
,
3001
0000
0100
0000
0010
0000
1000
0000
0200
0001
0000
0000
0310
0000
0001
0000
,
2000
0001
0000
3020
0000
0000
0130
0010
0100
0000
1000
0000
0200
0000
0000
0000
,
0302
1000
0000
0023
0000
0000
0130
0000
0200
0000
0000
0000
0310
0000
0001
0000
,
2000
0001
0000
3020
0000
0000
0130
0010
0100
0000
1000
0000
0200
0000
0000
0000
,
0302
1000
0000
0023
0000
0000
0130
0000
0200
0000
0000
0000
1300
0000
1000
0000
,
0002
1000
0000
0023
0000
0000
0130
0010
0100
0000
0001
0000
0200
0000
0000
0000
,
2300
0001
0000
3020
0000
0000
0130
0000
0200
0000
0000
0000
0310
0000
1000
0000
,
0002
1000
0000
0023
0000
0000
0130
0010
0100
1000
0000
1000
0010
0100
0001
1000
,
0002
0000
0003
0000
,
1010
0000
0001
0021
0000
1000
0000
1000
,
0000
0100
0000
0100
0000
0001
0000
0031
,
0011
0000
1000
1020
0000
0001
0000
0001
,
0000
0000
0100
0000
0000
0000
0130
0010
0100
0001
1000
0100
0010
0100
1000
0001
,
0020
0000
0000
0000
0230
0000
1300
0001
,
0200
0320
0032
0000
,
0023
0000
2030
0000
,
0000
3000
2100
0000
3001
0102
0000
1003
,
2010
0000
3001
0022
0000
0000
0000
0000
,
0000
0000
0000
0000
,
0000
0033
0000
0000
0000
0000
0000
0000
;
