#TITLE:ぜったい!昇天★鎮魂歌♂;
#SUBTITLE:;
#ARTIST:NirNo;
#TITLETRANSLIT:Zettai! Shouten requiem;
#SUBTITLETRANSLIT:;
#ARTISTTRANSLIT:;
#GENRE:;
#CREDIT:;
#MUSIC:Zettai! Shouten requiem.ogg;
#BANNER:Zettai! Shouten requiem.png;
#BACKGROUND:Zettai! Shouten requiem-bg.png;
#CDTITLE:;
#SAMPLESTART:50.864;
#SAMPLELENGTH:15.000;
#SELECTABLE:YES;
#OFFSET:1.091;
#BPMS:0.000=220.000;
#STOPS:;
#BGCHANGES:;
#FGCHANGES:;

//--------------- dance-single - chrononical ----------------
#NOTES:
     dance-single:
     chrononical:
     Beginner:
     7:
     0,0,0,0,0:
0000
0000
0000
0000
,
0000
0000
0000
0000
,
0000
0000
0000
0000
,
0000
0000
0000
0000
,
0000
0000
0000
0000
,
0000
0000
0000
0000
,
0000
0000
0000
0000
,
0000
0000
0000
0000
,
0000
0001
0000
0010
,
0000
1000
0000
0010
,
0100
0000
0100
0000
,
0100
1000
0001
1000
,
0001
0100
0001
0000
,
1000
0010
1000
0000
,
0001
0010
0001
2000
,
0000
0000
0000
0000
,
3001
0001
0001
0000
,
1000
1000
1000
0000
,
0010
0010
0010
0000
,
0100
0100
0100
0000
,
0001
0001
0001
0000
,
0010
0010
0010
0000
,
0100
0000
1000
0000
,
0001
1000
0001
1000
,
0001
0001
0001
0000
,
1000
0000
0100
0000
,
0010
0001
0010
0000
,
0001
1000
0001
0000
,
0100
0100
0100
0000
,
0010
0000
1000
0000
,
0001
1000
0001
1000
,
0002
0000
0000
0000
,
1003
0000
0100
0000
,
0010
0001
0010
0000
,
0001
0000
0100
0000
,
0010
1000
0020
0000
,
0030
1000
0000
0100
,
0000
0001
0000
0100
,
0010
0000
0001
0000
,
1000
0010
1000
0010
,
1000
1000
1000
0001
,
1000
1000
1000
0001
,
1000
0000
0100
0000
,
0010
0010
0020
0000
,
0031
0001
0001
1000
,
0001
0001
0001
1000
,
0001
0000
0100
0000
,
0020
0000
0000
1030
,
0001
0000
1000
0000
,
0100
0010
0100
0000
,
0010
0000
0001
0000
,
1000
0010
1000
0010
,
1000
0000
0100
0000
,
0100
1000
0100
0000
,
1000
0000
0100
0000
,
0001
0000
0010
0000
,
1000
0000
0100
0000
,
0010
0001
0010
0000
,
0001
0000
0100
0000
,
0010
1000
0010
1000
,
0010
0000
1000
0000
,
1000
0001
1000
0000
,
0001
0000
0010
0000
,
1000
0000
0010
0000
,
0001
0000
0100
0000
,
0010
0000
1000
1000
,
1000
0000
0100
0000
,
0010
0000
0001
0001
,
0001
1000
0001
0000
,
1000
0001
1000
0000
,
0100
0010
0100
0010
,
0100
0100
0100
1000
,
0001
0010
0001
0000
,
1000
0010
1000
0000
,
0100
0010
0100
0000
,
1000
1000
2000
0000
,
3000
0001
0000
0100
,
0000
1000
0000
0100
,
0010
0010
1000
1000
,
0001
0010
0000
0010
,
0200
0000
2300
0000
,
3002
0000
0203
0000
,
0320
0000
2030
0000
,
3200
0000
0000
0000
,
1300
0000
0010
0000
,
0010
0000
0010
0000
,
1000
0000
0100
0000
,
0010
0001
0010
0001
,
0010
0000
1000
0000
,
0010
0000
0100
0000
,
1000
0001
1000
0001
,
1000
1000
1000
1000
,
0001
0001
0001
1000
,
0001
0001
0001
1000
,
0001
0000
0010
0000
,
0100
0100
0200
0000
,
1300
1000
1000
0001
,
1000
1000
1000
0001
,
1000
0000
0100
0000
,
0020
0000
0000
0031
,
1000
0000
0100
0000
,
0010
0001
0010
0000
,
0001
0000
0100
0000
,
0010
1000
0010
1000
,
0010
0000
0100
0000
,
0001
1000
0001
0000
,
1000
0000
0010
0000
,
0001
0000
0100
0000
,
1000
0000
0010
0000
,
0100
0010
0100
0000
,
0001
0000
0010
0000
,
0100
0010
0100
0010
,
0100
0000
1000
0000
,
0001
0000
1000
0000
,
0010
0100
0010
0100
,
0010
0100
0010
0100
,
0010
0000
0001
0000
,
0010
0000
1000
1000
,
1000
0000
0100
0000
,
0001
0000
0100
0100
,
0100
1000
0100
0000
,
1000
0001
1000
0000
,
0001
1000
0001
1000
,
0001
1000
0001
1000
,
0001
0000
0100
0000
,
0010
0000
0000
1001
;

//--------------- dance-single - chrononical ----------------
#NOTES:
     dance-single:
     chrononical:
     Easy:
     10:
     0,0,0,0,0:
0000
0000
0000
0000
,
0000
0000
0000
0000
,
0000
0000
0000
0000
,
0000
0000
0000
0000
,
0000
0000
0000
0000
,
0000
0000
0000
0000
,
0000
0000
0000
0000
,
0000
0000
0000
0000
,
0000
0011
0000
1001
,
0000
0101
0000
1001
,
1000
0100
0010
0001
,
0100
0100
0001
1000
,
0001
1000
0001
0000
0100
0000
0100
0000
,
0001
1000
0001
0000
0010
0000
0010
0000
,
0001
0100
0010
1000
,
0000
0002
0000
2003
0000
0000
0000
0000
,
3001
0000
0010
0000
0200
0000
0000
1300
,
0000
0010
0000
2000
0000
3010
0100
0000
,
0001
0000
0100
0000
0020
0000
0000
0031
,
0000
0010
0000
2000
0000
3001
0000
0100
,
0001
0000
0010
0000
0200
0000
0000
0310
,
0000
0100
0000
2000
0000
3010
0100
0000
,
0010
0010
0100
0100
,
0001
0000
1000
0000
0001
1000
0000
1000
,
0001
0000
0100
0000
0010
0100
0000
0010
,
0000
0010
0000
0010
0000
0020
0000
0000
,
1030
0100
0001
0100
,
1000
0010
0200
0000
,
0301
0000
0010
0000
0010
0000
0100
2000
,
0000
3010
0010
0100
,
0001
0010
1000
0010
,
0002
0000
0000
0000
,
1003
0000
0100
0000
0010
0001
0010
0000
,
0001
0000
0100
0020
0000
0000
0000
0000
,
0000
1030
0001
0000
1000
0001
1000
0000
,
0001
0100
0102
0000
,
0003
0101
0000
1001
,
0000
1100
0000
1001
,
1000
0100
0010
0001
,
0100
0100
0010
1000
,
0001
1000
0001
1001
,
0001
1000
0001
1001
,
1000
0100
0010
0001
,
1000
0001
2001
0000
,
3001
1000
0001
1001
,
1000
0001
1000
1001
,
0001
0010
0100
1000
,
0002
0000
0000
1003
,
0002
0010
2003
0010
,
3002
0100
2003
0100
,
3002
0010
2003
0010
,
3001
0100
1000
0100
,
0020
0001
0230
1000
,
0320
0001
0230
1000
,
0301
0000
0010
0100
0000
0100
0000
0200
,
0000
1000
1000
1000
,
2300
0100
3002
0100
,
2003
0010
3002
0010
,
2003
0100
3002
0100
,
1003
0100
0001
0100
,
0020
1000
0230
0001
,
0320
1000
0230
0001
,
1300
0010
0001
1000
,
0100
0001
1000
0001
,
1000
0010
0000
0010
0100
0000
0001
0010
,
0000
0010
0100
0000
1000
0000
1000
0000
,
0001
0100
0000
0100
0010
0000
1000
0100
,
0000
0100
0010
0000
0001
0000
0001
0000
,
1000
0010
0001
0010
,
1000
0100
0001
0100
,
1000
1000
0010
0010
,
0100
0100
0001
1001
,
1000
0000
0010
0000
0100
0010
0100
0000
,
0001
0000
0010
0000
0100
0010
0100
0000
,
1000
0000
0010
0000
0100
0010
0100
0000
,
0001
1000
2001
0000
,
3000
0011
0000
1001
,
0000
1010
0000
1001
,
1000
0010
0100
0001
,
2000
0100
0000
0001
,
3001
0100
1000
0100
,
0001
0010
1000
0010
,
0001
0100
1000
0100
,
0002
0010
0000
1000
,
1003
0000
0100
0010
0000
0010
0000
0010
,
0000
0010
0000
0010
0000
0010
0001
0000
,
1000
0010
0100
0001
,
1000
1000
0100
0100
,
1000
0001
1000
0000
0100
0000
0100
0000
,
1000
0001
1000
0000
0010
0000
0010
0000
,
1000
0100
0010
0001
,
0100
0100
0100
0100
,
0001
1000
0001
1001
,
1000
0001
1000
1001
,
0001
0010
0100
1000
,
0001
1000
1002
0000
,
1003
0001
1000
1001
,
0001
1000
0001
1001
,
1000
0010
0100
0001
,
2000
0000
0000
3001
,
2000
0100
3002
0010
,
2003
0100
3002
0010
,
2003
0100
3002
0010
,
1003
0010
0001
0010
,
0200
1000
0320
0001
,
0230
1000
0320
0001
,
1030
0000
0100
0010
0000
0010
0000
0020
,
0000
0001
0001
0031
,
0002
0010
2003
0100
,
3002
0010
2003
0100
,
3002
0010
2003
0100
,
3001
0010
0100
0100
,
1000
0001
0001
0100
,
0010
1000
1000
0001
,
1000
0100
0001
1000
,
0010
0001
1000
0001
,
1000
0100
0000
0100
0010
0000
0001
0100
,
0000
0100
0010
0000
1000
0000
0001
0000
,
1000
0010
0000
0010
0100
0000
0001
0010
,
0000
0010
0100
0000
1000
0000
0001
0000
,
1000
0100
0001
0100
,
1000
0010
0001
0010
,
1000
0100
0100
0001
,
0100
0100
1000
0001
,
1000
0010
0001
0010
,
1000
0001
1000
1001
;

//--------------- dance-single - chrononical ----------------
#NOTES:
     dance-single:
     chrononical:
     Medium:
     14:
     0,0,0,0,0:
0000
0000
0000
0000
,
0000
0000
0000
0000
,
0000
0000
0000
0000
,
0000
0000
0000
0000
,
0000
0000
0000
0000
,
0000
0000
0000
0000
,
0000
0000
0000
0000
,
0000
0000
0000
0000
,
1000
0110
0001
0110
,
1000
0110
0001
0110
,
0001
0010
0100
0000
1000
0010
0100
0000
,
0001
0100
0010
0100
0001
0010
0100
0010
,
0001
0100
1000
0100
0001
1000
0001
0000
,
1000
0100
0001
0100
1000
0001
1000
0000
,
0001
0010
0100
0010
0100
1000
0001
1000
,
0001
0100
0000
0120
0000
0000
0000
0000
,
1030
0000
0100
0000
0020
0000
1030
0010
,
0000
0010
0000
0020
0000
1030
0010
0001
,
1000
0000
0010
0000
0200
0000
1300
0100
,
0000
0100
1000
0200
0000
0301
0000
1000
,
0001
0000
0010
0000
0200
0000
0301
0100
,
0000
0100
0000
0200
0000
0301
0100
1000
,
0001
0100
0010
1000
0001
0010
0100
1000
,
0001
0100
0010
0100
0001
0100
0000
0100
,
0020
0000
1030
0000
0100
0010
0000
0100
,
0000
1000
0000
0001
0000
0100
0010
0000
,
1000
0010
0100
1000
0001
0010
0100
0010
,
1000
0100
0001
0100
0020
0000
0000
0000
,
0230
0000
2300
0000
3002
0000
0103
0020
,
0000
2030
3200
0320
,
0031
0101
0100
0110
,
0020
0100
0000
0001
0000
1000
0000
0100
,
0130
0010
0100
0001
1000
0100
0010
0001
,
0020
0000
1030
0020
0000
0000
1000
0000
,
0031
0100
0010
0100
0001
0010
0100
1000
,
0002
0203
0320
0000
,
1030
0110
0001
0110
,
1000
0110
0001
0110
,
1000
0100
0010
0000
0001
0100
0010
0000
,
1000
0100
0010
0100
1000
0010
0100
0010
,
1000
0100
0010
1001
,
0001
0100
0010
1001
,
1000
0000
0000
0100
0010
0000
0001
0000
1000
0000
0100
0000
0010
0000
0001
0000
,
1000
1001
2001
0000
,
3001
0100
0010
1001
,
1000
0100
0010
1001
,
0001
0001
0100
0100
0010
0010
1000
1000
,
0001
1000
1000
1001
,
2010
0000
3001
0000
0012
0000
1003
0020
,
0000
1030
0000
2000
0000
3010
0100
0001
,
0102
0000
1003
0000
0001
0010
0100
0010
,
0000
0010
0100
1000
0100
0010
0100
1000
,
2100
0000
3001
0000
0102
0000
1003
0020
,
0000
0100
0000
0230
0000
0301
0010
0100
,
1000
0100
0000
0100
0000
1000
0000
0020
,
0000
1000
0001
1030
,
2010
0000
3001
0000
0012
0000
1003
0200
,
0000
1000
0000
2300
0000
3100
0010
0001
,
0012
0000
1003
0000
0001
0100
0010
0100
,
0000
0100
0001
0010
0001
0100
0001
0010
,
0012
0000
1003
0000
2010
0000
3001
0020
,
0000
0100
0000
0230
0000
1300
0010
0100
,
0010
1000
0100
0000
0010
0001
0100
0000
,
0010
1000
0100
0010
0001
0100
0010
1000
,
0001
0010
0000
1000
0010
0000
0100
0001
,
0000
0100
1000
0000
1100
0000
1001
0000
,
0001
0100
0000
1000
0100
0000
0010
0001
,
0000
0010
1000
0000
1010
0000
1001
0000
,
0001
0010
0100
1000
0001
0010
0100
1000
,
0001
0100
0010
1000
0001
0100
0010
1000
,
1010
0101
1001
1001
,
0011
1100
1001
1001
,
1000
0100
0010
0000
0010
0100
1000
0000
,
0010
1000
0100
0000
0100
1000
0010
0000
,
1000
0010
0100
0000
0100
0010
1000
0000
,
1010
0101
2001
0000
,
3001
1010
0001
1010
,
0001
1100
0001
1100
,
0100
1000
0010
0000
0100
0001
0010
0000
,
0200
0000
0001
0000
0000
1000
1000
0000
,
1300
0100
0001
1000
,
0001
0100
0010
0001
,
1000
0010
0001
1000
,
0200
1000
0001
1000
,
0302
0000
0013
0100
0000
0100
1000
0100
,
0000
0100
0001
0100
0000
0100
1000
0000
,
0010
1000
0100
0000
0010
0001
0100
0000
,
0010
1000
0100
0010
0001
0100
0010
1000
,
0001
0010
1000
0010
0001
1000
0001
0000
,
1000
0010
0001
0010
1000
0001
1000
0000
,
0001
0100
0010
0100
0001
0010
0100
0010
,
0001
0010
1000
0010
,
0001
0100
0010
1001
,
1000
0100
0010
1001
,
0001
0000
0000
0100
0010
0000
1000
0000
0001
0000
0100
0000
0010
0000
1000
0000
,
0001
1001
2001
0000
,
3001
0010
0100
1001
,
1000
0010
0100
1001
,
0001
0001
0010
0010
0100
0100
1000
1000
,
0001
0001
0001
1001
,
2100
0000
3001
0000
0102
0000
1003
0200
,
0000
0010
0000
0302
0000
0103
1000
0100
,
2100
0000
3001
0000
0001
0100
0010
0100
,
0000
0100
1000
0100
0001
0100
0010
1000
,
2010
0000
3001
0000
0012
0000
1003
0020
,
0000
0100
0000
0032
0000
0013
0100
0001
,
0010
0100
0000
0100
0000
1000
0000
0020
,
0000
1000
0001
1030
,
2100
0000
3001
0000
0102
0000
1003
0200
,
0000
0010
0000
0302
0000
0103
1000
0100
,
2100
0000
3001
0000
0001
0010
0100
0010
,
0000
0010
1000
0010
0100
1000
0001
0100
,
0002
0000
0103
0010
0100
0001
1000
0001
,
1000
0100
0010
0100
0010
0001
1000
0001
,
1000
0001
0010
0000
0100
1000
0010
0000
,
0100
0001
0010
0100
1000
0010
0100
0001
,
1000
0010
0000
0001
0010
0000
0100
1000
,
0000
0100
0001
0000
0101
0000
1001
0000
,
1000
0100
0000
0001
0100
0000
0010
1000
,
0000
0010
0001
0000
0011
0000
1001
0000
,
0001
0100
1000
0100
0001
0010
0100
1000
,
0001
0010
1000
0010
0001
0100
0010
1000
,
1001
1100
1100
1001
,
1001
0101
0101
1001
,
1100
0110
0011
1001
,
1010
0110
0101
1001
;

//--------------- dance-single - chrononical ----------------
#NOTES:
     dance-single:
     chrononical:
     Hard:
     17:
     0,0,0,0,0:
0000
0000
0000
0000
,
0000
0000
0000
0000
,
0000
0000
0000
0000
,
0000
0000
0000
0000
,
0000
0000
0000
0000
,
0000
0000
0000
0000
,
0000
0000
0000
0000
,
0000
0000
0000
0000
,
1000
0011
1000
0101
,
0001
1010
0001
1100
,
1000
0100
0010
0100
1000
0010
0100
0010
,
1000
0000
0010
0000
0100
0000
0001
0000
1000
0100
0010
0000
0001
0100
0010
1000
,
0001
0010
0100
0001
0100
1000
0100
0010
,
0001
0100
0010
0001
0010
1000
0010
0100
,
0001
0010
0100
0000
1000
0010
0100
0000
0001
0100
0010
0000
1000
0001
1000
0000
,
0001
0101
0000
0120
0000
0000
0000
0000
,
1030
0000
0100
0000
0120
0000
1030
0010
,
0000
0110
0000
0012
0000
0013
0100
0010
,
0001
0000
0100
0000
0210
0000
1300
0200
,
0000
0301
0010
0200
0000
1300
0000
0100
,
1100
0000
0110
0000
0021
0000
1030
0010
,
0000
0011
0000
0102
0000
0103
0010
0100
,
0001
0010
1000
0010
0001
0100
1000
0100
,
0010
0000
0100
0000
0010
0000
0100
0000
0001
0000
0100
0000
0001
0000
0000
1000
0000
0000
0000
0000
0000
0100
0000
0000
,
0110
0000
0011
0000
0001
0100
0010
0100
,
0000
0010
1000
0100
0000
0010
0001
0100
,
0001
1000
0001
0000
0100
0010
0100
0000
0001
1000
0001
0000
0010
0100
0010
0000
,
0100
1000
0100
0000
1000
0001
1000
0000
0002
0000
0000
0000
0000
0000
0000
0000
,
1003
0000
1010
0000
0120
0000
0031
0020
,
0000
0130
0101
0011
,
0101
1100
0101
1010
,
1002
0010
0000
0100
0000
0010
0000
1000
,
1003
0100
0010
0001
1000
0010
0100
0001
,
1000
0100
0100
0002
0000
0103
0100
1000
,
0001
0100
0010
0100
0001
0010
0100
0010
,
0110
1100
1002
0100
,
1003
0101
1000
0011
,
0001
1100
0001
1010
,
1000
0010
0110
0000
1000
0010
0110
0000
,
0001
0000
0001
0000
1000
0000
1000
0000
0100
0010
0001
0000
0100
0001
0100
0000
,
0101
1100
0101
1001
,
1010
0011
1010
1001
,
0011
0000
0000
0010
1000
0000
0010
0000
0001
0000
0010
0000
1000
0000
0010
0000
,
0110
1001
2002
3003
,
0011
1010
0011
1001
,
1100
0101
1100
1001
,
0001
0010
1000
0010
0001
0100
1000
0100
,
0110
0010
0010
1001
,
2000
0000
3010
0000
0020
0000
0031
0020
,
0000
1030
0100
0020
0000
1030
0010
0001
,
2000
0000
3010
0000
0010
1000
0001
2000
,
0000
3010
0001
0010
1000
0010
0001
0010
,
2000
0000
3100
0000
0200
0000
0301
0200
,
0000
1300
0010
0200
0000
1300
0100
0001
,
1000
1000
0001
0101
0000
1010
0000
1002
,
0000
0010
1000
0100
,
0203
0000
1300
0000
0200
0000
0301
0020
,
0000
1030
0010
0200
0000
0301
0100
1000
,
0020
0000
0130
0000
0100
0001
1000
0002
,
0000
0013
1000
0010
0001
0010
1000
0010
,
0200
0000
0301
0000
0200
0000
1300
0020
,
0000
0031
0010
0200
0000
1300
0100
0001
,
1000
0100
1000
0100
0001
0100
0001
0100
,
1000
0010
1000
0010
0001
0010
0001
0010
,
1000
0100
0100
0001
0100
0100
1000
0010
,
0010
0001
0010
0010
1000
0000
1001
0000
,
0001
0100
0100
1000
0100
0100
0001
0010
,
0010
0000
0000
1000
0000
0000
0010
0000
0000
0010
0000
0000
0001
0000
0010
0000
0100
0000
1000
0000
0001
0000
1000
0000
,
0001
0100
0010
0001
0010
0100
0010
1000
,
0001
0000
0010
0000
0100
0000
0001
0000
0100
0010
0100
0000
1000
0001
1000
0000
,
1001
0101
0011
0101
,
1001
1100
1010
1001
,
1000
0010
0100
0001
1000
0100
0010
0001
,
1000
0010
0100
0010
0001
0010
0100
0010
,
1000
0100
0010
0001
1000
0010
0100
0001
,
0200
2300
3200
0000
,
0301
1010
0001
1100
,
1000
0011
1000
0101
,
0001
0010
0110
0000
0001
0010
0110
0000
,
0100
1000
0100
0000
1000
0100
0010
0001
0000
0000
0100
0000
0001
0100
0010
1000
,
0001
0010
0001
0010
1000
0010
1000
0010
,
0001
0100
0001
0100
1000
0100
1000
0100
,
0001
0010
0001
0010
1000
0010
1000
0010
,
0002
0000
0000
0000
0100
0000
0000
0000
0103
0000
0010
0000
1000
0100
0010
0001
,
0020
0000
1030
0020
0000
0032
0000
0203
,
0000
0320
0000
0032
0000
0013
0200
0000
,
0301
0010
1000
0000
0001
0100
1000
0000
,
0001
0000
0100
0000
1000
0000
0100
0000
0010
0100
0010
0000
1000
0001
0100
0010
,
1000
0100
0010
1000
0010
0001
0010
0100
,
1000
0010
0100
1000
0100
0001
0100
0010
,
1000
0100
0010
0100
0001
0100
1000
0010
,
1000
0010
1000
0000
0010
0100
0010
0000
1000
0001
1000
0000
0010
1000
0010
0000
,
1010
0011
1010
1001
,
0011
1010
0011
1001
,
1000
0000
0000
0010
0001
0000
0010
0000
1000
0000
0010
0000
0001
0000
0010
0000
,
0110
1001
2002
3003
,
1100
0101
1100
1001
,
0101
1100
0101
1001
,
0001
0010
1000
0010
0001
0100
1000
0100
,
0110
0100
0100
1001
,
0001
0000
1010
0000
0001
0000
1010
0020
,
0000
0031
0010
2000
0000
3100
0010
0001
,
1000
0000
0101
0000
0001
0010
0100
2000
,
0000
3010
0001
0010
1000
0010
0001
0010
,
1000
0000
0101
0000
1000
0000
0101
0200
,
0000
1300
0100
0020
0000
1030
0100
0010
,
0001
0001
1000
1100
0000
0011
0000
1200
,
0000
1000
0001
1300
,
1000
0000
0011
0000
1000
0000
0011
0020
,
0000
1030
0010
0200
0000
0301
0100
1000
,
0001
0000
1100
0000
1000
0010
0100
0002
,
0000
0000
0103
0000
1000
0000
0100
0000
0001
0000
0001
0000
1000
0100
0010
0001
,
2000
0000
3100
0001
0100
0010
0100
0100
,
2000
0000
3010
0001
0010
0100
0010
0010
,
1000
0010
1000
0010
0001
0010
0001
0010
,
1000
0100
1000
0100
0001
0100
0001
0100
,
1000
0010
0010
0001
0010
0010
1000
0100
,
0100
0001
0100
0100
1000
0000
1001
0000
,
0001
0010
0010
1000
0010
0010
0001
0100
,
0100
0000
0000
1000
0000
0000
0100
0000
0000
0100
0000
0000
0001
0000
0100
0000
0010
0000
1000
0000
0001
0000
1000
0000
,
0001
0010
0100
0010
1000
0010
0001
1000
,
0001
0100
0010
0100
1000
0100
0010
1000
,
0001
0010
0100
0010
0100
1000
0001
0100
0010
0100
0010
1000
,
0001
0010
0100
1000
0100
0010
0001
0100
0010
1000
0010
0100
,
0001
0010
1000
0010
0001
0100
1000
0100
,
0001
1000
0001
0000
0100
0010
0100
0000
0110
0000
0000
0000
1001
0000
0000
0000
;
