#TITLE:Yum Yum Jelly;
#ARTIST:YUC'e;
#BANNER:Yum Yum Jelly.png;
#BACKGROUND:Yum Yum Jelly-bg.png;
#JACKET:Yum Yum Jelly-jacket.png;
#CDTITLE:./CDTITLES/BEATMANIA IIDX.PNG;
#MUSIC:Yum Yum Jelly.ogg;
#SAMPLESTART:22.666;
#SAMPLELENGTH:15;
#BPMS:0=180;

//---------------dance-single - t7r----------------
#NOTES:
     dance-single:
     t7r:
     Beginner:
     5:
     :
0000
0000
0000
0000
,
0000
0000
0000
0000
,
0000
0000
0000
0000
,
0000
0000
0000
0000
,
0000
0000
0000
0000
,
0000
0000
0000
0000
,
0000
0000
0000
0000
,
0000
0000
0000
0000
,
0000
0000
0000
0000
,
0001
0000
0000
0000
,
1000
0000
0000
0000
,
0010
0000
0000
0000
,
0100
0000
0000
0000
,
0010
0000
0010
0000
,
0010
0000
0000
0000
,
1000
0000
0000
0000
,
0001
0001
0001
0000
,
1000
0000
0000
0000
,
0100
0000
0000
0000
,
1000
0000
0000
0000
,
0010
0000
0000
0000
,
0100
0000
0000
0000
,
0001
0000
0000
0000
,
0010
0000
0000
0000
,
0100
0000
0000
0000
,
0010
0000
0010
0000
,
0010
0000
0010
0000
,
0001
0000
0001
0000
,
0001
0000
0001
0000
,
1000
0000
1000
0000
,
1000
0000
1000
0000
,
0010
0000
0000
0000
,
0010
0000
0000
0000
,
0100
0000
0100
0100
,
0100
0000
0100
0000
,
0010
0000
0010
0010
,
0010
0000
0010
0000
,
1000
0000
1000
1000
,
1000
0000
0001
0001
,
0001
0000
0010
0000
,
0001
0000
0000
0000
,
1000
0000
0000
0000
,
0000
0000
0000
0000
,
0010
0000
0000
0000
,
0000
0000
0000
0000
,
0100
0000
0000
0000
,
0100
0000
0000
0000
,
0001
0000
0000
0000
,
0001
0000
0000
1000
,
1000
0000
0000
0001
,
0001
0000
0000
0100
,
0100
0000
0000
0010
,
0010
0000
0000
1000
,
1000
0000
0000
0100
,
0100
0000
0000
0010
,
0010
0000
0000
0001
,
0001
0000
0000
0000
,
1000
0000
1000
0000
,
1000
0000
0000
0000
,
0010
0000
0010
0000
,
0010
0000
0000
0000
,
0100
0000
0100
0000
,
0100
0000
0001
0000
,
0001
0000
0000
0000
,
0010
0010
0010
0000
,
1001
0000
1000
0000
,
0001
0001
0001
0000
,
0100
0000
0010
0000
,
0100
0100
0100
0000
,
0001
0001
0001
0000
,
1000
1000
1000
0000
,
0010
0010
0010
0010
,
0010
0000
0000
0000
,
1000
0000
0000
0001
,
0001
0000
0000
0000
,
0010
0000
0000
0100
,
0100
0000
0000
0000
,
1000
0000
0001
0000
,
0100
0000
0010
0000
,
1000
0000
0100
0000
,
0010
0000
0001
0000
,
1001
0000
0000
0000
;

//---------------dance-single - t7r----------------
#NOTES:
     dance-single:
     t7r:
     Easy:
     8:
     :
0000
0000
0000
0000
,
0000
0000
0000
0000
,
0000
0000
0000
0000
,
0000
0000
0000
0000
,
0000
0000
0000
0000
,
0000
0000
0000
0000
,
0000
0000
0000
0000
,
0000
0000
0000
0000
,
0000
0000
0000
0000
,
1000
0100
0100
0100
,
0010
0001
0001
0001
,
0100
0010
0010
0010
,
1000
0001
0001
0001
,
0010
0100
0010
0010
,
0001
0100
0010
0010
,
1000
0000
0001
0000
1000
0001
1000
0001
,
0200
0000
0310
0010
,
1000
0100
0000
1000
,
0001
0000
0100
0000
,
0001
0010
0000
0001
,
1000
0000
0010
0000
,
0100
0010
0000
1000
,
0100
0000
0010
0000
,
0100
1000
0000
0001
,
0100
0000
0001
0000
,
0010
0000
0002
0000
,
1003
0100
0010
0001
,
0100
0000
0010
0000
,
1000
0010
0100
0001
,
0010
0000
0100
0000
,
1000
0001
0100
0010
,
0100
0100
0010
0010
,
1000
0001
1000
0001
2000
0000
3001
0000
,
1000
1000
0100
0100
,
0010
0100
0001
0100
,
1000
1000
0010
0010
,
0100
0010
0001
0010
,
1000
0100
0010
0100
,
0001
0100
0010
0100
,
1000
0010
0001
0010
,
1000
0100
0010
0001
,
2000
0000
0000
0000
,
3010
0000
0100
0000
,
0002
0000
0000
0000
,
0013
0000
0100
0000
,
2000
0100
0000
0001
,
3001
0000
0100
0000
,
0002
0100
0000
1000
,
1003
0000
0010
0000
,
1001
0010
0000
0100
,
0001
1000
0000
0100
,
1000
0001
0000
0010
,
0001
0001
0100
0100
,
0110
0001
0000
1000
,
0010
0100
0000
0001
,
0010
0100
0000
1000
,
0100
0100
0010
0010
,
0001
0001
0100
1000
,
0100
0000
0001
0010
0002
0000
0000
0000
,
1003
1000
0100
0001
,
0100
0000
1000
0010
1000
0000
1001
0000
,
0001
0001
0100
0100
,
0010
0010
1000
1000
,
0100
0000
0100
0000
0010
0100
0010
0000
,
2001
0000
0000
0000
3001
1000
0001
0000
,
1000
0001
0100
1000
,
0100
0000
0100
0000
0010
0100
0010
0000
,
1000
1100
0001
0011
,
1000
0000
0010
0000
0100
0001
1000
0000
,
0001
0000
0010
0000
0100
0010
0100
0000
,
1000
0000
0010
0000
0100
0010
0100
0000
,
1000
0100
0001
0010
,
1000
0000
0010
0000
0001
1000
0001
0000
,
1000
0000
0100
0000
0010
0100
0000
0000
,
2000
0000
0000
3010
0000
0000
0100
0000
,
0001
0000
0010
0000
0100
0010
0000
0000
,
0002
0000
0000
0103
0000
0000
0010
0000
,
1000
0001
0100
0000
0010
0000
0010
0000
,
1000
0001
0010
0000
0001
0000
0001
0000
,
1000
0100
1000
0000
0001
0100
0001
0000
,
1000
0001
1000
0001
1000
0000
0010
0000
,
0220
0000
0000
0000
,
0000
0000
0000
0000
,
0330
0000
0000
0000
;

//---------------dance-single - t7r----------------
#NOTES:
     dance-single:
     t7r:
     Medium:
     13:
     :
0000
0000
0000
0000
,
0000
0000
0000
0000
,
0000
0000
0000
0000
,
0000
0000
0000
0000
,
0000
0000
0000
0000
,
0000
0000
0000
0000
,
0000
0000
0000
0000
,
0000
0000
0000
0000
,
0000
0000
0000
0000
,
0001
0000
0000
0000
0100
0000
0000
0000
0001
0000
0000
0010
0000
0000
0001
0000
,
1000
0000
0000
0000
0100
0000
0000
0000
1000
0000
0000
0010
0000
0000
1000
0000
,
0001
0000
0000
0000
0010
0000
0000
0000
0100
0000
0000
0010
0000
0000
0001
0000
,
1000
0000
0000
0000
0010
0000
0000
0000
0100
0000
0000
0010
0000
0000
1000
0000
,
0001
0010
0001
0010
0001
0100
0001
0000
,
1000
0010
1000
0010
1000
0100
1000
0000
,
0001
0010
0100
1000
0001
0010
0100
1000
,
0010
0000
0010
0000
0100
0100
0001
0000
,
1000
0000
0100
0010
0000
0100
0000
1000
,
0001
0000
0100
0001
0000
0010
0000
0001
,
1000
0000
0010
0100
0000
0010
0000
1000
,
0001
0000
0000
0000
0010
0000
0001
0000
0100
0000
0000
0001
0000
0000
0010
0000
,
0001
0000
0100
0010
0000
0100
0000
0001
,
0010
0000
0100
1000
0000
0001
0000
0100
,
0010
0000
0000
0000
0100
0000
0000
0000
0001
0000
0000
1000
0000
0000
0100
0000
,
1000
0000
0000
0000
0100
0000
0001
0000
0100
0000
0000
0110
0000
0000
0001
0000
,
1000
0000
0010
0000
1000
0000
0010
0000
2000
0000
0000
0100
0000
0000
0100
0000
,
0100
0000
0000
0000
0100
0000
0000
0000
3010
0000
0000
1001
0000
0000
1000
0000
,
0001
0000
0000
0000
0010
0000
0000
0000
0001
0000
0000
0100
0000
0000
1000
0000
,
0100
0000
0000
0000
0001
0000
0000
0000
1000
0000
0000
0100
0000
0000
0010
0000
,
0001
0000
0000
0000
0011
0000
0000
0000
0001
0000
0000
0100
0000
0000
0010
0000
,
0100
0000
0000
0000
1100
0000
0000
0000
1000
0000
0000
0100
0000
0000
0010
0000
,
0100
0010
0100
0010
0100
0001
0010
0100
,
1000
0010
1000
0010
0100
0001
2000
0000
,
3100
0000
0001
0000
0100
0000
0000
0000
0010
0000
0000
0100
0000
0000
0010
0000
,
1000
0010
0001
0000
0100
0010
1000
1000
,
0001
0000
0100
0000
0010
0000
0000
0000
0100
0000
0000
1000
0000
0000
0100
0000
,
0010
0100
1000
0100
0001
0010
0002
0000
,
1003
0100
0010
0100
0001
0001
0100
0000
,
1000
0010
0100
0010
0001
0001
0010
0000
,
1000
0100
1000
0100
0010
0100
0010
0100
,
0010
0001
0100
0010
1000
0001
0010
0000
,
0002
0000
0100
0000
,
2003
0000
0000
0020
0000
0000
3030
0000
,
2000
0000
0100
0000
,
3002
0000
0000
0020
0000
0000
0033
0000
,
0001
0000
0100
0010
0000
0100
0000
0001
,
2000
0000
0000
0200
0000
0000
3300
0000
,
1000
0000
0000
0000
0010
0000
0100
0000
0100
0000
0000
0001
0000
0000
1000
0000
,
0001
0010
0001
0000
1000
0010
1000
0000
,
1001
0000
0001
0000
1000
0100
0010
0000
,
1001
0000
1000
0000
0001
0100
0010
0000
,
1001
0000
0001
0000
0010
0001
0100
0000
,
0001
1000
0010
0001
,
0110
0000
1000
0100
0010
0100
1000
0000
,
0001
0000
0100
0001
0010
0001
0100
0000
,
0010
0000
0100
0001
1000
0001
0010
0000
,
1000
0010
0001
0100
,
0110
0110
0101
0101
,
0011
0000
0001
0010
0200
0000
1300
0000
,
0110
0110
1010
1010
,
1001
0000
0001
0010
0100
0010
0001
0000
,
1000
0100
1000
0100
0010
0100
0010
0100
,
0010
0001
0010
0001
1000
0010
1000
0010
,
1000
0001
0010
0100
1000
0010
0100
0001
,
1000
0000
1000
0000
0100
0100
0200
0000
,
0310
0000
0001
0000
0100
0000
0000
0000
1000
0000
0000
0100
0000
0000
0001
0000
,
0010
0100
0001
1000
0010
0100
1000
0000
,
0001
0000
0000
0100
0000
0000
1000
0000
0000
0100
0000
0000
0010
0000
0000
0000
0100
0000
0001
0000
0100
0000
0000
0000
,
1000
0000
0100
0001
0000
0010
0100
1000
0001
2000
0000
0000
,
3001
0010
0100
0010
1000
0010
0001
0001
,
1000
0010
0100
0010
0001
0010
1000
1000
,
0001
0000
0000
0010
0000
0000
0100
0000
0000
0010
0000
0000
1000
0000
0000
0000
0010
0000
0100
0000
0010
0000
0000
0000
,
0001
0100
0001
1000
0001
1000
0010
0100
0010
0100
0000
0000
,
0001
0010
0100
1000
0000
0001
0000
1000
,
0020
0000
0130
0001
0000
1000
0100
1000
,
0001
0100
0010
1000
0000
0100
0010
0001
,
0200
0000
0310
1000
0100
0100
0010
0001
,
1000
0010
1000
0010
0001
0010
1000
1000
,
0001
0010
0001
0010
1000
0010
0001
0001
,
1000
0000
0000
0100
0000
0000
0010
0000
0000
0100
0000
0000
0001
0000
0100
0000
1000
0000
0001
0000
0100
0000
1000
0000
,
0100
0010
0100
0010
1000
0100
0010
0000
,
2002
0000
0000
0000
,
0000
0000
0000
0000
,
3003
0000
0000
0000
;

//---------------dance-single - t7r----------------
#NOTES:
     dance-single:
     t7r:
     Hard:
     16:
     :
0000
0000
0000
0000
,
0000
0000
0000
0000
,
0000
0000
0000
0000
,
0000
0000
0000
0000
,
0000
0000
0000
0000
,
0000
0000
0000
0000
,
0000
0000
0000
0000
,
0000
0000
0000
0000
,
0000
0000
0000
0000
,
0001
0000
0000
0000
0001
0000
0000
0000
0100
0000
0000
0001
0010
0000
0001
0000
,
1000
0000
0000
0000
1000
0000
0000
0000
0100
0000
0000
1000
0010
0000
0100
0000
,
0010
0000
0000
0000
0010
0000
0000
0000
1000
0000
0000
0001
0010
0000
0001
0000
,
0100
0000
0000
0000
0100
0000
0000
0000
0010
0000
0000
1000
0100
0000
0010
0000
,
0001
1000
0001
1000
0010
0100
0010
0100
,
0001
0010
0001
0010
0100
1000
0100
1000
,
0010
0100
0010
0000
1000
0100
1000
0000
0001
0010
0001
0000
1000
0001
1000
0001
,
0100
0000
0000
0000
0100
0000
0000
0000
0010
0000
0010
0000
1000
0000
0001
1000
,
0001
0000
0100
0010
0100
0000
0001
0000
0000
0000
0010
0000
0000
0001
1000
0000
,
0001
0000
0010
0100
1000
0000
0010
0100
0001
0000
1000
0100
0000
1000
0001
0000
,
1000
0000
0100
0010
0100
0000
1000
0000
0000
0000
0010
0000
0000
1000
0001
0000
,
1000
0000
0010
0100
0001
0000
0010
0000
0001
1000
0001
1000
0000
0001
0100
0001
,
1000
0000
0001
0010
0001
0000
1000
0000
0000
0000
0010
0000
0000
0100
0001
0000
,
0010
0000
0100
1000
0010
0000
0100
0001
1000
0000
0001
0100
0000
0001
1000
0000
,
0010
0000
1000
0100
1000
0000
0001
0000
0100
0000
0000
0101
0000
0000
0001
0000
,
2000
0000
0000
0000
3100
1000
0100
1000
0001
1000
0001
1000
0000
0010
0100
0010
,
1000
0000
0100
0000
0010
0000
0001
0000
0100
0000
0000
0101
0000
0000
0100
0000
,
0110
0000
0000
0000
0110
0000
0000
0000
1000
0000
0001
1000
0010
0000
1000
0001
,
0010
0000
0000
0000
1001
0000
0000
0000
0011
0000
0000
0011
0000
0000
1000
0000
,
1100
0000
0000
0000
1100
0000
0000
0000
1001
0000
0001
0100
0000
0001
0010
0100
,
0010
0000
0001
0000
0100
0000
0000
0000
1001
0000
0000
0101
0000
0000
0001
0000
,
1000
0000
0100
0000
0010
0000
0000
0000
1001
0000
0000
1100
0000
0000
1000
0001
,
2000
0000
0010
0000
0010
0000
0010
0000
0010
0000
0010
0000
3010
0000
0010
0100
,
0001
0010
0001
0010
0100
1000
0100
1000
0100
0010
0001
1000
0010
0000
0100
0010
,
0100
0000
0001
0000
0100
0000
1000
0000
0100
0000
0010
0100
0000
0001
0100
0000
,
0010
0000
1000
0000
0100
0000
0001
0000
1000
0000
0010
0000
0001
1000
0001
1000
,
0001
0000
0100
0000
0010
0000
0001
0000
0010
0000
0100
1000
0000
0001
0010
0000
,
1000
0000
0100
0010
0001
0000
0100
0010
1000
0001
1000
0001
0020
0000
0000
0000
,
0031
0000
0100
0000
0010
0000
0100
1000
0100
0000
0010
0000
0100
0000
0001
0010
,
0100
0000
0001
0000
0100
0000
0010
1000
0010
0000
0001
0000
1000
0000
0010
1000
,
0001
0000
0100
0000
1000
0000
0100
0000
0001
0000
0010
0100
1000
0000
0010
0100
,
0001
1000
0001
1000
0001
1000
0001
1000
0010
0100
0010
0100
0001
0000
0000
0000
,
2000
0000
0100
0000
,
3002
0000
0000
0020
0000
0000
0033
0000
,
0002
0000
0100
0000
,
2003
0000
0000
0020
0000
0000
3030
0000
,
1000
0100
0010
0001
0000
0100
0000
0100
,
0010
1000
0001
0020
0000
0031
1000
0000
,
0001
0000
0100
0000
0010
0000
1000
0000
1000
0000
0000
0001
0000
0000
0010
0000
,
0100
0000
0010
0000
0001
0000
1000
0000
0010
0000
0100
0000
0001
1000
0001
1000
,
0010
0000
1000
0100
0001
0100
0010
0000
,
0011
0000
0001
0100
1000
0100
0010
0000
,
1010
0000
1000
0010
0100
1000
0100
0010
,
1000
0100
0001
0100
1000
0010
0100
0000
,
1010
0000
0001
0010
0100
0001
0100
0000
,
0011
0000
1000
0010
0100
1000
0100
0000
,
1001
0000
0001
0010
0100
1000
0010
0001
,
0010
0000
0100
0001
0010
0000
0100
1000
0010
0100
0000
0000
0001
0010
0100
1000
,
0010
0000
0010
0000
1000
0100
1000
0000
,
0100
0001
0100
1000
0010
0010
0100
0001
,
0010
0000
0000
0000
0010
0000
0000
0000
0001
0000
1000
0000
0001
0000
0100
0001
,
1000
1000
0100
0100
0010
0100
1001
0000
,
0001
0001
0001
0001
0100
0100
0100
0100
,
0010
0010
0010
0010
1000
1000
1000
1000
,
0002
0000
0000
0000
1003
0010
1000
0010
0100
0001
0100
0001
0010
0001
1000
0001
,
0010
0000
0000
0000
0110
0000
0000
0000
1000
0000
1000
0000
1000
0000
0001
0010
,
0001
0000
0100
0010
1000
0000
0100
0000
0010
0000
0100
0001
0000
0100
0010
0000
,
0100
0000
0000
0000
0000
0000
1000
0000
0000
0010
0000
0000
0100
0000
0000
0000
0010
0000
0000
0000
1000
0000
0000
0000
0001
0000
0000
0000
0010
0000
0000
0000
0100
0000
0000
0000
1000
0000
0000
0001
0000
0000
1000
0000
0000
0100
0000
0000
,
0010
0000
0000
0001
0000
0000
0010
0000
0000
0001
0000
0000
0100
0000
0000
0000
0000
0000
1000
0000
0000
0100
0000
0000
0010
0000
0000
0000
0000
0000
0000
0000
0100
0000
0000
0000
0001
0000
0000
0000
0100
0000
0000
0000
0010
0000
0000
0000
,
1000
0000
0000
0001
0000
0000
0010
0000
0000
0100
0000
0000
0010
0000
0000
0000
0001
0000
0000
0000
1000
0000
0000
0000
0010
0000
0000
0100
0000
0000
0010
0000
0000
0100
0000
0000
0001
0000
0000
0010
0000
0000
0100
0000
0000
1000
0000
0000
,
0001
0000
0000
0000
0000
0000
0010
0000
0000
0000
0000
0000
1000
0000
0000
0000
0000
0000
0010
0000
0000
0100
0000
0000
0010
0000
0000
0000
0000
0000
0001
0000
0000
0000
0000
0000
1000
0000
0000
0000
0010
0000
0000
0000
0100
0000
0000
0000
,
1000
0000
0000
0000
0000
0000
0100
0000
0000
0001
0000
0000
0100
0000
0000
0000
0000
0000
0001
0000
0000
0010
0000
0000
0001
0000
0000
0000
0000
0000
1000
0000
0000
0000
0000
0000
0001
0000
0000
0000
0010
0000
0000
0000
0001
0000
0000
0000
,
0100
0000
0000
0100
0000
0000
0100
0000
0000
0100
0000
0000
0010
0000
1000
0000
0001
0000
1000
0000
0100
0000
0010
0000
,
0001
0100
1000
0100
0010
0100
0001
1000
0001
0010
0000
0000
,
0001
0000
1000
0000
0010
0000
0100
0001
1000
0000
0010
0000
0100
0000
0001
0000
,
1000
0000
0100
0000
0010
0000
0001
0000
1000
0000
0001
0000
0100
0010
1000
0001
,
0010
0000
0001
0000
0100
0000
0010
1000
0001
0000
0010
0000
0001
0000
0100
0000
,
0010
0000
1000
0000
0100
0000
0010
0100
2000
0000
3020
0000
1030
0001
1000
0001
,
1000
0000
0100
0001
0100
0000
0010
0000
0100
0000
0100
0000
0010
0000
0001
1000
,
0001
0000
0100
1000
0100
0000
0010
0000
0100
0000
0100
0000
0001
0010
0100
1000
,
0001
0000
0000
0001
0000
0000
0010
0000
0000
0010
0000
0000
1000
0000
0010
0000
0001
0000
1000
0000
0010
0000
0001
0000
,
0010
0100
0010
0100
0010
0100
0010
0100
0001
0010
0100
1000
0010
0000
0000
0000
,
2002
0000
0000
0000
,
0000
0000
0000
0000
,
3003
0000
0000
0000
;
