#VERSION:0.83;
#TITLE:Villains;
#SUBTITLE:;
#ARTIST:RoughSketch;
#TITLETRANSLIT:;
#SUBTITLETRANSLIT:;
#ARTISTTRANSLIT:;
#GENRE:;
#ORIGIN:;
#CREDIT:;
#BANNER:Villains.png;
#BACKGROUND:Villains-bg.png;
#PREVIEWVID:;
#JACKET:Villains-jacket.png;
#CDIMAGE:;
#DISCIMAGE:;
#LYRICSPATH:;
#CDTITLE:;
#MUSIC:Villains.ogg;
#OFFSET:-0.041594;
#SAMPLESTART:18.613537;
#SAMPLELENGTH:12.387096;
#SELECTABLE:YES;
#BPMS:0.000=155.000;
#STOPS:;
#DELAYS:;
#WARPS:;
#TIMESIGNATURES:0.000=4=4;
#TICKCOUNTS:0.000=4;
#COMBOS:0.000=1;
#SPEEDS:0.000=1.000=0.000=0;
#SCROLLS:0.000=1.000;
#FAKES:;
#LABELS:0.000=Song Start;
#BGCHANGES:;
#KEYSOUNDS:;
#ATTACKS:
;

//---------------dance-single - ----------------
#NOTEDATA:;
#CHARTNAME:;
#STEPSTYPE:dance-single;
#DESCRIPTION:;
#CHARTSTYLE:;
#DIFFICULTY:Challenge;
#METER:15;
#RADARVALUES:0.564069,0.803830,0.450498,0.247332,0.313582,447.000000,396.000000,51.000000,28.000000,20.000000,0.000000,0.000000,0.000000,0.000000,0.564069,0.803830,0.450498,0.247332,0.313582,447.000000,396.000000,51.000000,28.000000,20.000000,0.000000,0.000000,0.000000,0.000000;
#CREDIT:Daniel Van Eden;
#NOTES:
// measure 0
0000
0000
0000
0000
,  // measure 1
0000
0000
0000
0000
,  // measure 2
0000
0000
0000
0000
,  // measure 3
0000
0000
0000
0000
,  // measure 4
0000
0000
0000
0000
,  // measure 5
0000
0000
0000
0000
,  // measure 6
0000
0000
0000
0000
,  // measure 7
0000
0000
0000
0000
,  // measure 8
0000
0000
0000
0000
,  // measure 9
0000
0000
0000
0000
,  // measure 10
1000
0000
0000
0000
1000
0000
0000
0000
1000
0000
0000
0000
1000
0000
0100
0010
,  // measure 11
0001
0000
0000
0000
0001
0000
0000
0000
0100
0010
0100
0010
0000
0000
MMMM
0000
,  // measure 12
1001
0000
1100
0000
0101
0000
0100
0001
,  // measure 13
0010
0000
0100
0000
1000
0000
0000
0000
1010
0000
0000
0000
0000
0000
1000
0001
,  // measure 14
0010
0000
0010
0000
0010
0000
0000
0000
0110
0000
0000
0000
0100
1000
0001
0000
,  // measure 15
0100
0000
1000
0000
0100
0000
0001
0000
0010
0000
0000
0000
0100
0010
0100
0010
,  // measure 16
0001
0000
0000
0000
1010
0000
0000
0000
0101
0000
0000
0000
0100
0010
0100
0010
,  // measure 17
1000
0000
0000
0000
1000
0000
0010
0000
0110
0000
0000
0000
0010
1000
0001
0000
,  // measure 18
0100
0000
0100
0000
0100
0000
0000
0000
0101
0000
0000
0000
0001
1000
0100
0010
,  // measure 19
0001
0000
0000
0010
0000
0000
1000
0000
0000
0010
0000
0000
0001
0000
0000
0000
0000
0000
1000
0001
1000
0000
0001
0000
,  // measure 20
0100
0000
0100
0010
0000
0000
0110
0000
0000
1010
0000
1000
,  // measure 21
0100
0000
0000
0011
0000
0000
1100
0000
0000
1000
0001
0000
,  // measure 22
0001
0100
0010
1000
0000
0000
0101
0000
0000
1000
0100
0010
,  // measure 23
0001
0000
0000
0000
0000
0000
0000
0000
0000
0000
0000
0000
0010
0000
0000
0000
0100
0000
0000
0000
0010
0000
0000
0000
0001
0000
0000
1000
0000
0000
0001
0000
0000
1000
0000
0000
0000
0000
0000
0000
0000
0000
MMMM
0000
0000
0000
0000
0000
,  // measure 24
1001
0000
0000
0000
1010
0000
0000
0000
0011
0000
0000
0000
0010
0001
0000
0001
,  // measure 25
1000
0000
0000
0000
0001
0000
1000
0010
0100
0000
0100
0000
0100
0000
0000
0000
,  // measure 26
1010
0000
0000
0000
1000
0000
0001
0010
0001
0000
0001
0000
0010
0000
0010
0000
,  // measure 27
0200
0000
0000
0000
0000
0000
0000
0000
1300
0000
0001
0100
0001
0000
1000
0000
,  // measure 28
0200
0010
2300
0010
,  // measure 29
0002
0000
0000
3003
,  // measure 30
1000
0000
0001
1000
0010
0000
0100
0000
2000
0000
0000
0000
3100
0000
0001
0000
,  // measure 31
0010
0100
0001
0100
2000
0000
3002
0000
,  // measure 32
0013
0000
0100
0010
0001
0000
1000
0000
0020
0000
0000
0000
0031
0000
0010
0000
,  // measure 33
1000
0001
0010
0100
0020
0000
1000
0000
,  // measure 34
0031
0000
1000
0001
0010
0000
0100
0000
0002
0000
0000
0000
0103
0000
1000
0000
,  // measure 35
0010
0100
1000
0100
0002
0000
1003
0010
,  // measure 36
0100
0001
1000
0010
0100
1000
0100
0001
,  // measure 37
0010
0100
1000
0010
0200
0000
0000
0000
,  // measure 38
0301
0000
0000
0000
0001
0000
0000
0000
0100
0000
0000
0000
0100
0000
0010
0100
,  // measure 39
0001
0000
0000
0000
0001
0000
0000
0000
0100
0000
0010
0100
0001
0000
0010
0100
,  // measure 40
1000
0000
0000
0000
1000
0000
0000
0000
0100
0000
0000
0000
0100
0000
0010
0100
,  // measure 41
1000
0000
0100
0010
0001
0000
0000
0000
MMMM
0000
0000
0000
MMMM
0000
0000
0000
,  // measure 42
0001
0000
0001
0010
0000
0010
0100
0000
0100
0010
0001
0010
,  // measure 43
0100
0000
0100
1000
0000
1000
0010
0000
0010
0100
0010
1000
,  // measure 44
0001
0000
1000
0010
1000
0000
0010
1000
0010
0000
0100
0010
0100
0000
0010
0100
,  // measure 45
0001
1000
0001
1000
0001
1000
0001
1000
0002
0000
0000
0000
0000
0000
0000
0000
,  // measure 46
0013
0000
0100
1000
0001
0000
1000
0000
0020
0000
0000
0000
0130
0000
0001
0000
,  // measure 47
1000
1000
0200
0000
,  // measure 48
1300
0000
0010
0100
0101
0000
0100
0110
,  // measure 49
1010
0000
1000
0100
1100
0000
0100
0010
,  // measure 50
0021
0000
0100
0130
,  // measure 51
0000
0000
0002
0003
0000
0000
MMMM
0000
,  // measure 52
1001
0000
1000
0010
0100
0000
0001
0000
0020
0000
0000
0000
0031
0000
0100
0000
,  // measure 53
1000
0100
0001
0010
0100
0000
1100
1000
,  // measure 54
1001
0000
0001
0010
0100
0000
1000
0000
0020
0000
0000
0000
0031
0000
0010
0000
,  // measure 55
1000
0000
0010
0000
0100
0000
0001
0000
0011
0000
0000
0000
1100
0000
0100
0010
,  // measure 56
0001
0000
1000
0010
0100
0000
0010
0000
2000
0000
0000
0000
3010
0000
0100
0000
,  // measure 57
0101
0001
0010
0100
1000
0100
1100
1000
,  // measure 58
1010
0000
0110
0100
0101
0001
1001
0001
,  // measure 59
0011
0000
1000
0000
1100
0000
1000
0000
1001
0000
0000
0000
1000
0010
0100
0000
,  // measure 60
0102
0000
1000
0000
0023
0000
0130
1000
,  // measure 61
0010
0100
0001
0000
0000
1010
0000
0000
0011
0000
0000
0000
0010
0100
1000
0000
,  // measure 62
0010
1000
1001
0000
1100
0000
0011
0001
,  // measure 63
0010
0000
0100
0000
1100
0000
0000
0000
1000
0000
0010
1000
0001
0000
0001
0000
,  // measure 64
0100
0000
0100
0000
0110
0000
0000
0000
1000
0000
1000
0000
0001
0010
0100
0000
,  // measure 65
2000
0000
0000
0000
0000
0000
0000
0000
3001
0100
0010
0000
0010
0000
0100
0000
,  // measure 66
0101
0000
0000
0001
0000
0000
0011
0000
0000
0010
0000
0000
0002
0000
0000
0000
0000
0000
0003
0000
0000
1000
0100
0010
,  // measure 67
0001
1010
1100
0011
,  // measure 68
2001
0100
3002
0010
,  // measure 69
0203
0000
0020
0000
,  // measure 70
0330
0000
0000
0000
;

//---------------dance-single - ----------------
#NOTEDATA:;
#CHARTNAME:;
#STEPSTYPE:dance-single;
#DESCRIPTION:;
#CHARTSTYLE:;
#DIFFICULTY:Hard;
#METER:13;
#RADARVALUES:0.455546,0.556498,0.150166,0.141333,0.136916,361.000000,344.000000,17.000000,16.000000,0.000000,0.000000,0.000000,0.000000,0.000000,0.455546,0.556498,0.150166,0.141333,0.136916,361.000000,344.000000,17.000000,16.000000,0.000000,0.000000,0.000000,0.000000,0.000000;
#CREDIT:Daniel Van Eden;
#NOTES:
0000
0000
0000
0000
,
0000
0000
0000
0000
,
0000
0000
0000
0000
,
0000
0000
0000
0000
,
0000
0000
0000
0000
,
0000
0000
0000
0000
,
0000
0000
0000
0000
,
0000
0000
0000
0000
,
0000
0000
0000
0000
,
0000
0000
0000
0000
,
0001
0000
0001
0000
0001
0000
0001
0010
,
0100
0000
0000
0000
0100
0000
0000
0000
1000
0001
1000
0001
0000
0000
0000
0000
,
1001
0000
1001
0000
1001
0000
1000
0010
,
1000
1000
1000
0000
1010
0000
0000
1000
,
0001
0001
0001
0000
0101
0000
0100
0010
,
1000
0000
0001
0000
0010
0000
0100
0000
0010
0000
0000
0000
0001
1000
0001
1000
,
0001
0000
0101
0000
1100
0000
1000
0010
,
0100
0000
0010
0010
0100
0000
0100
0001
,
1000
1000
1000
0000
1010
0000
1000
0001
,
0010
0000
0000
0100
0000
0000
0100
0000
0000
0010
0000
0000
0001
0000
0000
0000
0000
0000
0001
0000
1000
0000
0001
0000
,
1000
0000
1000
0001
0000
0000
0100
0000
0000
0010
0000
0100
,
0010
0000
0000
1010
0000
0000
0011
0000
0000
0010
0100
0000
,
0010
0000
0010
0001
0000
0000
1000
0000
0000
0001
0000
0001
,
1000
0000
0000
0000
0000
0000
0000
0000
0000
0000
0000
0000
1000
0000
0000
0000
0000
0000
0000
0000
1000
0000
0000
0000
0010
0000
0000
0100
0000
0000
0010
0000
0000
0100
0000
0000
0000
0000
0000
0000
0000
0000
0000
0000
0000
0000
0000
0000
,
0001
0000
0100
0000
0001
0000
0000
0000
0001
0000
0000
0000
1000
0010
0000
0010
,
1000
0000
0000
0000
0001
0000
0010
0001
0010
0000
0100
0000
1000
0000
0000
0000
,
0010
0000
0000
0000
1000
0000
0100
0010
0100
0000
0010
0000
0001
0000
1000
0000
,
0002
0000
0000
0000
,
1003
0002
2003
3020
,
0230
0000
0000
0000
,
0301
1000
0010
0000
0100
0000
0010
1000
,
0001
0010
0100
1000
0001
0000
1000
0000
,
0100
1000
0001
0000
0100
0000
1000
0100
,
0001
0010
0100
1000
0010
0000
1000
0000
,
0001
1000
0100
0000
0010
0000
0001
1000
,
0010
0100
0001
1000
0010
0000
0100
0010
,
1000
0000
0001
0100
0010
0100
0001
0010
,
1000
0010
0001
1000
0020
0000
0000
0000
,
1030
0000
1000
0000
0001
0000
0001
1000
,
0010
0000
0010
0000
1000
0001
0100
0001
,
1000
0000
1000
0000
0001
0000
0001
0100
,
0001
1000
0100
0000
0000
0000
0000
0000
,
1000
0000
0000
0100
0000
0100
1000
0000
0000
0001
0000
0001
,
0100
0000
0000
0100
0000
0100
0010
0000
0000
1000
0000
1000
,
0001
0010
0001
0010
0100
1000
0100
1000
,
0001
0100
0010
1000
0002
0000
0000
0000
,
1003
0010
0100
0010
1000
0000
0001
0010
,
0100
0100
0020
0000
,
0031
0000
0001
0100
1000
0000
1000
0100
,
0001
0000
1000
0010
0001
0000
0001
0010
,
2000
0000
0001
3001
,
0000
0000
0000
1001
,
0001
0010
0001
1000
0100
0000
1000
0010
,
0001
0010
1000
0001
1000
0000
0100
0100
,
1000
0010
1000
0001
0100
0000
0001
0100
,
1000
0000
0100
0000
0010
0000
1000
0000
0001
0000
0000
0000
0010
0000
0001
1000
,
0001
0100
0010
1000
0010
0000
0100
0001
,
0010
0100
1000
0001
1000
1000
0001
0001
,
0100
0000
0010
0010
0100
0100
0001
0010
,
1000
0000
0001
0000
0100
0000
1000
0000
0001
0000
0000
0000
1000
0010
1000
0000
,
0200
0000
0000
0000
,
0310
0001
1000
0000
0000
1001
0000
0000
1001
0000
0000
0000
0001
0100
0001
0000
,
1000
1000
1000
0000
0010
0000
0001
0010
,
1000
0000
0001
0000
0010
0000
0001
0000
0010
0000
0100
1000
0100
0000
1000
0000
,
0010
0000
1000
0000
0010
0000
0000
0000
1000
0000
0001
0000
0010
0100
0010
0000
,
0000
0000
0000
0000
0000
0000
0000
0000
0100
1000
0001
0000
0100
0000
0010
0000
,
1000
0000
1000
0000
0001
0000
0001
0000
0000
0000
0000
0000
0000
0000
0100
0010
,
0001
0011
1010
0101
,
2001
3020
0230
0302
,
0023
0000
0230
0000
,
0300
0000
0000
0000
;

//---------------dance-single - ----------------
#NOTEDATA:;
#CHARTNAME:;
#STEPSTYPE:dance-single;
#DESCRIPTION:;
#CHARTSTYLE:;
#DIFFICULTY:Medium;
#METER:10;
#RADARVALUES:0.359641,0.494665,0.158999,0.097166,0.004417,285.000000,267.000000,18.000000,11.000000,0.000000,0.000000,0.000000,0.000000,0.000000,0.359641,0.494665,0.158999,0.097166,0.004417,285.000000,267.000000,18.000000,11.000000,0.000000,0.000000,0.000000,0.000000,0.000000;
#CREDIT:Daniel Van Eden;
#NOTES:
0000
0000
0000
0000
,
0000
0000
0000
0000
,
0000
0000
0000
0000
,
0000
0000
0000
0000
,
0000
0000
0000
0000
,
0000
0000
0000
0000
,
0000
0000
0000
0000
,
0000
0000
0000
0000
,
0000
0000
0000
0000
,
0000
0000
0000
0000
,
1000
0000
1000
0000
1000
0000
0001
1000
,
0001
0001
0020
0030
,
1001
1001
1001
0001
,
1000
0010
1000
0000
0001
0000
0000
0000
,
0010
0100
0010
0000
0001
0000
0100
0000
,
0010
0100
0010
0100
0010
0000
2000
0000
,
3100
0000
0100
0000
0100
0000
0010
0001
,
0010
0000
0010
0100
0010
0000
0001
0000
,
1000
0001
1000
0000
0010
0000
1000
0000
,
0001
1000
0001
1000
0001
0000
0000
0000
,
0101
1000
1100
0100
,
0011
0100
1010
1000
,
1001
0001
0101
0100
,
0110
0010
2000
3000
,
0001
0000
0010
0000
0100
0000
0010
0001
,
0010
0000
0100
0000
1000
0001
1000
0000
,
0010
0000
0100
0010
0100
0010
1000
0001
,
2000
0000
0000
0000
,
3100
0010
0001
1000
,
0010
0000
0000
0000
,
0100
0001
1000
0000
0100
0000
0010
0000
,
0001
0010
0100
1000
,
0100
1000
0001
0000
0100
0000
1000
0000
,
0100
0001
0010
0100
,
0010
0001
1000
0000
0010
0000
0100
0000
,
0001
0000
1000
0000
0010
0000
1000
0001
,
1000
0000
0001
1000
0001
0000
0100
0000
,
0010
0000
1000
0001
0010
0000
0000
0000
,
0100
0000
0100
0000
1000
0000
0010
1000
,
0010
0000
0010
0000
0100
0001
0100
0001
,
0100
0000
0100
0000
0001
0000
0010
0001
,
0010
0100
0010
0000
0000
0000
0000
0000
,
1100
0100
1000
1000
,
0001
0100
0010
0010
,
1000
0000
0001
0010
0001
0000
1000
0100
,
1000
0001
1000
0001
2000
0000
0000
0000
,
3010
0100
0010
0000
0100
0000
0001
0000
,
1000
0001
1000
0000
,
0001
0000
0001
0000
0010
0000
0100
0010
,
0010
0100
1000
1000
,
2002
0000
0000
3003
,
0010
0100
0010
1001
,
0001
1000
0001
0000
1000
0000
0010
0000
,
0001
0000
0010
0000
1000
0000
0001
1000
,
0100
0010
0001
0010
,
0100
0010
0100
0000
1000
0000
0001
0100
,
0001
0000
0100
0000
0010
0000
1000
0001
,
1000
0000
0100
0000
0010
0100
0010
0100
,
0010
0000
0001
0010
0001
1000
0001
1000
,
0100
0010
0001
0010
0100
0000
1000
0001
,
0020
0000
0000
0000
,
0031
0000
1000
0000
0000
0001
0000
0000
1001
0000
0000
0000
1000
0000
0100
0000
,
0010
0010
0001
0000
0100
0000
0010
0000
,
0100
0001
0100
0000
0010
1000
0001
1000
,
0001
0100
0001
0000
0010
0100
1000
0100
,
0000
0000
0000
0000
0100
1000
1000
1000
,
0010
0100
0010
0100
0000
0000
0000
0002
,
0103
0110
1010
0011
,
0220
0000
0000
0000
,
0000
0000
0000
0000
,
0330
0000
0000
0000
;

//---------------dance-single - ----------------
#NOTEDATA:;
#CHARTNAME:;
#STEPSTYPE:dance-single;
#DESCRIPTION:;
#CHARTSTYLE:;
#DIFFICULTY:Easy;
#METER:7;
#RADARVALUES:0.273832,0.401915,0.079500,0.097166,0.004417,217.000000,208.000000,9.000000,11.000000,0.000000,0.000000,0.000000,0.000000,0.000000,0.273832,0.401915,0.079500,0.097166,0.004417,217.000000,208.000000,9.000000,11.000000,0.000000,0.000000,0.000000,0.000000,0.000000;
#CREDIT:Daniel Van Eden;
#NOTES:
0000
0000
0000
0000
,
0000
0000
0000
0000
,
0000
0000
0000
0000
,
0000
0000
0000
0000
,
0000
0000
0000
0000
,
0000
0000
0000
0000
,
0000
0000
0000
0000
,
0000
0000
0000
0000
,
0000
0000
0000
0000
,
0000
0000
0000
0000
,
1000
0001
1000
0001
,
0010
0010
0010
0000
,
0100
0100
0100
0010
,
0001
1000
0001
0000
,
1000
1000
1000
0010
,
0100
0010
0100
0000
,
0001
0100
0010
1000
,
0001
1000
0001
0000
,
1000
1000
0001
0010
,
0100
0010
0010
0000
,
1001
0001
0100
0010
,
1000
1000
0001
0010
,
1100
1000
0010
0100
,
0010
0010
1000
0000
,
0101
0001
1000
0010
,
1000
0100
0100
0010
,
0011
0001
1000
0010
,
2000
0000
0000
0000
,
3001
1000
0100
0001
,
0010
0000
0000
0000
,
0001
1000
0010
1000
,
0001
0010
0001
0000
,
1000
0001
0010
0100
,
1000
0001
0100
0000
,
0001
1000
0100
1000
,
0001
0100
0010
2000
,
3001
2000
3001
0010
,
0100
1000
0010
0000
,
0000
0001
0100
0010
,
1000
0000
0001
0000
,
0000
1000
0100
0010
,
0001
1000
0000
0000
,
0010
0010
1000
1000
,
0001
0001
0010
0010
,
0100
1000
0100
0010
,
0001
1000
0002
0000
,
1003
0000
0000
0000
,
0010
0010
0020
0000
,
1030
0000
0000
1000
0001
0000
0000
0001
,
1000
0000
0000
1000
0001
0000
0000
0001
,
1000
0000
0001
0001
,
0000
0000
0000
1001
,
0001
0001
0001
0000
1000
0000
0010
0000
,
0100
0010
1000
0001
,
1000
0100
1000
0001
,
0010
0000
0100
0000
1000
0000
0010
0010
,
0010
1000
0010
0100
,
0001
0100
0010
1000
,
0001
1000
0001
0010
,
0100
0010
0100
0010
0100
0000
0000
0000
,
1001
0000
0000
0000
,
0000
0000
1000
0000
0000
1000
0000
0000
1000
0000
0000
0000
0001
0000
0000
0000
,
0010
0010
0010
0000
0100
0000
1000
0000
,
0010
1000
0001
0100
,
0001
0001
0001
0000
1000
0000
0010
0000
,
0000
0000
0000
0000
1000
0001
1000
0001
,
1000
0100
0020
0032
,
0103
0110
1010
1001
,
0002
0000
2003
0000
,
3200
0000
0320
0000
,
0030
0000
0000
0000
;

//---------------dance-single - ----------------
#NOTEDATA:;
#CHARTNAME:;
#STEPSTYPE:dance-single;
#DESCRIPTION:;
#CHARTSTYLE:;
#DIFFICULTY:Beginner;
#METER:3;
#RADARVALUES:0.162785,0.240266,0.044166,0.000000,0.000000,129.000000,124.000000,5.000000,0.000000,0.000000,0.000000,0.000000,0.000000,0.000000,0.162785,0.240266,0.044166,0.000000,0.000000,129.000000,124.000000,5.000000,0.000000,0.000000,0.000000,0.000000,0.000000,0.000000;
#CREDIT:Daniel Van Eden;
#NOTES:
0000
0000
0000
0000
,
0000
0000
0000
0000
,
0000
0000
0000
0000
,
0000
0000
0000
0000
,
0000
0000
0000
0000
,
0000
0000
0000
0000
,
0000
0000
0000
0000
,
0000
0000
0000
0000
,
0000
0000
0000
0000
,
0000
0000
0000
0000
,
1000
0000
1000
0000
,
0001
0000
0000
0000
,
0001
0001
0001
0000
,
0100
0000
0010
0000
,
1000
1000
1000
0000
,
0001
1000
0001
0000
,
1001
0000
1000
0000
,
0010
0010
0010
0000
,
0100
0000
0001
0000
,
1000
0001
1000
0000
,
0100
0100
0100
0000
,
0010
0000
0001
0000
,
1000
1000
1000
0000
,
0010
0010
0000
0000
,
0110
0000
0100
0000
,
0001
0001
0001
0000
,
0010
0000
0100
0100
,
0100
0000
0000
0000
,
1000
0000
0000
0000
,
0001
0000
0000
0000
,
1000
0000
0010
0000
,
0100
0100
0100
0000
,
0001
0000
0010
0000
,
1000
0000
0010
0000
,
0001
0000
1000
0000
,
0010
0010
0010
0000
,
0100
0000
0100
0000
,
0010
0000
1000
0000
,
0001
0000
0000
0000
,
0001
0000
0000
0000
,
1000
0000
0000
0000
,
1000
0000
0000
0000
,
0010
0000
0010
0000
,
1000
0000
1000
0000
,
0001
0000
0010
0000
,
0100
0100
0100
0000
,
0010
0000
0000
0000
,
0001
0001
0000
0000
,
1000
0000
1000
0000
,
0001
0000
0001
0000
,
1001
0000
0000
0000
,
0000
0000
0000
0000
,
0001
0001
0001
0000
,
0010
0000
0100
0000
,
1000
0000
1000
0000
,
0010
0100
0010
0000
,
1000
0000
1000
0000
,
0010
0000
0100
0100
,
0100
0000
0001
0000
,
1000
0001
1000
0000
,
1001
0000
0000
0000
,
0001
0000
1001
0000
,
1000
1000
1000
0000
,
0100
0000
0010
0010
,
0010
0000
0001
0001
,
0000
0000
0010
0010
,
0010
0000
0000
0000
,
0001
1000
0001
1000
,
0001
0000
0000
0000
;
