#TITLE:VALLIS-NERIA;
#SUBTITLE:;
#ARTIST:DJ YOSHITAKA;
#TITLETRANSLIT:;
#SUBTITLETRANSLIT:;
#ARTISTTRANSLIT:;
#GENRE:;
#CREDIT:;
#MUSIC:VALLIS-NERIA.ogg;
#BANNER:VALLIS-NERIA.png;
#BACKGROUND:VALLIS-NERIA-bg.png;
#CDTITLE:;
#SAMPLESTART:89.223;
#SAMPLELENGTH:15.000;
#SELECTABLE:YES;
#OFFSET:1.568;
#BPMS:0.000=185.000;
#STOPS:;
#BGCHANGES:3.200=VALLIS-NERIA.avi=1.000=0=0=1,
99999.000=-nosongbg-=1.000=0=0=0=StretchNoLoop====
;
#FGCHANGES:;

//--------------- dance-single - forcednature ----------------
#NOTES:
     dance-single:
     forcednature:
     Beginner:
     6:
     0,0,0,0,0:
0000
0000
0000
0000
,
0000
0000
0000
0000
,
0000
0000
0000
0000
,
0000
0000
0000
0000
,
0000
0000
0000
0000
,
0000
0000
0000
0000
,
0001
0000
1000
0000
,
0010
0000
0100
0100
,
0200
0000
0000
0000
,
0000
0000
0000
0300
,
2002
0000
0000
0000
,
0000
0000
3003
0010
,
0100
2002
0000
0000
,
0000
3003
0100
0010
,
1001
1000
0100
1000
,
0001
0100
0001
0010
,
0100
0100
0010
0010
,
0001
1000
0001
0000
,
1001
0000
1000
0010
,
0010
0100
0001
0000
,
1001
0000
0001
0010
,
0010
0100
1000
0000
,
1001
0000
1000
0100
,
0100
0000
0001
0000
0100
0000
0000
0010
,
0000
0001
0001
1000
,
1000
0010
0100
0000
,
1001
0000
0001
0100
,
0010
1000
0001
0000
,
1001
0000
1000
0000
,
0100
0100
0100
0000
,
0010
0000
0000
0010
0000
0010
0000
0020
,
0000
0000
0000
0030
,
0001
0000
0000
0001
0000
0001
0000
0002
,
0000
0000
0000
0003
,
0100
0100
0001
0001
,
0100
0001
1000
0000
,
0100
0100
1000
1000
,
0100
1000
0001
0000
,
1000
0000
0000
1000
0000
1000
0000
2000
,
0000
0000
0000
3000
,
0100
0000
0000
0100
0000
0100
0000
0200
,
0000
0000
0000
0300
,
0010
0010
0001
0001
,
0010
0001
1000
0000
,
0010
0010
1000
1000
,
0010
1000
0001
0000
,
0010
0100
0010
0000
,
0010
0100
0010
0000
,
0010
0100
1000
0001
,
0010
0100
0010
0000
,
0001
1000
0001
0000
,
0001
1000
0001
0000
,
0001
0100
0010
1000
,
0001
0100
0010
0000
,
1001
0000
1000
1000
,
0100
0001
0100
0000
,
1001
0000
0001
0001
,
0100
1000
0100
0000
,
1001
0000
1000
1000
,
0010
0001
0010
0000
,
1001
0000
0001
0010
,
0100
0100
1000
0000
,
2002
0000
0000
0000
,
0000
0000
0000
0000
,
0000
0000
0000
0000
,
0000
0000
0000
0000
,
0000
0000
0000
0000
,
0000
0000
3003
0000
,
0220
0000
0000
0000
,
0000
0000
0000
0330
,
1001
0000
0001
0100
,
0010
1000
0001
0000
,
1001
0000
1000
0100
,
0010
0001
1000
0000
,
0110
0000
0001
1000
,
0010
0000
0100
0000
0001
0000
0000
1001
,
0000
0000
0100
0100
,
0010
0010
0100
0000
,
1001
0000
1000
0100
,
0001
0000
0100
0000
1000
0000
0000
1001
,
0000
0001
0001
0100
,
0100
0010
1000
0000
,
0100
0000
0000
0100
0000
0100
0000
0220
,
0000
0000
0000
0330
,
0010
0000
0000
0010
0000
0010
0000
0220
,
0000
0000
0000
0330
,
1000
1000
0001
0001
,
0100
0010
1000
0000
,
0001
0001
1000
1000
,
0100
0010
0001
0000
,
1000
0000
0000
1000
0000
1000
0000
2002
,
0000
0000
0000
3003
,
0001
0000
0000
0001
0000
0001
0000
2002
,
0000
0000
0000
3003
,
1000
0010
0100
0001
,
0010
0100
1000
0000
,
0010
0010
0100
0001
,
1001
0000
0100
0010
,
2002
0000
0000
0000
,
0000
0000
0000
0000
0000
0000
0000
3003
;

//--------------- dance-single - forcednature ----------------
#NOTES:
     dance-single:
     forcednature:
     Easy:
     10:
     0,0,0,0,0:
0000
0000
0000
0000
,
0000
0000
0000
0000
,
0000
0000
0000
0000
,
0000
0000
0000
0000
,
0000
0000
0000
0000
,
0000
0000
0000
0000
,
1000
0000
0001
0000
0010
0100
1000
0001
,
0000
1000
0000
0010
0000
0100
0000
0001
,
0000
0010
0200
0000
0000
0000
0000
0000
,
0000
0000
0000
0300
,
2002
0000
0000
0000
,
0000
0000
3003
1100
,
1100
2002
0000
0000
,
0000
3003
0101
0101
,
2001
0100
0100
0100
,
3002
0100
0100
0100
,
1003
0001
1000
0001
0010
0100
0010
0100
,
1000
0000
0000
0001
0000
0001
0000
0001
0100
0000
0010
0000
1000
0000
0000
0000
,
1001
0000
0001
0010
0100
1000
0010
1000
,
0000
0001
0000
0010
0000
0100
1000
0000
,
1001
0000
0001
0000
0100
0010
0000
1100
,
0000
1100
0000
0101
0000
0101
0000
0000
,
1001
0000
1000
0000
0100
0010
0001
0100
,
0000
0010
1000
0000
0001
0010
0000
0001
,
0000
0100
0020
0000
0000
0000
0000
0000
,
1030
0100
1000
0001
0100
0001
1000
0000
,
0110
0000
0001
1000
0100
0010
0001
0100
,
0000
0010
0000
0000
1001
0000
0000
0110
,
0000
0000
0001
0000
0100
0000
0010
1000
,
0001
0000
0000
0001
0000
0000
0001
0000
0010
0000
0100
0000
1000
0000
0000
0000
,
0001
0100
0000
0010
0000
1000
0000
2002
,
0000
0000
0000
3003
,
1000
0100
0000
0010
0000
0001
0000
2002
,
0000
0000
0000
0000
0000
0000
3003
1000
,
0001
0000
0100
1000
0000
0100
0001
0000
,
1000
0100
0010
0000
0001
0100
0010
0000
,
1000
0000
0001
0000
0010
0000
0000
0100
0000
0100
0000
0000
0010
0000
0000
0000
,
0001
0000
1000
0000
0010
0100
0001
1000
,
0001
0100
0000
1000
0000
0100
0000
2002
,
0000
0000
0000
3003
,
1000
0100
0000
0001
0000
0100
0000
2002
,
0000
0000
0000
0000
0000
0000
3003
0001
,
1000
0000
0100
0001
0000
0100
1000
0000
,
0001
0100
0010
0000
1000
0100
0010
0000
,
0200
0000
0000
0000
0000
0000
0000
0000
1300
0000
0000
0001
0000
0000
0100
0000
,
0001
0000
0000
1000
0000
0000
0100
0000
0020
0000
0000
0000
0000
0000
0000
0000
,
0130
1000
0010
0000
1000
0100
0010
0000
,
0100
1000
0010
0000
0100
0000
0100
0000
,
0001
0010
0100
0000
0010
0001
0100
0000
,
0001
0010
0100
0000
0010
0000
0010
0000
,
0001
0100
0010
0000
1000
0100
0010
0000
,
0001
0100
0010
0000
1000
0000
0001
0000
,
1000
0100
0010
0000
0001
0100
0010
0000
,
1000
0100
0010
0000
0001
0000
1000
0000
,
0101
0000
1100
0000
0001
0100
1000
0000
,
0100
0001
1000
0000
0110
0000
1001
0000
,
1100
0000
0101
0000
1000
0100
0001
0000
,
0100
1000
0001
0000
0110
0000
1001
0000
,
1001
0000
0110
0000
1000
0100
0010
0000
,
0001
0100
0010
0000
0110
0000
1001
0000
,
1000
1000
0001
0000
0001
0001
1000
0000
,
0010
0000
0000
0100
0000
0100
0000
0100
0001
0000
0000
0000
1000
0000
0000
0000
,
2002
0000
0000
0000
,
0000
0000
0000
0000
,
0000
0000
0000
0000
,
0000
0000
0000
3003
,
1000
0000
0100
0000
0010
0001
0010
0001
,
0000
0100
0000
0010
0000
1000
0000
0001
,
2002
0000
0000
0000
,
0000
0000
0000
3003
,
1001
0000
1000
0010
0100
0001
0010
0001
,
0000
0100
0000
0010
0000
1000
0100
0000
,
0110
0000
0001
0010
0100
1000
0000
1010
,
0000
1100
0000
0011
0000
0101
0000
0000
,
1001
0000
0001
0000
0100
0010
1000
0001
,
0000
0010
0100
0000
1000
0010
0000
0100
,
0000
0001
0020
0000
0000
0000
0000
0000
,
0130
1000
0100
0010
0001
0100
0010
0000
,
0110
0000
1000
0001
0100
0010
1000
0001
,
0000
0010
0000
0000
1001
0000
0000
0110
,
0000
0000
0001
0000
0100
0000
1000
0100
,
0001
0000
0000
0001
0000
0000
0001
0000
0010
0000
0100
0000
1000
0000
0000
0000
,
0010
0100
0000
0001
0000
0010
0000
2002
,
0000
0000
0000
3003
,
1000
0010
0000
0100
0000
0010
0000
2002
,
0000
0000
0000
0000
0000
0000
3003
1000
,
0001
0100
0100
1000
0100
0100
0001
0000
,
1000
0001
0100
0000
0001
1000
0100
0000
,
0010
0000
0001
0000
0100
0000
0000
0010
0000
0010
0000
0000
1000
0000
0000
0000
,
0100
0000
0010
0000
0001
0100
0001
0010
,
0100
1000
0000
0001
0000
0100
0000
2002
,
0000
0000
0000
3003
,
1000
0100
0000
0010
0000
0001
0000
2002
,
0000
0000
0000
0000
0000
0000
3003
0001
,
1000
0100
0100
0001
0100
0100
1000
0000
,
0010
0100
0001
0010
0100
1000
0001
0100
,
0020
0000
0000
0000
0000
0000
0000
0000
0130
0000
0000
0001
0000
0000
1000
0000
,
0010
0000
0000
1000
0000
0000
0100
0000
0020
0000
0000
0000
0000
0000
0000
0000
,
0200
0000
0000
0000
,
0000
0000
0000
0000
0000
0000
0000
0330
;

//--------------- dance-single - forcednature ----------------
#NOTES:
     dance-single:
     forcednature:
     Medium:
     13:
     0,0,0,0,0:
0000
0000
0000
0000
,
0000
0000
0000
0000
,
0000
0000
0000
0000
,
0000
0000
0000
0000
,
0000
0000
0000
0000
,
0000
0000
0000
0000
,
0001
0000
0010
0000
0100
1000
0001
0100
,
0000
0010
0000
1000
0000
0001
0000
0010
,
0000
0100
2000
0000
0000
0000
0000
0000
,
0000
0000
0000
3000
,
2002
0000
0000
0000
,
0000
0000
3003
0101
,
1100
2002
0000
0000
,
0000
3003
0110
1001
,
1200
0000
0001
0000
1000
0000
0310
0001
,
0200
0000
1000
0000
0001
0000
0310
1000
,
0100
0100
0010
0010
0001
0100
0010
1000
,
0001
0000
0010
0001
0000
1000
0000
0100
1000
0000
1000
0000
0001
0100
0000
0001
,
0100
0010
1000
0001
1000
0100
0010
0001
,
0000
0101
0000
1100
0000
0010
0100
0000
,
1001
0000
0001
0010
0100
1000
0000
0010
,
0000
1010
0000
0101
0000
1000
0100
0000
,
0110
0000
0010
0001
1000
0001
0100
0010
,
0000
1000
0001
0010
0100
0010
0000
1001
,
0000
0001
0200
0000
0000
0310
1000
0001
,
1000
0100
0001
0100
0010
0010
0001
0001
,
1000
0010
0001
0010
0100
0001
1000
0200
,
0000
0310
0000
0100
1000
0001
0100
0010
,
2000
0000
0000
0002
0000
0000
3003
0000
,
0010
0000
0000
0010
0000
0000
1001
0000
0001
0000
0100
0000
1000
0000
0000
0000
,
0100
0010
0000
1100
0000
0101
0000
2002
,
0000
0000
0000
3003
,
0100
0010
0000
0011
0000
1010
0000
2002
,
0000
0000
0000
0000
0000
0000
3003
0001
,
1000
0000
0001
0100
0001
0000
1000
0000
0001
0100
0001
0000
0010
0000
0001
0000
,
0100
0010
1000
0001
1000
0100
0010
0001
,
1000
0010
1000
0010
1000
0000
0000
0100
0000
0100
0000
0000
0010
0000
0001
0000
,
0100
0000
0010
1000
0010
0000
0100
0000
0001
0000
0001
0000
1000
0000
1000
0000
,
0001
0010
0000
0101
0000
1100
0000
2002
,
0000
0000
0000
3003
,
1000
0100
0000
0011
0000
1010
0000
2002
,
0000
0000
0000
0000
0000
0000
3003
1000
,
0001
0000
1000
0100
1000
0000
0001
0000
1000
0100
1000
0000
0010
0000
0100
0000
,
0001
0010
0001
0100
0010
1000
0100
1000
,
0020
0000
0000
0000
0000
0000
0130
0001
0100
0000
0000
0010
0000
0000
1000
0000
,
0002
0000
0000
0010
0000
0000
0010
0000
2000
0000
0000
0000
3003
0000
0000
0000
,
0001
0100
0010
0001
0010
0100
0001
0100
,
0010
0001
0010
0100
0001
1000
0010
0000
,
1000
0100
0010
1000
0010
0100
1000
0100
,
0010
1000
0010
0100
1000
0001
0010
0000
,
0001
0100
1000
0100
0001
1000
0010
0001
,
0010
1000
0001
0100
1000
0100
0001
0000
,
1000
0010
0001
0010
1000
0001
0100
1000
,
0100
0001
1000
0010
0001
0010
1000
0000
,
0001
0010
1000
0001
0100
1000
0001
0010
,
1000
0001
0100
1000
0001
0000
1001
0000
,
1000
0010
0001
1000
0100
0001
1000
0010
,
0001
1000
0100
0001
1000
0000
1001
0000
,
0001
0010
0100
0001
1000
0010
0100
1000
,
0001
0010
0100
0001
1000
0000
0110
0000
,
0001
0001
1000
1000
0010
0001
0010
1000
,
0001
0000
1000
0100
0000
0010
0000
0001
1000
0000
1000
0000
0001
0010
0000
0001
,
0010
0000
0010
0000
0100
1000
0001
1000
,
0000
0010
0000
0100
0000
0001
0010
0100
,
1000
0000
0001
0000
0100
0010
0000
1000
,
0000
0100
0000
1000
0000
0010
0000
0100
,
0001
0000
0010
0000
0100
0010
0001
1000
,
0000
0010
0000
0100
0000
0001
0000
1000
,
2002
0000
0000
0000
,
0000
0000
0000
3003
,
0001
0100
0010
1000
0001
1000
0100
0010
,
0000
0110
0000
1001
0000
0001
0100
0010
,
1000
0000
0001
1000
0100
0010
0000
1100
,
0000
0101
0000
1001
0000
0010
0100
0000
,
1001
0000
0001
0100
1000
0100
0010
1010
,
0000
0010
0100
0000
0001
1000
0000
0110
,
0000
0001
2000
0000
0000
3100
0001
0100
,
1000
0000
0010
0000
0100
0000
0001
0000
0010
0000
0100
1000
0100
0000
0010
0000
,
0001
0100
0010
0001
0010
0100
0001
2000
,
0000
3010
0000
0100
0001
0010
0001
0100
,
0020
0000
0000
2000
0000
0000
3030
0000
,
1001
0000
0000
0110
0000
0000
1001
0000
0100
0000
0100
0000
0010
0000
0000
0000
,
0100
1001
0000
1100
0000
0101
0000
2002
,
0000
0000
0000
3003
,
0010
1001
0000
0011
0000
1010
0000
2002
,
0000
0000
0000
0000
0000
0000
3003
0001
,
1000
0000
0100
0010
0100
0000
0001
0000
0100
0010
0100
0000
1000
0000
0001
0000
,
0100
0010
1000
0001
0010
0100
1000
0001
,
0100
0001
0100
0001
0100
0000
0000
0010
0000
0010
0000
0000
1000
0000
0001
0000
,
0010
0000
0100
1000
0100
0000
0010
0000
0001
0000
0001
0000
0100
0000
0100
0000
,
0001
1010
0000
1100
0000
0101
0000
2002
,
0000
0000
0000
3003
,
1000
0011
0000
0101
0000
1100
0000
2002
,
0000
0000
0000
0000
0000
0000
3003
1000
,
0001
0000
0100
0010
0100
0000
1000
0000
0100
0010
0100
0000
0001
0000
1000
0000
,
0100
0001
0100
0010
0001
1000
0010
0100
,
0002
0000
0000
0000
0000
0000
1003
0100
1000
0000
0000
0010
0000
0000
0100
0000
,
0101
0000
0000
0001
0000
0000
1000
0000
0100
0000
0010
0001
0010
0000
0100
0000
,
2002
0000
0000
0000
,
0000
0000
0000
0000
0000
0000
0000
3003
;

//--------------- dance-single - forcednature ----------------
#NOTES:
     dance-single:
     forcednature:
     Hard:
     15:
     0,0,0,0,0:
0000
0000
0000
0000
,
0000
0000
0000
0000
,
0000
0000
0000
0000
,
0000
0000
0000
0000
,
0000
0000
0000
0000
,
0000
0000
0000
0000
,
1000
0000
0010
0000
0100
0001
1000
0001
,
0000
0010
0000
0100
0000
1000
0000
0001
,
0000
0100
0020
0000
0000
0000
0000
0000
,
0000
0000
0000
0030
,
2002
0000
0000
0000
,
0000
0000
3003
1100
,
0110
0022
0000
0000
,
0000
0033
0101
1010
,
1002
0000
0100
0000
1000
0000
0013
0001
,
2000
0000
0100
0000
0001
0000
3010
1000
,
0001
0000
0010
0000
0100
0000
1000
0000
0001
0100
0001
0100
0010
1000
0010
1000
,
0001
0000
0010
0100
0000
0010
0000
0001
1000
0100
0010
0001
0100
0001
0000
1000
,
0010
0000
1000
0001
1000
0000
0100
0000
0010
0000
0001
0000
0100
0000
0101
0000
,
0000
0000
1001
0000
0000
0000
1100
0000
0000
0000
0001
0010
0100
0000
1000
0000
,
1001
0000
0001
0100
0010
1010
0000
0101
,
0000
0001
0010
1000
0000
0010
0110
0000
,
1001
0000
0001
0100
0010
0000
1000
0000
0001
0000
0010
0000
0100
0000
1100
0000
,
0000
0001
0100
0010
1000
0001
0000
0110
,
0000
1000
0002
0000
0000
0010
0013
0001
,
0100
0000
1000
0000
0100
0000
0010
0000
1000
0000
0001
0010
0100
0000
1000
0000
,
1001
0000
1000
0001
1000
0000
0010
0000
0001
0000
0010
0000
0100
0000
0120
0000
,
0000
0031
0000
0010
1000
0001
0010
0100
,
2000
0000
0100
3002
0010
0000
1003
0001
,
0100
0000
0000
0110
0000
0000
1001
0000
1000
0100
0010
0001
0100
0000
0000
0000
,
0010
1010
0000
0101
0000
0011
0000
2000
,
0100
0000
0000
0000
0001
0000
0000
0010
0000
0010
0000
0000
3001
0000
0000
0000
,
0010
0110
0000
1001
0000
1100
0000
0002
,
0100
0000
0000
0100
0000
0000
1000
0000
0013
0000
0001
1000
0001
0000
1000
0000
,
0010
0000
1000
0100
1000
0000
0001
0000
1000
0100
1000
0000
0010
0000
0100
0000
,
1000
0100
0001
0010
0100
0001
0100
1000
,
0001
0100
0001
0100
0010
0000
1000
0001
0000
0001
0000
0000
0010
0000
0100
0000
,
1000
0000
0001
0100
0010
0000
1000
0000
0100
0000
0100
0010
0001
0000
0001
0000
,
0100
0101
0000
1100
0000
1010
0000
0002
,
0100
0000
0100
0000
1000
0000
0000
0010
0000
0010
0000
0000
1003
0000
0001
0000
,
0010
0011
0000
0101
0000
1010
0000
2000
,
0100
0000
0000
0001
0000
0000
0010
0000
3100
0000
1000
0001
0010
0000
0100
0000
,
1000
0000
0001
0100
0001
0000
0010
0000
0001
0100
0001
0000
1000
0000
0100
0000
,
0001
0100
0010
1000
0010
0001
0100
0010
,
2000
0000
0000
0000
0000
0000
3100
0010
0001
0000
0000
0100
0000
0000
0010
0000
,
2000
0000
0000
0100
0000
0000
0001
0000
3010
0000
1000
0001
0100
0000
0001
0000
,
0010
0000
0000
0001
1000
0000
0010
0000
0000
1000
0001
0000
0010
0000
0000
0001
,
1000
0000
0010
0000
0000
1000
0001
0000
0010
0000
0100
0000
1000
0000
0100
0000
,
0010
0000
0000
0001
0100
0000
0010
0000
0000
1000
0100
0000
0010
0000
0000
0001
,
0100
0000
0010
0000
0000
1000
0100
0000
0001
0000
0100
0000
1000
0000
0001
0000
,
1000
0000
0000
0100
0010
0000
0001
0000
0000
0100
0010
0000
1000
0000
0000
0100
,
0010
0000
0001
0000
0000
0100
0010
0000
1000
0000
0010
0000
0001
0000
0010
0000
,
0100
0000
0000
0001
1000
0000
0100
0000
0000
1000
0001
0000
0010
0000
0000
0001
,
1000
0000
0010
0000
0000
1000
0001
0000
0100
0000
1000
0000
0100
0000
0001
0000
,
1001
0000
1000
0100
0010
0000
0001
0000
1000
0010
0100
0000
0001
0000
1000
0100
,
0010
0000
0001
0000
1000
0010
0100
0000
1001
0000
0000
0000
0110
0000
0000
0000
,
1001
0000
0001
0010
0100
0000
1000
0000
0001
0100
0010
0000
1000
0000
0001
0010
,
0100
0000
1000
0000
0001
0100
0010
0000
1001
0000
0000
0000
0110
0000
0000
0000
,
1001
0000
1000
0001
0100
0000
0010
0000
0100
0001
1000
0000
0100
0000
1000
0001
,
0010
0000
0100
0000
0010
0001
1000
0000
1001
0000
0000
0000
0110
0000
0000
0000
,
1001
0000
1000
0000
0010
0000
0010
0000
0100
0001
1000
0010
0100
0000
0001
0010
,
0100
0000
1000
0001
0000
0100
0000
0010
1000
0100
0010
0001
1000
0100
0000
1000
,
0020
0000
0000
0000
,
0230
0000
0000
0000
,
0302
0000
0000
0000
,
2003
0000
3200
0000
,
0310
0010
0001
0001
1000
1000
0010
0010
,
0100
0001
0100
0001
1000
0100
1000
0100
0010
0001
0010
0001
1000
0010
1000
0010
,
0200
0000
0000
0000
0000
0000
0000
0000
0000
0000
0000
0000
0000
0000
0310
1000
,
0001
0000
0010
0000
0100
0000
1000
0000
0001
0100
0010
1000
0001
0000
0000
0000
,
1001
0000
0001
0010
0100
0000
1000
0000
0010
0000
0100
0000
0001
0000
0011
0000
,
0000
0000
1010
0000
0000
0000
1001
0000
0000
0000
1000
0100
0010
0000
0001
0000
,
0011
0000
1000
0010
0100
0101
0000
1010
,
0000
1000
0100
0001
0000
0100
0110
0000
,
1001
0000
0001
0100
0010
0000
1000
0000
0010
0000
0001
0000
0010
0000
0110
0000
,
0000
0100
0001
0010
0100
1000
0000
0110
,
0000
0001
0020
0000
0000
1030
0010
0001
,
1000
0000
0001
0000
0100
0000
0010
0000
1000
0000
1000
0001
0010
0000
0010
0000
,
1001
0000
0001
0100
0010
0000
1000
0000
0100
0000
0010
0000
0001
0000
0201
0000
,
0000
1300
0000
0100
0010
1000
0001
0010
,
0002
0000
0100
2003
0010
0000
3001
1000
,
0110
0000
0000
1001
0000
0000
0110
0000
0001
0100
0010
1000
0001
0000
0000
0000
,
1000
1100
0000
0101
0000
0110
0000
1001
,
0001
0010
0100
1000
0010
0000
0100
0001
0000
0010
0001
0000
0100
0000
0010
0000
,
1000
0000
1100
0000
0000
0000
0101
0000
0000
0000
0110
0000
0000
0000
0001
0100
,
0010
0000
0000
1000
0000
0000
0100
0000
0010
0000
0001
0100
0010
0000
1000
0000
,
0100
0000
0010
0001
0100
0000
0010
0000
0100
0001
0010
0000
0100
0000
0010
0000
,
0001
0100
1000
0100
0010
1000
0001
0010
,
0100
1000
0001
1000
0010
0000
0100
0001
0000
0001
0000
0000
0010
0000
0100
0000
,
1000
0000
0010
0100
0001
0000
0010
0000
0100
0000
0100
1000
0010
0000
0010
0000
,
0100
0101
0000
1100
0000
0110
0000
1001
,
1000
0100
0010
0001
0100
0000
0010
1000
0000
0001
0010
0000
0100
0000
0010
0000
,
0001
0000
0101
0000
0000
0000
0110
0000
0000
0000
1001
0000
0000
0000
0001
0010
,
0100
0000
0000
1000
0000
0000
0010
0000
0100
0000
0001
0010
0100
0000
1000
0000
,
0010
0000
1000
0100
0010
0000
0100
0000
1000
0010
0100
0000
0010
0000
1000
0000
,
0100
0001
0100
1000
0010
0001
0010
1000
,
0200
0000
0000
0000
0000
0000
0310
0001
1000
0000
0000
0010
0000
0000
0100
0000
,
0110
0000
0000
0010
0000
0000
1000
0000
0001
0000
0010
0100
1000
0000
0001
0000
,
2002
0000
0000
0000
,
0000
0000
0000
0000
0000
0000
0000
3003
;

//--------------- dance-double - forcednature ----------------
#NOTES:
     dance-double:
     forcednature:
     Easy:
     10:
     0,0,0,0,0:
00000000
00000000
00000000
00000000
,
00000000
00000000
00000000
00000000
,
00000000
00000000
00000000
00000000
,
00000000
00000000
00000000
00000000
,
00000000
00000000
00000000
00000000
,
00000000
00000000
00000000
00000000
,
00001000
00000000
00010000
00000000
00100000
00000000
10000000
00010000
,
00000000
10000000
00000000
01000000
00000000
00010000
00000000
00001000
,
00000000
00000010
00000200
00000000
00000000
00000000
00000000
00000000
,
00000000
00000000
00000000
00000300
,
00002002
00000000
00000000
00000000
,
00000000
00000000
00003003
00000101
,
00001010
00022000
00000000
00000000
,
00000000
00033000
00110000
11000000
,
10020000
01000000
10000000
00100000
,
00032000
00000100
00000001
00000010
,
00013000
01000000
00010000
00000000
10000000
00100000
10000000
00000000
,
01000000
00000000
00000000
00010000
00000000
00001000
00000000
00000000
00000100
00000000
00000100
00000000
00000010
00000000
00000000
00000000
,
00000110
00000000
00000001
00000010
00000100
00001000
00000010
00010000
,
00000000
00001000
00000000
00100000
00000000
00010000
10000000
00000000
,
01100000
00000000
10000000
00010000
00100000
01000000
00000000
10000000
,
00000000
00010000
00000000
01000000
00000000
00001000
00010000
00000000
,
00001001
00000000
00000001
00000000
00000100
00000010
00001000
00000001
,
00000000
00000010
00000100
00000000
00001000
00000010
00000000
00010000
,
00000000
00001000
00200000
00000000
00000000
00000000
00000000
00000000
,
01300000
10000000
01000000
10000000
00010000
01000000
00100000
00000000
,
10010000
00000000
10000000
01000000
00100000
00010000
01000000
00001000
,
00000000
00010000
00000000
00000100
00001000
00000001
00000100
00000010
,
00002000
00000000
00000000
00000002
00000000
00000000
00003003
00000000
,
00001001
00000000
00000000
00000001
00000000
00000000
00000001
00000000
00000100
00000000
00001000
00000000
00010000
00000000
00000000
00000000
,
00100000
01000000
00000000
00010000
00000000
00110000
00000000
00202000
,
00000000
00000000
00000000
00303000
,
00001000
00010000
00000000
00000010
00000000
00000101
00000000
00002002
,
00000000
00000000
00000000
00000000
00000000
00000000
00003003
00000001
,
00000100
00000000
00001000
00000100
00000000
00000010
00001000
00000000
,
00000100
00010000
00000100
00000000
00010000
00001000
00010000
00000000
,
00100000
00000000
01000000
00000000
00010000
00000000
00000000
10000000
00000000
10000000
00000000
00000000
01000000
00000000
00000000
00000000
,
00010000
00000000
00001000
00000000
00000010
00000100
00000010
00000001
,
00000100
00000001
00000000
00000010
00000000
00001100
00000000
00002002
,
00000000
00000000
00000000
00003003
,
00000001
00000100
00000000
00001000
00000000
00010010
00000000
00022000
,
00000000
00000000
00000000
00000000
00000000
00000000
00033000
01000000
,
00010000
00000000
00100000
00001000
00000000
00010000
00100000
00000000
,
10000000
01000000
00100000
00000000
00010000
01000000
00001000
00000000
,
00020000
00000000
00000000
00000000
00000000
00000000
00030100
00000000
00001000
00000000
00000000
00000100
00000000
00000000
00000010
00000000
,
00000002
00000000
00000000
00001000
00000000
00000000
00001000
00000000
00002000
00000000
00000000
00000000
00003003
00000000
00000000
00000000
,
00001001
00000001
00000100
00001000
,
00010000
01000000
10000000
00010000
,
10010000
10000000
01000000
00010000
,
00001000
00000100
00000001
00001000
,
00001001
00000001
00000100
00001000
,
00010000
01000000
10000000
00010000
,
10010000
10000000
01000000
00010000
,
00001000
00000100
00000001
00001000
,
00001001
00000001
00000100
00001000
,
00010000
00100000
01100000
01100000
,
10010000
10000000
01000000
00010000
,
00001000
00000010
00000110
00000110
,
00001001
00000001
00000100
00001000
,
00010000
00100000
01100000
01100000
,
10010000
10000000
01000000
00010000
,
00001000
00000000
00000000
00000100
00000000
00000100
00000000
00000000
00000001
00000000
00000010
00000000
00000100
00000000
00000000
00000000
,
00002002
00003000
00000000
00000000
,
00000200
00000003
00000000
00000000
,
00002000
00000300
00000000
00000000
,
00020000
00003000
02000000
00030000
,
00200000
03000000
00000000
00000000
,
00020000
00300000
01000000
01030000
,
20020000
00000000
00000000
00030000
,
02000000
00000000
00000000
33000000
,
10010000
00000000
10000000
01000000
00100000
00010000
01000000
00001000
,
00000000
00010000
00000000
00000100
00000000
00001000
00000001
00000000
,
00001001
00000000
00000001
00000100
00000010
00001000
00000000
00000100
,
00000000
00010000
00000000
00001000
00000000
01000000
00010000
00000000
,
10010000
00000000
10000000
00100000
01000000
00010000
10000000
00010000
,
00000000
00100000
00010000
00000000
01000000
00001000
00000000
00010000
,
00000000
00000000
00000000
00000000
00000000
00000000
00000000
00000000
00000000
00000000
00000000
00000000
00000000
00000000
00000000
00000000
00000000
00000000
00000000
00000000
00000000
00000000
00000000
00000000
00000100
00000000
00000000
00000000
00000000
00000000
00000000
00000000
00000000
00000000
00000000
00000000
00000000
00000000
00000000
00000000
00000000
00000000
00000000
00000000
00000000
00000000
00000000
00000000
00002000
00000000
00000000
00000000
00000000
00000000
00000000
00000000
00000000
00000000
00000000
00000000
00000000
00000000
00000000
00000000
00000000
00000000
00000000
00000000
00000000
00000000
00000000
00000000
00000000
00000000
00000000
00000000
00000000
00000000
00000000
00000000
00000000
00000000
00000000
00000000
00000000
00000000
00000000
00000000
00000000
00000000
00000000
00000000
00000000
00000000
00000000
00000000
00000000
00000000
00000000
00000000
00000000
00000000
00000000
00000000
00000000
00000000
00000000
00000000
00000000
00000000
00000000
00000000
00000000
00000000
00000000
00000000
00000000
00000000
00000000
00000000
00000000
00000000
00000000
00000000
00000000
00000000
00000000
00000000
00000000
00000000
00000000
00000000
00000000
00000000
00000000
00000000
00000000
00000000
00000000
00000000
00000000
00000000
00000000
00000000
00000010
00003000
00000000
00000000
00000000
00000000
00000000
00000000
00000000
00000000
00000000
00000000
00000000
00000000
00000000
00000000
00000000
00000000
00000000
00000000
00000000
00000000
00000000
00000000
00000000
00000000
00000000
00000000
00000000
00000000
00000000
00000000
00000000
00000000
00000000
00000000
00000000
00000000
00000000
00000000
00000000
00000000
00000000
00000000
00000000
00000000
00000000
00000000
,
00000100
00000001
00001000
00000100
00000010
00000001
00000100
00000000
,
00000110
00000000
00000001
00001000
00000100
00000010
00000100
00010000
,
00000000
00001000
00000000
01000000
00010000
10000000
01000000
00000000
,
00200000
00000000
00000000
00002000
00000000
00000000
00303000
00000000
,
00001000
00000000
00000000
00001000
00000000
00000000
00001000
00000000
00010000
00000000
00000010
00000000
00001000
00000000
00000000
00000000
,
00000100
00001000
00000000
00000001
00000000
00000101
00000000
00002020
,
00000000
00000000
00000000
00003030
,
00010000
00001000
00000000
00100000
00000000
00110000
00000000
22000000
,
00000000
00000000
00000000
00000000
00000000
00000000
33000000
10000000
,
00010000
00000000
01000000
10000000
00000000
01000000
00010000
00000000
,
00100000
01000000
10000000
00000000
00010000
01000000
00001000
00000000
,
00010000
00000000
00000100
00000000
00001000
00000000
00000000
00000010
00000000
00000010
00000000
00000000
00000100
00000000
00000000
00000000
,
00000001
00000010
00000100
00000000
00001000
00000010
00000100
00000001
,
00000100
00001000
00000000
00010000
00000000
01100000
00000000
20020000
,
00000000
00000000
00000000
30030000
,
10000000
00010000
00000000
01000000
00000000
00101000
00000000
00022000
,
00000000
00000000
00000000
00000000
00000000
00000000
00033000
00010000
,
00000100
00000000
00000010
00000100
00000000
00001000
00000001
00000000
,
00000100
00000010
00001000
00000000
00000100
00010000
00001000
00000000
,
02000000
00000000
00000000
00000000
00000000
00000000
00000000
00000000
03010000
00000000
00000000
00100000
00000000
00000000
01000000
00000000
,
10000000
00000000
00000000
00010000
00000000
00000000
01000000
00000000
00001000
00000000
00010000
00000000
00000100
00000000
00000000
00000000
,
00002002
00000000
00000000
00000000
,
00000000
00000000
00000000
00000000
00000000
00000000
00000000
00003003
;

//--------------- dance-double - forcednature ----------------
#NOTES:
     dance-double:
     forcednature:
     Medium:
     13:
     0,0,0,0,0:
00000000
00000000
00000000
00000000
,
00000000
00000000
00000000
00000000
,
00000000
00000000
00000000
00000000
,
00000000
00000000
00000000
00000000
,
00000000
00000000
00000000
00000000
,
00000000
00000000
00000000
00000000
,
00001000
00000000
00010000
00000000
00100000
10000000
00010000
00100000
,
00000000
01000000
00000000
00010000
00000000
00001000
00000000
00000100
,
00000000
00000001
00002000
00000000
00000000
00000000
00000000
00000000
,
00000000
00000000
00000000
00003000
,
00020020
00000000
00000000
00000000
,
00000000
00000000
00030030
00011000
,
00101000
20020000
00000000
00000000
,
00000000
30030000
11000000
01010000
,
00012000
00000000
00000100
00000000
00010000
00000000
00103000
00001000
,
00020000
00000000
01000000
00000000
00001000
00000000
00030010
00010000
,
00001000
00001000
01000000
01000000
00010000
10000000
01000000
00100000
,
00001000
00000000
00010000
00001000
00000000
00010000
00000000
00000100
00001000
00000000
00001000
00000000
00000001
00000100
00000000
00000001
,
00000100
00001000
00010000
00000100
00001000
00000010
00010000
00001000
,
00000000
00101000
00000000
11000000
00000000
00100000
01000000
00000000
,
10010000
00000000
10000000
01000000
00010000
00001000
00000000
00000010
,
00000000
00001100
00000000
00000101
00000000
00000010
00000100
00000000
,
00001001
00000000
00000001
00000100
00001000
00010000
01000000
00100000
,
00000000
00001000
00010000
00100000
10000000
00010000
00000000
01100000
,
00000000
10000000
00020000
00000000
00000000
00130000
01000000
00010000
,
00001000
00000010
00000100
00001000
00000001
00000001
00000100
00000100
,
00001000
00010000
00000010
00001000
00000100
00010000
00001000
02000000
,
00000000
03100000
00000000
10000000
01000000
00010000
00001000
01000000
,
00020000
00000000
00000000
00200000
00000000
00000000
00330000
00000000
,
00011000
00000000
00000000
00011000
00000000
00000000
00010000
00000000
00001000
00000000
00000100
00000000
00000010
00000000
00000000
00000000
,
00001000
00000001
00000000
00000011
00000000
00000110
00000000
00002200
,
00000000
00000000
00000000
00003300
,
00010000
00001000
00000000
01001000
00000000
10010000
00000000
00202000
,
00000000
00000000
00000000
00000000
00000000
00000000
00303000
00001000
,
01000000
00000000
00001000
00010000
00001000
00000000
00100000
00000000
00001000
00010000
00001000
00000000
01000000
00000000
00001000
00000000
,
00100000
01000000
00010000
01000000
10000000
00010000
01000000
00001000
,
00010000
00000100
00010000
00000100
00001000
00000000
00000000
00000010
00000000
00000010
00000000
00000000
00000100
00000000
00001000
00000000
,
00000100
00000000
00000001
00001000
00000001
00000000
00000010
00000000
00000100
00000000
00000100
00000000
00010000
00000000
00010000
00000000
,
00001000
01000000
00000000
10100000
00000000
00110000
00000000
00022000
,
00000000
00000000
00000000
00033000
,
00000010
00000100
00000000
00001001
00000000
00000110
00000000
00022000
,
00000000
00000000
00000000
00000000
00000000
00000000
00033000
00010000
,
00000010
00000000
00010000
00001000
00010000
00000000
00000100
00000000
00010000
00001000
00010000
00000000
00000010
00000000
00010000
00000000
,
00001000
00000010
00000100
00001000
00000010
00000100
00001000
00010000
,
00200000
00000000
00000000
00000000
00000000
00000000
01300000
00010000
01000000
00000000
00000000
00100000
00000000
00000000
10000000
00000000
,
02000000
00000000
00000000
00100000
00000000
00000000
00100000
00000000
00200000
00000000
00000000
00000000
03300000
00000000
00000000
00000000
,
10000000
01000000
00100000
00010000
00001000
00000100
00000010
00000001
,
00000100
00001000
00010000
00001000
00000010
00000100
00001000
00000000
,
00000001
00000100
00000010
00001000
00010000
01000000
00100000
10000000
,
01000000
00010000
00001000
00010000
00100000
01000000
00010000
00000000
,
10000000
00100000
01000000
00010000
00001000
00000010
00000100
00000001
,
00000010
00001000
00010000
00001000
00000100
00000010
00001000
00000000
,
00000001
00000010
00000100
00001000
00010000
00100000
01000000
10000000
,
00100000
00010000
00001000
00010000
01000000
00100000
00010000
00000000
,
10000000
01000000
00010000
00001000
00000100
00000001
00000010
00001000
,
00010000
00100000
10000000
01000000
00010000
00000000
00011000
00000000
,
00000001
00000100
00001000
00010000
01000000
10000000
00100000
00010000
,
00001000
00000010
00000001
00000100
00001000
00000000
00011000
00000000
,
10000000
01000000
00010000
00001000
00000100
00000001
00000010
00001000
,
00010000
00100000
10000000
01000000
00010000
00000000
00011000
00000000
,
01000000
01000000
00001000
00001000
00010000
00000100
00000010
00000100
,
00001000
00000000
00000001
00000100
00000000
00000010
00000000
00001000
00000100
00000000
00000100
00000000
00010000
00001000
00000000
00010000
,
00002000
00000000
00000000
00000000
,
02000000
00000000
00003000
00000000
,
00020000
00000000
03000000
00000000
,
20000000
00030000
02000000
30000000
,
00020000
00000000
03000000
00000000
,
00002000
00000000
00030000
00000000
,
00000200
00000000
00003000
00000000
,
00000002
00000000
00000000
00000303
,
00000001
00001000
00000001
00000010
00000100
00010000
00001000
00000100
,
00000000
00000110
00000000
00011000
00000000
01000000
00010000
01000000
,
00100000
00000000
10000000
01000000
00010000
00001000
00000000
00110000
,
00000000
01001000
00000000
00010100
00000000
00001000
00000001
00000000
,
00000110
00000000
00001000
00000100
00000010
00000100
00010000
00011000
,
00000000
00001000
01000000
00000000
00100000
10000000
00000000
01100000
,
00000000
10000000
00020000
00000000
00000000
00130000
01000000
00010000
,
00001000
00000000
01000000
00000000
00010000
00000000
00100000
00000000
00001000
00000000
00010000
00000010
00010000
00000000
00001000
00000000
,
00000010
00000100
00001000
00000001
00000100
00001000
00010000
00200000
,
00000000
10300000
00000000
00100000
01000000
10000000
01000000
00010000
,
00200000
00000000
00000000
00002000
00000000
00000000
00303000
00000000
,
00011000
00000000
00000000
00011000
00000000
00000000
00010000
00000000
00001000
00000000
00000010
00000000
00000001
00000000
00000000
00000000
,
00000100
00000001
00000000
00000110
00000000
00011000
00000000
02200000
,
00000000
00000000
00000000
03300000
,
10000000
00010000
00000000
00110000
00000000
00011000
00000000
00002020
,
00000000
00000000
00000000
00000000
00000000
00000000
00003030
00010000
,
00000010
00000000
00010000
00001000
00010000
00000000
01000000
00000000
00010000
00001000
00010000
00000000
00000010
00000000
00010000
00000000
,
00001000
00100000
01000000
00010000
01000000
10000000
00010000
01000000
,
00001000
00010000
00001000
00010000
00000010
00000000
00000000
00000100
00000000
00000100
00000000
00000000
00001000
00000000
00010000
00000000
,
01000000
00000000
00100000
00010000
00100000
00000000
00001000
00000000
00010000
00000000
00010000
00000000
00100000
00000000
00100000
00000000
,
10000000
00010000
00000000
01100000
00000000
00011000
00000000
00000220
,
00000000
00000000
00000000
00000330
,
00000001
00001000
00000000
00001100
00000000
00011000
00000000
02002000
,
00000000
00000000
00000000
00000000
00000000
00000000
03003000
00001000
,
00100000
00000000
00001000
00010000
00001000
00000000
00000100
00000000
00001000
00010000
00001000
00000000
00100000
00000000
00001000
00000000
,
00010000
01000000
00100000
00001000
00010000
00000010
00000100
00001000
,
00020000
00000000
00000000
00000000
00000000
00000000
00030100
00001000
00000100
00000000
00000000
00000010
00000000
00000000
00000001
00000000
,
00000100
00000000
00000000
00001000
00000000
00000000
00010000
00000000
01000000
00000000
00100000
00010000
00100000
00000000
00001000
00000000
,
00020000
00000000
00000000
00000000
,
00000000
00000000
00000000
00000000
00000000
00000000
00000000
00030000
;

//--------------- dance-double - forcednature ----------------
#NOTES:
     dance-double:
     forcednature:
     Hard:
     15:
     0,0,0,0,0:
00000000
00000000
00000000
00000000
,
00000000
00000000
00000000
00000000
,
00000000
00000000
00000000
00000000
,
00000000
00000000
00000000
00000000
,
00000000
00000000
00000000
00000000
,
00000000
00000000
00000000
00000000
,
00010000
00000000
00001000
00000000
00010000
01000000
10000000
00010000
,
00000000
01000000
00000000
00001000
00000000
00010000
00000000
00000100
,
00000000
00000010
00000020
00000000
00000000
00000000
00000000
00000000
,
00000000
00000000
00000000
00000030
,
00002002
00000000
00000000
00000000
,
00000000
00000000
00003003
00001100
,
00011000
02020000
00000000
00000000
,
00000000
03030000
10010000
01100000
,
10020000
00000000
01000000
00000000
10000000
00000000
00130000
00010000
,
00002000
00000000
00000100
00000000
00000001
00000000
00003010
00001000
,
00010000
00000000
01000000
00000000
00100000
00000000
10000000
00000000
01000000
00100000
01000000
00100000
00010000
10000000
00010000
10000000
,
00100000
00000000
01000000
00010000
00000000
01000000
00000000
00001000
00010000
00000100
00001000
00000100
00000010
00000001
00000000
00000001
,
00000100
00000000
00000010
00001000
00000010
00000000
00000100
00000000
00001000
00000000
00010000
00000000
01000000
00000000
01100000
00000000
,
00000000
00000000
10010000
00000000
00000000
00000000
11000000
00000000
00000000
00000000
00010000
00100000
01000000
00000000
10000000
00000000
,
10100000
00000000
10000000
01000000
00010000
00011000
00000000
00010100
,
00000000
00000010
00001000
00000100
00000000
00000010
00000100
00000000
,
00001001
00000000
00000001
00000100
00000010
00000000
00001000
00000000
00000100
00000000
00000010
00000000
00000100
00000000
00001100
00000000
,
00000000
00010000
00001000
00100000
00001000
00010000
00000000
01100000
,
00000000
00010000
20000000
00000000
00000000
01000000
31000000
10000000
,
00100000
00000000
00010000
00000000
00100000
00000000
01000000
00000000
00001000
00000000
00010000
00000100
00001000
00000000
00000010
00000000
,
00000110
00000000
00000100
00000001
00000100
00000000
00001000
00000000
00010000
00000000
00000100
00000000
00001000
00000000
00001020
00000000
,
00000000
00000031
00000000
00000010
00010000
00001000
00100000
01000000
,
00020000
00000000
00000010
00032000
00000010
00000000
00013000
00001000
,
00000100
00000000
00000000
00000110
00000000
00000000
00001001
00000000
00000001
00000100
00000010
00001000
00000001
00000000
00000000
00000000
,
00000010
00000110
00000000
00001100
00000000
00011000
00000000
02000000
,
00010000
00000000
00000000
00000000
00100000
00000000
00000000
10000000
00000000
10000000
00000000
00000000
03100000
00000000
00000000
00000000
,
01000000
01001000
00000000
00011000
00000000
00010100
00000000
00000020
,
00001000
00000000
00000000
00000100
00000000
00000000
00000001
00000000
00000130
00000000
00000010
00001000
00000010
00000000
00010000
00000000
,
00001000
00000000
00100000
00010000
00100000
00000000
01000000
00000000
00100000
00010000
00100000
00000000
00001000
00000000
00010000
00000000
,
00100000
01000000
10000000
01000000
00010000
00100000
01000000
00010000
,
00001000
00100000
00001000
00100000
00001000
00000000
00010000
00000010
00000000
00000010
00000000
00000000
00000100
00000000
00001000
00000000
,
00000100
00000000
00000001
00001000
00000100
00000000
00000010
00000000
00001000
00000000
00001000
00010000
00100000
00000000
00100000
00000000
,
01000000
01010000
00000000
00101000
00000000
00010010
00000000
00020000
,
00100000
00000000
00100000
00000000
00001000
00000000
00000000
00000100
00000000
00000100
00000000
00000000
00031000
00000000
00010000
00000000
,
01000000
01100000
00000000
00101000
00000000
01001000
00000000
00002000
,
00000010
00000000
00000000
00010000
00000000
00000000
00010000
00000000
01003000
00000000
00001000
00010000
00001000
00000000
00000010
00000000
,
00000100
00000000
00001000
00000001
00001000
00000000
00000010
00000000
00001000
00000001
00001000
00000000
00000100
00000000
00000010
00000000
,
00000100
00010000
00001000
01000000
00100000
00010000
00100000
10000000
,
02000000
00000000
00000000
00000000
00000000
00000000
03100000
00010000
00100000
00000000
00000000
00001000
00000000
00000000
00010000
00000000
,
00000020
00000000
00000000
00010000
00000000
00000000
00001000
00000000
00000130
00000000
00000010
00001000
00000001
00000000
00000010
00000000
,
00000100
00000000
00000000
00010000
00001000
00000000
00100000
00000000
00000000
00001000
00010000
00000000
00000100
00000000
00000000
00010000
,
00001000
00000000
00100000
00000000
00000000
00001000
00010000
00000000
00000010
00000000
00001000
00000000
00000100
00000000
00010000
00000000
,
00000010
00000000
00000000
00010000
00001000
00000000
01000000
00000000
00000000
00001000
00010000
00000000
00000010
00000000
00000000
00010000
,
00001000
00000000
01000000
00000000
00000000
00001000
00010000
00000000
00100000
00000000
10000000
00000000
00010000
00000000
00100000
00000000
,
01000000
00000000
00000000
00010000
00001000
00000000
00000100
00000000
00000000
00001000
00010000
00000000
01000000
00000000
00000000
00010000
,
00001000
00000000
00000100
00000000
00000000
00001000
00010000
00000000
00100000
00000000
01000000
00000000
00001000
00000000
00010000
00000000
,
00100000
00000000
00000000
00010000
00001000
00000000
00000010
00000000
00000000
00001000
00010000
00000000
00100000
00000000
00000000
00010000
,
00001000
00000000
00000010
00000000
00000000
00001000
00010000
00000000
00000100
00000000
00001000
00000000
00000010
00000000
00001000
00000000
,
00001001
00000000
00000001
00000100
00000010
00000000
00001000
00000000
00000100
00010000
00001000
00000000
00100000
00000000
00010000
01000000
,
00100000
00000000
10000000
00000000
01000000
00100000
00010000
00000000
10010000
00000000
00000000
00000000
01100000
00000000
00000000
00000000
,
10010000
00000000
10000000
01000000
00100000
00000000
00010000
00000000
01000000
00001000
00010000
00000000
00000010
00000000
00001000
00000100
,
00000010
00000000
00000001
00000000
00000100
00000010
00001000
00000000
00001001
00000000
00000000
00000000
00000110
00000000
00000000
00000000
,
00001001
00000000
00000001
00000010
00000100
00000000
00001000
00000000
00000010
00010000
00001000
00000000
01000000
00000000
00010000
00100000
,
01000000
00000000
10000000
00000000
00100000
01000000
00010000
00000000
10010000
00000000
00000000
00000000
01100000
00000000
00000000
00000000
,
10010000
00000000
10000000
00000000
01000000
00000000
01000000
00000000
00010000
00001000
00010000
00001000
00010000
00000000
00000100
00001000
,
00000001
00000000
00000100
00001000
00000000
00010000
00000000
00001000
00010000
00001000
00100000
00010000
00100000
01000000
00000000
01000000
,
20000000
00000000
00000000
00000000
,
30020000
00000000
00000000
00000000
,
00032000
00000000
00000000
00000000
,
00003002
00000000
00000203
00000000
,
00000310
00000010
00001000
00001000
00010000
00010000
00100000
00100000
,
01000000
10000000
01000000
10000000
00010000
01000000
00010000
01000000
00001000
00010000
00001000
00010000
00000100
00001000
00000100
00001000
,
00000002
00000000
00000000
00000000
00000000
00000000
00000000
00000000
00000000
00000000
00000000
00000000
00000000
00000000
00000013
00000100
,
00001000
00000000
00000010
00000000
00000100
00000000
00001000
00000000
00000100
00000001
00001000
00000001
00000010
00000000
00000000
00000000
,
00011000
00000000
00001000
01000000
00001000
00000000
00010000
00000000
01000000
00000000
00100000
00000000
00010000
00000000
10010000
00000000
,
00000000
00000000
01100000
00000000
00000000
00000000
10010000
00000000
00000000
00000000
10000000
01000000
00100000
00000000
00001000
00000000
,
00011000
00000000
00000100
00001000
00000010
00001010
00000000
00000011
,
00000000
00000001
00000100
00001000
00000000
00010000
00100000
00000000
,
01010000
00000000
00010000
10000000
00100000
00000000
01000000
00000000
10000000
00000000
01000000
00000000
00010000
00000000
00110000
00000000
,
00000000
01000000
00001000
00010000
00000100
00000010
00000000
00001001
,
00000000
00000001
00000200
00000000
00000000
00001300
00010000
01000000
,
00100000
00000000
00001000
00000000
00010000
00000000
00100000
00000000
10000000
00000000
10000000
01000000
00100000
00000000
00100000
00000000
,
10010000
00000000
00010000
01000000
00100000
00000000
10000000
00000000
01000000
00000000
00010000
00000000
00001000
00000000
00012000
00000000
,
00000000
00003100
00000000
00001000
00010000
01000000
00100000
00001000
,
00020000
00000000
00130000
00002000
00100000
00000000
00013000
00001000
,
00000010
00000000
00000000
00001001
00000000
00000000
00000110
00000000
00000001
00000010
00000100
00001000
00000010
00000000
00000000
00000000
,
00010000
00011000
00000000
00101000
00000000
01010000
00000000
10000000
,
01000000
00100000
00010000
10000000
00010000
00000000
01000000
00001000
00000000
00010000
00000100
00000000
00000010
00000000
00000001
00000000
,
00001000
00000000
00001010
00000000
00000000
00000000
00000101
00000000
00000000
00000000
00000011
00000000
00000000
00000000
00000001
00000100
,
00000010
00000000
00000000
00001000
00000000
00000000
00000100
00000000
00010000
00000000
00001000
01000000
00010000
00000000
10000000
00000000
,
01000000
00000000
00010000
00001000
00010000
00000000
00100000
00000000
00010000
00001000
00010000
00000000
01000000
00000000
00010000
00000000
,
00001000
00000010
00000100
00001000
00000010
00000100
00001000
00010000
,
00100000
10000000
00010000
10000000
01000000
00000000
00010000
00001000
00000000
00001000
00000000
00000000
00000010
00000000
00000100
00000000
,
00001000
00000000
00000001
00000100
00000010
00000000
00001000
00000000
00000100
00000000
00000100
00010000
00001000
00000000
00001000
00000000
,
01000000
01010000
00000000
10100000
00000000
11000000
00000000
00010000
,
10000000
01000000
00100000
00010000
01000000
00000000
00001000
00010000
00000000
00000100
00001000
00000000
00000010
00000000
00001000
00000000
,
00000100
00000000
00000110
00000000
00000000
00000000
00001001
00000000
00000000
00000000
00000011
00000000
00000000
00000000
00000010
00000100
,
00001000
00000000
00000000
00000010
00000000
00000000
00010000
00000000
00001000
00000000
00100000
00010000
00100000
00000000
00001000
00000000
,
00000100
00000000
00001000
00010000
00001000
00000000
00000010
00000000
00001000
00010000
00001000
00000000
00000100
00000000
00000001
00000000
,
00000010
00000100
00001000
00000100
00010000
01000000
00100000
00010000
,
20000000
00000000
00000000
00000000
00000000
00000000
30100000
10000000
01000000
00000000
00000000
00100000
00000000
00000000
00001000
00000000
,
00011000
00000000
00000000
00010000
00000000
00000000
00000010
00000000
00000100
00000000
00000001
00000010
00000100
00000000
00001000
00000000
,
00000020
00000000
00000000
00000000
,
00000000
00000000
00000000
00000000
00000000
00000000
00000000
00000030
;
