#VERSION:0.83;
#TITLE:Titan;
#SUBTITLE:;
#ARTIST:Mr. Bill & eliderp;
#TITLETRANSLIT:;
#SUBTITLETRANSLIT:;
#ARTISTTRANSLIT:;
#GENRE:;
#ORIGIN:;
#TAGS:;
#CREDIT:;
#BANNER:Titan.png;
#BACKGROUND:Titan-bg.png;
#PREVIEWVID:;
#JACKET:Titan-jacket.png;
#CDIMAGE:;
#DISCIMAGE:;
#LYRICSPATH:;
#CDTITLE:;
#MUSIC:Titan.ogg;
#OFFSET:0.000000;
#SAMPLESTART:31.988575;
#SAMPLELENGTH:15.000000;
#SELECTABLE:YES;
#BPMS:0.000000=150.000000;
#STOPS:;
#DELAYS:;
#WARPS:;
#TIMESIGNATURES:0.000000=4=4;
#TICKCOUNTS:0.000000=4;
#COMBOS:0.000000=1;
#SPEEDS:0.000000=1.000000=0.000000=0;
#SCROLLS:0.000000=1.000000;
#FAKES:;
#LABELS:0.000000=Song Start;
#LASTSECONDHINT:132.468567;
#BGCHANGES:;
#KEYSOUNDS:;
#ATTACKS:
;

//---------------dance-single - ----------------
#NOTEDATA:;
#CHARTNAME:;
#STEPSTYPE:dance-single;
#BANNER:;
#DESCRIPTION:;
#CHARTSTYLE:;
#DIFFICULTY:Beginner;
#METER:3;
#METERF:0.000000;
#RADARVALUES:0.164083,0.369347,0.150141,0.142634,0.000000,153.000000,133.000000,20.000000,19.000000,0.000000,0.000000,0.000000,0.000000,0.000000,0.164083,0.369347,0.150141,0.142634,0.000000,153.000000,133.000000,20.000000,19.000000,0.000000,0.000000,0.000000,0.000000,0.000000;
#CREDIT:DJEmbrace;
#NOTES:
// measure 0
0000
0000
0000
0000
,  // measure 1
0000
0000
0000
0000
,  // measure 2
0000
0000
0000
0000
,  // measure 3
0000
0000
0000
0000
,  // measure 4
0010
0000
0000
0000
,  // measure 5
0100
0000
0000
0000
,  // measure 6
0020
0000
0030
0000
,  // measure 7
0100
0000
0100
0000
,  // measure 8
1001
0000
1000
0000
,  // measure 9
0001
0000
1000
0000
,  // measure 10
0002
0000
0003
0000
,  // measure 11
1000
0000
2000
3000
,  // measure 12
1000
0000
0010
0000
,  // measure 13
0100
0000
0010
0000
,  // measure 14
0200
0000
0300
0000
,  // measure 15
0010
0000
0010
0010
,  // measure 16
0010
0010
0000
0100
,  // measure 17
0000
0010
0000
0100
,  // measure 18
0100
0000
0001
0000
,  // measure 19
1000
0000
0200
0000
,  // measure 20
0300
0100
0000
0010
,  // measure 21
0000
0001
0000
1000
,  // measure 22
1000
0000
0001
0000
,  // measure 23
1000
0000
0010
0000
,  // measure 24
0110
0000
0000
0000
,  // measure 25
0020
0000
0030
0000
,  // measure 26
0110
0000
0001
0000
,  // measure 27
0001
0000
2000
0000
,  // measure 28
3000
1000
1000
0000
,  // measure 29
1000
0000
0001
0000
,  // measure 30
0002
0000
0003
0000
,  // measure 31
0020
0000
0030
0000
,  // measure 32
0110
0000
1000
0000
,  // measure 33
1000
0000
1000
0000
,  // measure 34
1001
0000
0010
0000
,  // measure 35
0100
0000
0010
0010
,  // measure 36
0000
0010
0010
0000
,  // measure 37
0010
0000
0100
0100
,  // measure 38
0100
0000
1000
0000
,  // measure 39
0002
0000
0003
0000
,  // measure 40
2002
0000
0000
0000
,  // measure 41
0000
0000
0000
0000
,  // measure 42
0000
0000
0000
0000
,  // measure 43
0000
0000
0000
0000
,  // measure 44
3003
0000
0000
0000
,  // measure 45
0000
0000
0000
0000
,  // measure 46
0000
0000
0000
0000
,  // measure 47
0000
0000
0000
0000
,  // measure 48
0010
0000
0010
0000
,  // measure 49
0100
0000
0100
0000
,  // measure 50
0010
0000
0010
0000
,  // measure 51
0100
0000
0100
0000
,  // measure 52
1000
1000
1000
0000
,  // measure 53
0001
0001
0001
0000
,  // measure 54
0010
0000
0010
0000
,  // measure 55
0100
0100
0200
0300
,  // measure 56
0100
0000
0000
0000
,  // measure 57
0000
0000
0000
0000
,  // measure 58
0220
0330
0000
1001
,  // measure 59
0000
0110
0000
0001
,  // measure 60
0001
0000
1000
0000
,  // measure 61
0010
0000
0100
0000
,  // measure 62
1001
1001
0000
0110
,  // measure 63
0000
0000
0110
0110
,  // measure 64
0110
0000
1000
0000
,  // measure 65
0100
0000
0010
0000
,  // measure 66
0001
0001
0000
0110
,  // measure 67
0110
0000
1001
0000
,  // measure 68
1000
0000
0010
0000
,  // measure 69
0100
0000
0001
0000
,  // measure 70
2002
3003
0000
0010
,  // measure 71
0000
0010
0010
0000
,  // measure 72
0100
0000
1000
0000
,  // measure 73
0001
0000
0100
0000
,  // measure 74
0010
0000
0000
0000
,  // measure 75
0100
0000
0000
0001
,  // measure 76
0000
1000
0000
0100
,  // measure 77
0000
0010
0000
0001
,  // measure 78
0001
0000
1000
0000
,  // measure 79
0010
0000
0100
0000
,  // measure 80
0220
0000
0000
0000
,  // measure 81
0000
0000
0000
0000
,  // measure 82
0330
0000
0000
0000
;

//---------------dance-single - ----------------
#NOTEDATA:;
#CHARTNAME:;
#STEPSTYPE:dance-single;
#BANNER:;
#DESCRIPTION:;
#CHARTSTYLE:;
#DIFFICULTY:Easy;
#METER:6;
#METERF:0.000000;
#RADARVALUES:0.283123,0.338568,0.060056,0.352832,0.041289,264.000000,256.000000,8.000000,47.000000,0.000000,0.000000,0.000000,0.000000,0.000000,0.283123,0.338568,0.060056,0.352832,0.041289,264.000000,256.000000,8.000000,47.000000,0.000000,0.000000,0.000000,0.000000,0.000000;
#CREDIT:DJEmbrace;
#NOTES:
0000
0000
0000
0000
,
0000
0000
0000
0000
,
0000
0000
0000
0000
,
0000
0000
0000
0000
,
0001
0001
0100
0100
,
0010
0010
0100
0100
,
0002
0023
0230
2300
,
3001
0001
0001
0000
0001
0000
0000
0001
,
2000
0010
0001
3010
,
0200
0001
0010
0301
,
2000
3010
0200
0001
,
0302
0023
0200
0330
,
0020
0001
0100
0031
,
2000
0100
0001
3100
,
0020
0031
0200
0010
,
0310
1000
0002
0003
,
0100
0010
2000
0001
,
3100
0010
0002
0100
,
1003
1000
0001
0001
,
0001
0000
0100
0000
0020
0000
0000
0100
,
0130
0002
0010
1003
,
0100
2000
0010
3001
,
0100
0001
1000
0100
,
1000
0001
0001
0000
0020
0000
0000
0031
,
1000
0000
0000
0000
,
0002
0000
0000
0000
,
0013
0100
1000
0100
,
1000
0100
0022
0033
,
0001
1000
0000
0000
0010
0000
0000
0100
,
0000
0000
0001
0000
0010
0100
0010
0000
,
1002
1000
1000
2003
,
3200
0320
0031
0000
,
1000
0010
1000
0000
0001
0000
0100
0000
,
1000
0100
0001
0010
,
0210
1000
1000
0320
,
0001
0000
0031
0000
1000
0001
1000
0000
,
0000
0001
0000
0000
0100
0000
0000
0010
,
0000
0000
1000
0000
0001
1000
0001
0000
,
2001
0001
0001
3001
,
0100
0010
2000
0000
,
3002
0000
0000
0000
,
0000
0000
0000
0000
,
0203
0000
0000
0000
,
0000
0000
0000
0000
,
0320
0000
0000
0000
,
0000
0000
0000
0000
,
2030
0000
0000
0000
,
0000
0000
0000
3000
,
1001
0001
0010
0100
,
1000
0100
0001
0100
,
1000
0010
0100
0001
,
1000
0010
0001
0010
,
1000
1000
0001
0001
,
0010
0010
0100
0100
,
2000
3001
0002
1003
,
0010
1000
0010
0000
0202
0000
0303
0000
,
1001
0000
0000
0000
,
0000
0000
0000
0000
,
2000
0000
0000
0000
3100
0000
0000
0000
0000
0010
0000
0000
0010
0000
0000
0000
,
0000
0010
0000
0000
0010
0000
0000
0000
0000
0010
0000
0000
0000
0000
0000
0000
,
0001
0100
0001
0010
,
0100
1000
0010
1000
,
0020
0000
0000
0000
0130
0000
0000
0000
0000
0001
0000
0000
0001
0000
0000
0000
,
0000
0001
0000
0000
0001
0000
0000
0000
0000
0001
0000
0000
0000
0000
0000
0000
,
1000
0010
0001
0010
,
1000
0001
0100
0010
,
2000
0000
0000
0000
3001
0000
0000
0000
0000
0100
0000
0000
0100
0000
0000
0000
,
0100
0000
0000
0100
0000
0000
0100
0000
0000
0100
0000
0000
0000
0000
0000
0000
,
0001
0010
1000
0010
,
0001
1000
0100
0001
,
0200
0000
0000
0000
1300
0000
0000
0000
0000
1000
0000
0000
1000
0000
0000
0000
,
0000
1000
0000
0000
1000
0000
0000
0000
0001
0000
0000
0000
0000
0000
0000
0000
,
1000
0001
1000
0010
,
0001
0010
1000
0001
,
0010
0000
0010
0000
,
0100
0000
0100
0010
,
0100
1000
0001
1000
,
0100
0001
0100
1000
,
0001
0100
0010
1000
,
0001
0010
0001
0100
,
2002
0000
0000
0000
,
0000
0000
0000
0000
,
3003
0000
0000
0000
;

//---------------dance-single - ----------------
#NOTEDATA:;
#CHARTNAME:;
#STEPSTYPE:dance-single;
#BANNER:;
#DESCRIPTION:;
#CHARTSTYLE:;
#DIFFICULTY:Medium;
#METER:12;
#METERF:0.000000;
#RADARVALUES:0.521204,0.584800,0.240226,0.292775,0.210198,486.000000,454.000000,32.000000,39.000000,0.000000,0.000000,0.000000,0.000000,0.000000,0.521204,0.584800,0.240226,0.292775,0.210198,486.000000,454.000000,32.000000,39.000000,0.000000,0.000000,0.000000,0.000000,0.000000;
#CREDIT:DJEmbrace;
#NOTES:
0000
0000
0000
0000
,
0000
0000
0000
0000
,
0000
0000
0000
0000
,
0000
0000
0000
0000
,
1000
0010
1000
0010
0100
0001
0100
0001
,
0010
0100
0010
0100
1000
0001
1000
0010
,
0100
0000
0100
0000
0001
0000
0001
0000
1000
0000
1000
0000
0200
0000
0000
0310
,
0001
0000
1000
0000
0001
0100
0000
0100
0010
0000
0000
0000
0000
0000
0100
0010
,
0100
0001
0010
0001
0100
0001
0010
0100
,
0100
1000
0010
1000
0100
1000
0010
0100
,
0001
0010
0010
0000
0100
1000
1000
0000
,
0001
0100
0010
1000
0210
0000
0301
0000
,
0001
0100
1000
0100
0001
0100
1000
0100
,
0010
1000
0100
1000
0010
1000
0100
0010
,
0100
1000
1000
0000
0010
0100
0100
0000
,
0100
0000
0001
0000
1000
0000
0010
0000
1000
0001
0000
0001
0010
0000
0001
0000
,
1000
0020
0001
0000
1030
0010
0100
0001
,
1000
0200
0001
0000
1300
0100
0010
0001
,
0100
0010
0010
0000
1000
0001
0001
0000
,
1000
0010
0010
0100
0002
1000
2003
0100
,
3100
0010
0110
0000
0001
0100
1000
0100
,
0010
1000
1010
0000
0001
0010
1000
0010
,
0100
1000
1000
0000
0001
0100
0100
0010
,
0100
0000
0001
0000
0010
0000
0100
0000
0120
0000
0000
0000
0000
0000
0130
1000
,
0001
0000
0000
0000
,
2000
0000
0000
0000
,
3100
0010
0001
0001
0100
0010
1000
1000
,
0001
0001
0100
0001
0020
0000
0130
0000
,
1000
0100
0001
0100
0010
0001
1000
0010
,
0001
0010
0100
0001
1000
0100
0010
0001
,
0021
0130
1002
0100
,
0103
0011
1001
0000
,
1000
0100
0100
1000
0010
0100
0001
0010
,
0100
1000
0100
0010
0100
1000
0010
0100
,
0210
1000
0010
0001
,
0301
0000
0210
0000
1300
0100
0001
1000
,
0001
0010
1000
0010
0100
1000
0001
0100
,
1000
0100
0010
1000
0001
0010
0100
1100
,
2100
0001
0010
0001
,
0001
0000
3001
0100
0020
0000
0000
0000
,
2030
0000
0000
0000
0000
0000
0000
3200
,
0000
0000
0000
0320
0000
0000
0000
0032
,
0000
0000
0000
0000
,
0000
0000
0000
0000
,
0203
0000
0000
0320
0000
0000
0000
2030
,
0000
0000
0000
3002
0000
0000
0000
0023
,
0000
0000
0000
0000
,
0000
0000
0000
0030
,
1001
0000
1000
0001
0000
0000
1000
0100
0000
0000
1000
0001
0000
0000
1000
0010
,
0000
0000
0100
0010
0000
0000
0100
0001
0000
0000
1000
0100
0000
0000
1000
0001
,
0000
0000
0010
0100
0000
0000
0010
0001
0000
0000
0010
0100
0000
0000
1000
0100
,
0000
0000
1000
0001
0000
0000
1000
0010
0000
0000
0100
0001
0000
0000
0100
0010
,
1000
1000
1000
1000
,
0001
0001
0001
0001
,
1000
0100
1000
0010
0100
0001
0010
0001
,
1000
0000
1000
0000
1000
0100
0000
0010
0002
0000
0000
0000
0000
0000
1003
0001
,
0100
0000
0000
0000
,
0000
0000
0000
0000
,
1002
0000
0000
0000
1003
0000
0000
0000
0100
1000
0000
0000
1001
0000
0000
0000
,
0010
1000
0000
0000
1001
0000
0000
0000
0100
1000
0000
0000
0010
0000
0010
0000
,
0100
0001
1000
0100
0001
0100
1000
1000
,
0010
0100
0001
0100
1000
0100
0001
1000
,
1200
0000
0000
0000
0310
0000
0000
0000
1000
0001
0000
0000
0101
0000
0000
0000
,
0000
1001
0000
0000
0001
0000
0010
0000
0100
1000
0000
0001
1000
0001
1000
0000
,
0001
0200
1000
0000
0301
1000
1000
0001
,
1000
0200
0001
0000
1300
0100
0010
0001
,
2100
0000
0000
0000
3001
0000
0000
0000
0010
0001
0000
0000
1001
0000
0000
0000
,
0101
0000
0000
0110
0000
0000
1001
0000
0000
0110
0000
0000
1000
0000
1000
0000
,
0001
0020
1000
0000
0130
1000
0001
0010
,
0001
0200
1000
0000
0301
1000
0010
0100
,
2001
0000
0000
0000
3100
0000
0000
0000
0001
0100
0000
0000
0110
0000
0000
0000
,
0001
0010
0000
0000
0110
0000
0000
0000
1002
0000
0000
0000
2003
0000
0000
0000
,
3001
0010
0000
0000
0001
0000
1000
0000
0000
0000
1000
0000
0100
0000
0110
0000
,
0000
0000
0010
0000
0001
1000
0000
0001
0000
0000
0100
0000
0010
0000
0100
0000
,
0001
0000
0010
0000
0100
0000
0000
0100
1000
0000
1000
0000
0001
0000
0000
0000
,
0100
0000
0000
0100
0010
0000
1000
0000
2000
0000
0000
3001
0000
0000
0010
0100
,
0010
0200
0000
0000
1300
0000
0001
0000
0000
0001
0000
0000
0100
0000
0001
1000
,
0000
0000
1000
0000
0001
1000
0000
0100
0000
0000
0010
0000
0011
0000
0001
0000
,
0000
0001
0000
0000
1000
0000
0010
0100
0000
0000
0010
0000
0100
0001
0100
0000
,
0010
0000
0000
0100
0001
0000
0010
0000
0100
0000
0000
1000
0000
0000
0001
0000
,
2002
0000
0000
0000
,
0000
0000
0000
0000
,
3003
0000
0000
0000
;

//---------------dance-single - ----------------
#NOTEDATA:;
#CHARTNAME:;
#STEPSTYPE:dance-single;
#BANNER:;
#DESCRIPTION:;
#CHARTSTYLE:;
#DIFFICULTY:Hard;
#METER:16;
#METERF:0.000000;
#RADARVALUES:0.727112,0.923368,0.195183,0.427902,0.728185,678.000000,652.000000,26.000000,57.000000,0.000000,0.000000,0.000000,0.000000,0.000000,0.727112,0.923368,0.195183,0.427902,0.728185,678.000000,652.000000,26.000000,57.000000,0.000000,0.000000,0.000000,0.000000,0.000000;
#CREDIT:DJEmbrace;
#NOTES:
0000
0000
0000
0000
,
0000
0000
0000
0000
,
0000
0000
0000
0000
,
0000
0000
0000
0000
,
0001
0100
0001
1000
0001
0100
0001
1000
,
0100
0001
0100
1000
0100
0001
0100
1000
,
0100
0000
0000
0010
0000
0000
0001
0000
0000
0010
0000
0000
0100
0000
0000
1000
0000
0000
0100
0000
0000
0010
0000
0000
0001
0000
0000
1000
0000
0000
0001
0000
0000
0100
0000
0000
0010
0000
0000
1000
0000
0000
0001
0000
0100
0000
0010
0000
,
1000
0000
0010
0000
0010
0100
0000
0100
1000
0000
0000
0000
0000
0000
1000
0100
,
0001
2000
0010
0000
0001
0000
3010
0000
1000
0002
0100
0000
1003
0000
0100
1000
,
0001
2000
0100
0000
0001
0000
3100
0000
1000
0002
0010
0000
1000
0000
0013
0000
,
0010
0100
1000
0000
1000
0000
1000
0000
0001
0100
0010
0000
0010
0000
0010
0000
,
0010
0000
0100
0001
1000
0001
0010
0000
0100
2000
0000
0000
3002
0000
0003
0000
,
0200
0000
0001
0000
0010
0000
0301
0000
1000
0020
0100
0000
0001
0000
0130
0000
,
0001
0020
0100
0000
0001
0000
0130
0000
1000
0200
0010
0000
0001
0000
0310
0000
,
0100
1000
0001
0000
0001
0000
0001
0000
0100
0001
0010
0000
0010
0000
0010
0000
,
0010
0000
0100
0010
0001
1000
0100
0000
1000
0010
0000
0010
1000
0000
0010
0000
,
0200
0000
1000
0000
0010
0000
0301
0000
0001
0010
0001
0000
0001
0000
1000
0000
,
0200
0000
0001
0000
0010
0000
1300
0000
1000
0010
1000
0000
0010
0000
0100
0000
,
0001
0010
0100
0000
0100
0000
0100
0000
0010
0001
0100
0000
0100
0000
0100
0000
,
0100
0000
0010
1000
0100
1000
0001
0000
0100
0010
0100
1000
0100
0010
0100
0001
,
1000
0100
0020
0000
0001
0000
0100
0000
1030
0010
0002
0000
0100
0000
1000
0000
,
0013
0001
0200
0000
1000
0000
0010
0000
0301
0100
1000
0000
0001
0000
0010
0000
,
1000
0001
0100
0000
0100
0000
0100
0000
0001
0010
0100
0000
0100
0000
0100
0000
,
0100
0000
0010
0001
1000
0001
0100
0000
0100
0020
0000
0000
0000
0000
1030
0001
,
0010
0000
0000
0000
,
0002
0000
0000
0000
,
1003
0000
0010
0000
1000
0000
0010
0000
0100
0010
1000
0000
0001
0000
1000
0000
,
0010
0000
1000
0000
0001
0010
0100
0000
0010
0002
0000
0000
0000
0000
0003
0000
,
1000
0002
0010
0000
0100
0000
1003
0000
1000
0200
0001
0000
0320
0000
1000
0000
,
0031
0000
0001
0000
1000
0001
1000
0000
0001
0200
1000
0000
0310
0000
0100
0000
,
0010
1000
0010
0000
1000
0000
1000
0000
0001
1000
0001
0000
1000
0000
1000
0000
,
0010
0000
0010
0000
1000
0100
1000
0000
0010
0000
0000
0000
0000
0000
0000
0000
,
0100
0001
1000
0000
1000
0000
0001
0000
0001
0100
0010
0000
0100
0000
0001
0000
,
0001
0010
0100
0000
0010
0000
0100
0000
0001
0100
0010
0000
0001
0000
1000
0000
,
0102
0000
1000
0000
1000
0000
1003
0000
0100
1000
0001
0000
0100
0000
0001
0000
,
0100
0000
0001
0000
0100
0010
1000
0000
0001
0010
1000
0010
0100
1000
0001
1000
,
0001
0020
1000
0000
0100
0000
0031
0000
0100
0002
0010
0000
0100
0000
2003
0000
,
0100
0000
3010
0000
1000
0010
0001
0000
1000
0200
0001
0000
0310
0000
0100
0001
,
1000
0001
0010
0000
0001
0000
0001
0000
0010
0001
0010
0000
0100
0000
1000
0000
,
0100
0000
1000
0000
0100
0000
0010
0001
0200
0000
0000
0000
0000
0000
0000
0000
,
0320
0000
0000
0000
0000
0000
0000
2030
,
0000
0000
0000
3200
0000
0000
0000
0320
,
0000
0000
0000
0000
,
0000
0000
0000
0000
,
0032
0000
0000
0203
0000
0000
0000
2300
,
0000
0000
0000
3200
0000
0000
0000
0320
,
0000
0000
0000
0000
,
0000
0000
0000
0030
,
1100
0000
1000
0100
0000
0010
0100
0010
0000
0001
0010
0001
0000
1000
0001
1000
,
0000
0010
1000
0010
0000
0100
0010
0100
0000
0001
1000
0001
0000
0010
0100
0010
,
0000
0001
0010
0100
0000
1000
0001
0100
0000
0010
0100
0001
0000
0010
0001
1000
,
0000
0010
0100
0001
0000
1000
0100
0010
0000
0001
0100
0010
0000
1000
0100
0010
,
0001
0010
0001
0000
1000
0010
1000
0000
0001
0100
0001
0000
1000
0100
1000
0000
,
0010
0100
0010
0000
0100
0001
0100
0000
0001
0010
0001
0000
1000
0010
1000
0000
,
0001
0100
0010
1000
0001
1000
0100
1000
0001
0100
0010
1000
0001
0010
0001
0010
,
0100
0000
0000
0000
0000
0000
0100
0000
0000
0000
0000
0000
0100
0000
0000
0010
0000
0000
0001
0000
1000
0000
0010
0000
0200
0000
0000
0000
0000
0000
0000
0000
0000
0000
0000
0000
0000
0000
0000
0000
0000
0000
1300
0000
0000
0100
0000
0000
,
0001
0000
0000
0000
,
0000
0000
0000
0000
,
2100
0000
0000
0000
3001
0000
0000
0000
1000
0101
0000
0000
1010
0000
0000
0000
,
1000
0011
0000
0000
1100
0000
0000
0000
0010
1001
0000
0000
0001
0000
0001
0000
,
0200
0000
1000
0000
0310
0000
0100
0000
0100
0001
2000
0000
0010
0000
3100
0000
,
0100
0010
0002
0000
0100
0000
0013
0000
0010
0100
2000
0000
0010
0000
3001
0000
,
0201
0000
0000
0000
0310
0000
0000
0000
0100
1001
0000
0000
0011
0000
0000
0000
,
0000
1010
0000
0000
0021
0000
0130
0000
0010
1001
0000
0001
0100
0010
1000
0000
,
1001
0000
0001
0000
0020
0000
1000
0000
0130
0010
0200
0000
0001
0000
0010
0000
,
1300
0001
0100
0000
0020
0000
0001
0000
0130
0010
0200
0000
1000
0000
0010
0000
,
0302
0000
0000
0000
1003
0000
0000
0000
0010
1001
0000
0000
1100
0000
0000
0000
,
0011
0000
0000
1010
0000
0000
0101
0000
0000
2100
0000
0000
3010
0000
0010
0000
,
1000
0000
0001
0000
0020
0000
0100
0000
1030
0010
0001
0000
0200
0000
0010
0000
,
1300
0100
0001
0000
0020
0000
0100
0000
1030
0010
0001
0000
0100
0000
0001
0000
,
0102
0000
0000
0000
0013
0000
0000
0000
0001
1100
0000
0000
1000
0000
0000
0000
,
0001
0000
0000
1100
0000
0000
0000
0000
0000
0000
0000
0000
1000
0000
0000
0000
0000
0000
0000
0000
0000
0000
0000
0000
0011
0000
0000
0000
0000
0000
0001
0000
0010
0000
0001
0000
0010
0000
0000
0001
0000
0000
1000
0000
0000
0010
0000
0000
,
0100
0001
1000
0100
1000
0000
0001
0010
0001
0100
0010
1000
0001
0000
0001
0010
,
0100
0000
0100
1000
0001
0100
0010
0100
0000
0100
0001
0010
0001
0000
1000
0000
,
0100
0000
0010
0001
1000
0000
0001
0100
0001
1000
0100
0010
0001
0000
0100
0000
,
0100
0001
0100
0001
0010
0000
0100
0000
0100
0010
0001
0010
0000
0010
0100
1000
,
0001
1000
0001
0100
0010
0000
0100
0000
0010
1000
0100
0000
1000
0000
0001
0010
,
0000
0010
0100
0000
1000
0010
0000
0010
1000
0001
1000
0100
0010
0000
0001
0000
,
0100
0001
1000
0000
0100
0000
1000
0010
0000
0010
0100
0000
0001
1000
0100
0000
,
0010
0001
0100
0010
0100
0000
0001
0000
1000
0100
1000
0001
0100
0000
0010
0000
,
2002
0000
0000
0000
,
0000
0000
0000
0000
,
3003
0000
0000
0000
;
