#TITLE:Thunderbolt;
#SUBTITLE:;
#ARTIST:雷龍;
#TITLETRANSLIT:;
#SUBTITLETRANSLIT:;
#ARTISTTRANSLIT:Rairyu;
#GENRE:RAVERS DANCE SPEED;
#CREDIT:;
#MUSIC:Thunderbolt.ogg;
#BANNER:Thunderbolt.png;
#BACKGROUND:Thunderbolt-bg.png;
#CDTITLE:;
#SAMPLESTART:75.630;
#SAMPLELENGTH:15.000;
#SELECTABLE:YES;
#OFFSET:0.939;
#BPMS:0.000=188.000;
#STOPS:;
#BGCHANGES:;
#FGCHANGES:;

//--------------- dance-single - forcednature ----------------
#NOTES:
     dance-single:
     forcednature:
     Beginner:
     7:
     0,0,0,0,0:
0000
0000
0000
0000
,
0000
0000
0000
0000
,
0000
0000
0000
0000
,
0000
0000
0000
0000
,
0000
0000
0000
0000
,
0000
0000
0000
0000
,
0000
0000
0000
0000
,
0000
0000
0000
0000
,
1000
1000
1000
0000
,
0001
0001
0001
0000
,
0110
0000
1000
0001
,
0020
0000
0000
0030
,
1001
0000
0001
0000
,
0100
0000
0010
0000
,
1000
0000
0100
0000
,
0010
0010
0010
0000
,
0100
0000
1000
0000
,
0001
0000
0100
0000
,
0010
0000
1000
0000
,
0001
0001
0001
0000
,
1000
0000
1000
0001
,
1000
0000
0001
1000
,
0001
0000
0100
0010
,
0000
0010
0010
0010
,
0100
0000
0001
1000
,
0001
0000
1000
0001
,
1000
0000
0100
0010
,
0000
0001
0001
0000
,
1001
0000
0001
0000
,
0100
0000
0000
0000
,
0010
0000
1000
0000
,
0100
0000
0000
0000
,
0110
0000
0001
0000
,
1000
0000
0000
0000
,
0010
0000
0100
0000
,
2002
0000
0000
3003
,
1000
1000
1000
0000
,
0001
0000
0100
0000
,
0001
0001
0001
0000
,
1000
0100
0010
0000
,
0001
0001
0001
0000
,
1000
0000
0010
0000
,
1000
1000
1000
0000
,
0001
0001
0001
0000
,
0010
0100
1000
0000
,
0100
0000
0010
0000
,
0001
0100
0010
0000
,
0100
0000
0100
0100
,
0010
1000
0001
0000
,
1000
0100
0010
0000
,
0100
1000
0001
0000
,
2002
0000
0000
3003
,
1001
0000
0100
0000
,
0010
0000
0000
0000
,
1000
0000
0100
0000
,
0010
0000
0000
0000
,
2002
0000
0000
0000
,
0000
0000
0000
0000
,
0000
0000
3003
0000
,
0220
0000
0000
0330
,
0001
0000
0001
0000
,
1000
0000
1000
0000
,
0010
0000
0010
0000
,
0100
0100
0100
0000
,
0001
0010
0001
0000
,
1000
0010
1000
0000
,
0100
0010
0100
0000
,
2002
0000
0000
3003
,
1000
0100
1000
0000
,
0001
0100
0001
0000
,
1000
0010
0100
0001
,
1000
0010
0100
0000
,
0001
0010
0001
0000
,
1000
0010
1000
0000
,
0001
0010
0100
1000
,
0010
0010
0010
0000
,
0100
0100
0100
0000
,
1001
0000
1000
0010
,
0100
0001
1000
0000
,
0110
0000
0001
0100
,
0010
1000
0001
0000
,
0110
0000
1000
0100
,
0010
0001
1000
0000
,
1001
0000
0001
0010
,
0110
0110
0110
0000
,
1001
0000
0001
1000
,
0010
0100
0001
0010
,
0100
0000
1000
0010
,
1000
1000
0100
0100
,
0010
0000
0001
0100
,
0010
0100
0001
0010
,
0100
0000
1000
0001
,
0100
0000
0110
0110
,
1001
0000
0010
0100
,
2002
0000
0000
3003
;

//--------------- dance-single - forcednature ----------------
#NOTES:
     dance-single:
     forcednature:
     Easy:
     10:
     0,0,0,0,0:
0000
0000
0000
0000
,
0000
0000
0000
0000
,
0000
0000
0000
0000
,
0000
0000
0000
0000
,
0000
0000
0000
0000
,
0000
0000
0000
0000
,
0000
0000
0000
0000
,
0000
0000
0000
0000
,
1001
0100
0100
0100
,
1001
0010
0010
0010
,
1001
0100
0110
0110
,
0020
0000
0000
0030
,
1001
0001
0100
0001
,
1000
0010
1000
0100
,
0010
0001
0100
0010
,
1000
0000
1000
0000
0001
1000
0001
0000
,
0010
0100
0010
0001
,
1000
0010
0100
0001
,
0010
0100
1000
0010
,
0100
0000
0100
0000
0001
1000
0001
0000
,
1000
0100
0010
0011
,
0001
0100
0010
1010
,
1000
0100
0010
0011
,
0000
0100
0000
0100
0000
0010
0010
0000
,
1001
0100
0010
1001
,
0110
1000
0001
0110
,
1001
0100
0110
1001
,
0000
0010
0000
0010
0000
0100
0100
0000
,
1001
0001
0100
0100
,
0010
0010
1000
0000
,
0100
0100
0010
0010
,
0100
0100
1000
0000
,
0001
0001
0100
0100
,
0010
1000
0001
1000
,
0100
0100
0010
0010
,
2002
0000
0000
3003
,
0001
0100
0010
1000
,
0100
0000
0010
0000
0001
1000
0001
0000
,
0100
0001
1000
0010
,
0110
0000
0001
0000
0000
0100
0000
0100
,
0001
0010
0100
1000
,
0001
0000
0100
0000
0010
1000
0010
0000
,
0100
0001
1000
0100
,
1001
1001
1001
1001
,
1000
0100
0010
0001
,
0100
0000
0010
0000
1000
0001
1000
0000
,
0100
1000
0010
0100
,
0110
0000
0001
0000
0000
1001
0000
0001
,
1000
0001
0100
0010
,
1000
0000
0100
0000
0010
0001
0010
0000
,
0200
0000
0000
0300
,
2002
0000
0000
3003
,
0102
0000
1003
0001
,
0100
0010
1000
0001
,
2000
0000
3001
1000
,
0100
0010
0001
0000
,
2002
0000
0000
3003
,
0200
0000
0000
0300
,
0020
0000
0000
0030
,
2002
0000
0000
3003
,
1100
1000
0001
0000
,
0101
0001
1000
0000
,
0010
0100
0001
1000
,
0100
0100
0010
0000
,
1100
0001
1000
0010
,
0100
0001
1000
0100
,
0010
0001
1000
0010
,
0200
0000
0010
0310
,
1001
0000
0001
0000
1000
0001
1000
0000
,
0010
0000
0100
0000
0001
1000
0001
0000
,
0010
0000
0100
0000
1000
0001
1000
0000
,
0010
0010
0010
0000
,
0100
0000
0001
0000
0010
0100
0010
0000
,
0001
0000
1000
0000
0010
0100
0010
0000
,
1000
0000
0001
0000
0010
0100
0010
0000
,
1001
0100
0010
0010
,
0110
1000
0001
0100
,
0001
1000
0001
0000
0100
0000
0001
0000
,
1000
0000
0010
0000
1000
0100
1000
0000
,
0001
0010
0001
0000
0100
0000
0001
0000
,
1000
0000
0010
0000
0000
0110
0000
0100
,
0001
1000
0001
0000
0010
0000
0100
0000
,
1000
0000
0010
0000
0100
0010
0100
0000
,
0001
1000
0001
0000
0010
0000
0100
0000
,
1001
0110
0110
1001
,
0001
0100
0001
0000
1000
0000
0010
0000
,
1000
0000
0100
0000
0010
0001
0010
0000
,
0001
0100
0001
0000
1000
0000
0010
0000
,
0000
0100
0000
0001
0000
1000
0000
0100
,
0010
0001
0010
0000
0100
0000
1000
0000
,
0001
0000
0100
0000
0010
0010
0010
0000
,
1000
0001
1000
0000
0100
0000
0010
0000
,
1001
0100
0110
1001
,
1000
0100
1000
0000
0001
0100
0001
0000
,
2002
0000
0000
3003
;

//--------------- dance-single - forcednature ----------------
#NOTES:
     dance-single:
     forcednature:
     Medium:
     13:
     0,0,0,0,0:
0000
0000
0000
0000
,
0000
0000
0000
0000
,
0000
0000
0000
0000
,
0000
0000
0000
0000
,
0000
0000
0000
0000
,
0000
0000
0000
0000
,
0000
0000
0000
0000
,
0000
0000
0000
0000
,
2100
0001
0010
3001
,
0102
1000
0010
1003
,
1001
0100
0110
1001
,
0020
0000
0000
0030
,
1001
0000
1000
0000
0100
0010
0001
1000
,
0001
0000
0100
0000
0010
1000
0001
1000
,
0100
0000
0010
0000
0001
0100
0001
0010
,
0100
0000
0000
1000
0000
1000
0000
0000
0001
0000
0100
0000
0010
0000
0000
0000
,
1100
0000
0100
0000
0010
0001
0100
0010
,
1000
0000
0001
0000
0010
0001
0100
0010
,
1000
0000
0100
0000
0010
0100
1000
0010
,
0100
0001
0110
1001
,
0001
0100
0010
0100
1000
0100
0001
0000
,
1000
0100
0010
0100
0001
0100
1000
0000
,
0001
0010
0100
0010
1000
0010
0001
0000
,
0000
0110
0000
0110
0000
1000
0001
0000
,
1000
0010
0001
0010
0100
0001
0010
0001
,
1000
0100
0001
0100
0010
0001
0100
0001
,
0010
0100
0110
1001
,
0000
1100
0000
0101
0000
0010
0010
0000
,
1001
1000
0001
0100
,
0100
0010
1000
0001
,
0010
0100
1000
0010
,
0010
0100
0001
0010
,
0100
1000
0100
1000
0001
0010
0001
0000
,
0100
0001
0100
0001
1000
0010
1000
0000
,
0100
1000
0001
0100
0010
1000
0001
0010
,
0200
0000
0000
0300
,
0010
0000
0001
0000
1000
0000
0000
0001
0000
0000
0100
0000
0010
0000
1000
0000
,
0000
0100
0010
0100
1000
0001
0100
0000
,
0010
0000
1000
0000
0001
0000
0000
0010
0000
0000
0100
0000
0010
0000
0001
0000
,
0000
0100
0010
1000
0000
0110
0000
0001
,
1000
0000
0010
0000
0100
0000
0000
0001
0000
0000
1000
0000
0100
0000
1000
0000
,
0000
0010
0100
0001
0010
0010
0010
0000
,
0100
0000
1000
0000
0001
0000
0000
0100
0000
0000
0001
0000
1000
0000
0100
0000
,
0010
0101
1100
1001
,
0001
0000
0100
0000
0010
0000
0000
1000
0000
0000
0100
0000
0010
0000
0100
0000
,
0000
1000
0001
0010
0001
0100
0010
0000
,
1000
0000
0010
0000
0100
0000
0000
0001
0000
0000
0010
0000
0100
0000
1000
0000
,
0000
0001
0100
1000
0000
0110
0000
0001
,
0010
0000
0001
0000
1000
0000
0000
0010
0000
0000
1000
0000
0001
0000
1000
0000
,
0000
0100
0010
0001
0100
0100
0100
0000
,
0010
0000
1000
0000
0001
0000
0000
1000
0000
0000
0100
0000
0010
0000
0001
0000
,
0200
0000
0000
0300
,
0101
0000
1000
0000
0010
0100
1000
0000
,
0001
0010
1000
0000
0001
0010
1000
0000
,
0010
0000
0100
0000
1000
0001
0100
0000
,
1000
0100
0001
0000
1000
0100
0001
0000
,
0210
0001
0000
0001
,
0000
1000
0000
1000
,
0000
0010
0000
0310
,
2002
0000
0000
3003
,
1000
0000
0100
0000
0010
0000
0000
0001
0000
0000
1000
0000
1000
0000
0000
0000
,
0001
0000
0100
0000
0010
0000
0000
1000
0000
0000
0001
0000
0001
0000
0000
0000
,
1000
0000
0100
0000
0010
0000
0000
0001
0000
0000
1000
0000
1000
0000
0000
0000
,
0001
0000
0100
0000
0010
1000
0010
0000
,
1100
0000
0001
0100
1000
0100
0010
0000
,
0101
0000
1000
0100
0001
0100
0010
0000
,
1001
0000
0100
0001
0100
1000
0100
0000
,
0220
0000
0000
0330
,
0001
0000
2000
0000
0000
0100
0000
0000
3001
0000
0000
1000
0000
0000
0010
0000
,
0100
0000
0002
0000
0000
0100
0000
0000
1003
0000
0000
0001
0000
0000
0010
0000
,
0100
0000
2000
0000
0000
0100
0000
0000
3001
0000
0000
1000
0000
0000
0010
0000
,
0100
0001
1000
0001
0010
0100
0010
0000
,
0001
0000
2000
0000
0000
0010
0000
0000
3100
0000
0000
1000
0000
0000
0100
0000
,
0010
0000
0002
0000
0000
0010
0000
0000
0103
0000
0000
0001
0000
0000
0100
0000
,
0010
0000
2000
0000
0000
0010
0000
0000
3100
0000
0000
1000
0000
0000
0100
0000
,
0010
0010
0010
0001
0100
0010
1000
0000
,
0010
0010
0010
1000
0100
0010
0002
0003
,
1000
0000
0001
0000
0100
0000
0010
1000
0000
0000
0001
0000
1000
0000
0100
0000
,
0000
0010
0001
0100
0010
1000
0001
0000
,
0100
0000
0010
0000
1000
0000
0001
0010
0000
0000
0100
0000
1000
0000
0001
0000
,
0100
1000
0100
0010
0000
0110
0000
1000
,
0001
0000
0100
0000
0010
0000
1000
0001
0000
0000
0010
0000
0001
0000
0100
0000
,
0000
0010
1000
0100
0010
0010
0010
0000
,
0100
0000
1000
0000
0001
0000
0100
0001
0000
0000
1000
0000
0010
0000
1000
0000
,
0100
0110
0110
1001
,
0001
0100
0001
0000
1000
0000
0001
0100
0000
0000
0010
0000
1000
0000
0001
0000
,
0000
1000
0100
0010
0001
0100
0010
0000
,
1000
0100
1000
0000
0001
0000
1000
0100
0000
0000
0010
0000
0001
0000
1000
0000
,
0000
0010
0001
0010
1000
0100
0001
0100
,
0010
0001
0010
0000
0100
0000
0010
0001
0000
0000
0100
0000
0001
0000
1000
0000
,
0000
0100
1000
0010
0100
0100
0100
0000
,
0010
1000
0010
0000
0100
0000
0010
1000
0000
0000
0100
0000
1000
0000
0001
0000
,
0000
1000
0100
0001
0000
1000
0010
0001
,
0000
0100
1000
0100
0001
0100
0100
0010
,
2002
0000
0000
3003
;

//--------------- dance-single - forcednature ----------------
#NOTES:
     dance-single:
     forcednature:
     Hard:
     16:
     0,0,0,0,0:
0000
0000
0000
0000
,
0000
0000
0000
0000
,
0000
0000
0000
0000
,
0000
0000
0000
0000
,
0000
0000
0000
0000
,
0000
0000
0000
0000
,
0000
0000
0000
0000
,
0000
0000
0000
0000
,
0101
1000
0010
1000
,
1100
0001
0010
0001
,
1001
0010
1100
0101
,
0200
0000
0010
0000
0010
0010
0310
0000
,
1000
0000
0010
0000
1000
0100
0000
1000
0100
0000
0010
0001
0000
0010
0001
0000
,
0100
0000
0010
0000
1000
0001
0000
1000
0001
0000
0010
0100
1000
0000
0100
0000
,
1000
0000
0001
0000
1000
0010
0000
1000
0010
0000
0100
0001
0000
0100
0001
0000
,
0010
0000
0100
1000
0000
0100
0000
0010
0001
0000
1000
0000
1001
0000
0000
0000
,
0001
0000
0010
0000
0001
0100
0000
0010
1000
0000
0001
0100
0000
0010
1000
0000
,
0100
0000
0010
0000
0001
1000
0000
0010
0100
0000
0001
0010
0100
0000
1000
0000
,
0001
0000
0100
0000
0001
0010
0000
0100
1000
0000
0001
0010
0000
0100
1000
0000
,
0001
0000
0100
0010
0000
0010
0000
0010
1000
0000
0100
0000
0220
0000
0330
0000
,
1000
0000
0001
0100
0001
0000
0100
0001
0100
0000
0010
0000
2020
0000
3030
0000
,
0001
0000
1000
0100
1000
0000
0100
1000
0100
0000
0010
0000
0022
0000
0033
0000
,
1000
0000
0001
0100
0001
0000
1000
0100
1000
0000
0010
0000
0220
0000
0330
0000
,
0001
0020
1030
0020
0130
0110
2002
3003
,
0001
0000
0100
0001
0100
0000
0010
1000
0010
0000
0100
0000
0002
0000
1003
0000
,
1100
0000
0100
1000
0100
0000
0010
0001
0010
0000
0100
0000
2000
0000
3001
0000
,
0101
0000
0010
1000
1100
0000
2002
3003
,
0000
0000
0110
0000
0000
0000
1000
0000
0001
1000
0001
0000
1000
0000
0000
0000
,
0010
0000
1000
0000
0000
0001
0000
0000
1000
0000
0000
0100
0000
0000
0010
0000
,
0000
0001
0000
0000
0010
0000
0000
0100
0000
0000
1000
0000
0001
0000
1000
0000
,
0010
0000
0100
0000
0000
0001
0000
0000
0010
0000
0000
0001
0000
0000
1000
0000
,
0000
0100
0000
0000
0001
0000
0000
0100
0000
0000
1000
0000
0001
0000
1000
0000
,
0100
0000
0010
0000
0001
0100
0000
0000
0010
0000
0000
0100
0001
0000
0010
0000
,
0100
1000
0000
0000
0010
0000
0000
1000
0100
0000
0010
0000
0001
0000
0100
0000
,
0001
0010
0001
0000
1000
0010
1000
0000
0001
0100
0001
0000
1000
0100
1000
0000
,
2002
0000
0000
3003
,
0001
0100
0001
0000
1000
0000
0010
1000
0000
1000
0100
0000
0010
0000
0001
0000
,
0100
1000
0100
0001
0010
0100
0110
0000
,
1000
0100
1000
0000
0001
0000
0100
0010
0000
0010
1000
0000
0001
0000
0010
0000
,
0110
0100
1000
0001
0000
0101
0000
1100
,
1000
0010
1000
0000
0100
0000
0010
0001
0000
0001
0100
0000
0010
0000
1000
0000
,
0001
0010
0001
0100
0010
0110
1001
0000
,
0001
0010
0001
0000
0100
0000
0010
1000
0000
1000
0100
0000
0010
0000
0001
0000
,
1001
1001
0110
1001
,
0001
0010
0100
1000
0001
0000
0100
0001
0000
0010
0001
0000
1000
0000
0100
0000
,
0010
0001
0100
1000
0100
0001
0010
0010
,
0001
0100
0010
1000
0001
0000
1000
0100
0000
0010
0100
0000
1000
0000
0001
0000
,
1001
1000
0100
0001
0000
0110
0000
1001
,
1000
0100
0010
0001
1000
0000
0001
0100
0000
0010
0100
0000
0001
0000
1000
0000
,
0100
1000
0001
0100
0010
0110
1001
0000
,
0001
0010
0100
1000
0001
0000
1000
0010
0000
1000
0100
0000
0010
0000
0001
0000
,
0100
0020
2030
3200
0300
0020
0032
0203
,
0301
0000
0000
1000
0000
0000
0010
0000
1000
0100
0000
0010
0001
0000
1000
0000
,
0001
0000
0100
0000
0010
1000
0000
0000
0001
0000
0100
0000
0010
1000
0000
0000
,
0001
0000
0000
0010
0000
0000
0100
0000
1000
0001
0000
0100
0010
0000
1000
0000
,
0001
0000
0010
0000
0100
1000
0000
0000
0001
0000
0010
0000
0100
1000
0000
0000
,
1002
0100
0000
0100
,
0000
1000
0000
1000
,
0000
0010
0000
0013
,
0220
0000
0000
0330
,
1001
0000
0001
0000
0100
0000
0000
0010
0000
0000
0010
0000
1000
0000
0000
0000
,
0001
0000
1000
0000
0100
0000
0000
0010
0000
0000
0010
0000
0001
0100
0001
0000
,
1000
0000
0001
0000
0100
0000
0000
0010
0000
0000
1000
0000
1000
0000
1000
0000
,
0100
0000
0010
0001
0000
0001
0000
1000
0010
0000
0100
0000
0010
0000
0000
0000
,
1001
0000
0001
0000
0100
0000
0000
0010
1000
0000
0100
0000
1000
0000
0000
0000
,
0001
0000
1000
0000
0100
0000
0000
0010
0001
0000
0100
0000
0001
0010
0001
0000
,
1000
0000
0001
0000
0100
0000
0000
0010
1000
0000
0100
0000
0100
0000
0100
0000
,
0010
0000
0001
1000
0000
1000
0000
0001
0100
0000
0001
0000
0020
0000
0000
0000
,
0130
0000
1000
0000
0001
0100
0000
0010
0100
0000
0010
1000
0000
0001
1000
0000
,
0100
0000
0010
0000
0001
1000
0000
0100
1000
0000
0100
0010
0001
1000
0001
0000
,
0100
0000
0010
0000
1000
0001
0000
0100
0001
0000
1000
0100
0000
0010
0100
0000
,
1000
0000
0001
0100
0000
0100
0000
0010
1000
0000
0001
0000
0010
0000
0001
0000
,
1001
0000
1000
0000
0010
0100
0000
0001
0100
0000
0001
1000
0000
0100
1000
0000
,
0010
0000
0100
0000
0001
0010
0000
0100
0010
0000
0100
1000
0001
0010
0001
0000
,
0100
0000
0001
0000
1000
0010
0000
1000
0100
0000
0010
0001
0000
0100
0001
0000
,
1001
0000
1000
0100
0000
0100
0000
0100
0020
0000
0032
0000
0023
0000
0030
0000
,
1001
0000
0001
0100
0000
0100
0000
0100
0020
0000
2030
0000
3020
0000
0030
0000
,
1000
0100
0010
0001
1000
0000
0001
0100
0000
0010
1000
0001
1000
0000
0100
0000
,
0010
0001
0100
0010
1000
0001
1001
0000
,
0001
0100
0010
1000
0001
0000
1000
0100
0000
0010
0001
0010
0100
0000
1000
0000
,
1010
0020
0230
0302
0003
0011
0000
1100
,
1000
0001
0100
0010
1000
0000
0001
0010
0000
0001
0100
0010
1000
0000
0100
0000
,
0010
0001
1000
0001
0100
0101
1010
0000
,
0001
0010
0100
1000
0010
0000
0100
0001
0000
1000
0100
0010
0001
0000
0100
0000
,
0101
1100
0110
1001
,
1000
0100
0010
0001
0100
0000
0010
1000
0001
1000
0100
0010
0001
0000
0100
0000
,
0010
0000
1000
0000
1100
0000
0000
0000
0101
0000
0000
0001
0010
0000
0010
0000
,
0100
1000
0001
0100
0010
0000
1000
0001
0100
0010
1000
0001
0010
0000
0001
0000
,
0000
0000
1000
0000
1000
0000
0010
0000
0010
0000
0100
0001
1000
0001
0010
0000
,
0100
1000
0100
0010
0001
0000
0100
0001
1000
0010
1000
0001
0010
0000
0100
0000
,
1000
0010
0100
0001
0010
0011
1100
0000
,
0001
0100
0001
1000
0100
0000
0010
0001
0000
1000
0010
0100
0001
0000
1000
0000
,
1001
0001
1000
0100
1100
0000
0101
0000
,
0001
0000
0001
0000
1000
0000
1000
0000
0100
0010
0001
0100
0010
1000
0100
0010
,
0002
0000
0000
0003
;

//--------------- dance-double - forcednature ----------------
#NOTES:
     dance-double:
     forcednature:
     Easy:
     10:
     0,0,0,0,0:
00000000
00000000
00000000
00000000
,
00000000
00000000
00000000
00000000
,
00000000
00000000
00000000
00000000
,
00000000
00000000
00000000
00000000
,
00000000
00000000
00000000
00000000
,
00000000
00000000
00000000
00000000
,
00000000
00000000
00000000
00000000
,
00000000
00000000
00000000
00000000
,
00011000
00001000
01000000
00001000
,
00011000
00010000
00000100
00010000
,
00011000
00000100
00001100
00001100
,
00000020
00000000
00000000
00000030
,
00001001
00001000
00000010
00010000
,
00001000
00100000
00010000
10000000
,
00100000
01000000
00010000
01000000
,
00001000
00000000
00001000
00000000
00010000
00000100
00010000
00000000
,
00001000
00100000
00001000
00010000
,
00000010
00001000
00000010
00000100
,
00000001
00000010
00000100
00001000
,
00000010
00000000
00000010
00000000
00001000
00000001
00001000
00000000
,
00000100
00100000
00001000
00011000
,
01000000
00001000
00010000
00011000
,
00000100
00010000
00001000
00011000
,
00000000
00100000
00000000
00100000
00000000
00010000
00100000
00000000
,
00011000
01000000
00001000
01001000
,
00011000
00000100
00010000
00010100
,
00011000
00000010
00001100
00001100
,
00000000
00000010
00000000
00000010
00000000
00000100
00000010
00000000
,
00001001
00000001
00000100
00000100
,
00001000
00010000
00100000
00000000
,
10000000
10000000
01000000
01000000
,
00010000
00001000
00000010
00000000
,
00000001
00000100
00000010
00001000
,
00010000
01000000
00100000
10000000
,
01000000
01000000
00010000
00010000
,
00022000
00000000
00000000
00033000
,
00000100
00001000
00000001
00000100
,
00000010
00000000
00010000
00000000
00001000
00010000
00001000
00000000
,
00100000
00010000
10000000
00100000
,
01100000
00000000
00010000
00000000
00000000
00100000
00000000
00100000
,
00001000
00010000
00000010
00001000
,
00000100
00000000
00000010
00000000
00000001
00001000
00000001
00000000
,
00000100
00001000
00010000
00100000
,
01100000
01100000
10010000
10010000
,
10000000
01000000
00010000
00001000
,
00100000
00000000
00010000
00000000
01000000
00010000
01000000
00000000
,
00100000
10000000
01000000
00010000
,
00011000
00000000
00001000
00000000
00000000
01000000
00000000
01000000
,
00010000
00100000
00001000
00010000
,
00000010
00000000
00001000
00000000
00000100
00000010
00000100
00000000
,
00002000
00000000
00000000
00003000
,
00002002
00000000
00000000
00003003
,
00000101
00000000
00000001
00000100
,
00001000
00010000
00100000
00000000
,
11000000
00000000
10000000
01000000
,
00010000
00001000
00000010
00000000
,
00002200
00000000
00000000
00003300
,
00022000
00000000
00000000
00033000
,
02020000
00000000
00000000
03030000
,
00022000
00000000
00000000
00033000
,
01000000
00001000
00010000
00000000
,
00000100
00010000
00001000
00000000
,
00100000
00001000
00010000
00000010
,
00000100
00000100
00000001
00000000
,
00000010
00000100
00001000
00000100
,
00010000
00001000
01000000
00010000
,
01000000
00100000
10000000
00010000
,
00200000
00000000
00000000
00300000
,
00011000
00000000
00010000
00000000
00000100
00001000
00000100
00000000
,
00000010
00000000
00000001
00000000
00001000
00000010
00001000
00000000
,
00000100
00000000
00010000
00000000
00001000
01000000
00001000
00000000
,
00010000
00010000
00010000
00000000
,
00100000
00000000
10000000
00000000
00010000
00100000
00010000
00000000
,
01000000
00000000
00001000
00000000
00010000
00000100
00010000
00000000
,
00001000
00000000
00000010
00000000
00000001
00001000
00000001
00000000
,
00000100
00001000
00010000
00010000
,
01000000
00010000
00001000
00011000
,
00010000
00000100
00010000
00000000
00001000
00000000
01000000
00000000
,
00010000
00000000
10000000
00000000
00100000
01000000
00100000
00000000
,
10000000
00010000
10000000
00000000
01000000
00000000
00010000
00000000
,
00001000
00000000
00000010
00000000
00000000
00000100
00000000
00000100
,
00001000
00000100
00001000
00000000
00000001
00000000
00000100
00000000
,
00001000
00000000
00010000
00000000
00100000
01000000
00100000
00000000
,
10000000
00010000
10000000
00000000
01000000
00000000
00010000
00000000
,
00011000
00011000
00011000
00011000
,
00010000
00001000
00010000
00000000
00000100
00000000
00001000
00000000
,
00000001
00000000
00000100
00000000
00000010
00001000
00000010
00000000
,
00010000
00001000
00010000
00000000
00000100
00000000
00001000
00000000
,
00000000
00010000
00000000
01000000
00000000
00100000
00000000
10000000
,
00010000
10000000
00010000
00000000
00100000
00000000
00001000
00000000
,
00010000
00000000
00000010
00000000
00000100
00000100
00000100
00000000
,
00000001
00001000
00000001
00000000
00000010
00000000
00000100
00000000
,
00001001
00001000
00000100
00010000
,
00001000
01000000
00001000
00000000
00010000
00000100
00010000
00000000
,
00022000
00000000
00000000
00033000
;

//--------------- dance-double - forcednature ----------------
#NOTES:
     dance-double:
     forcednature:
     Medium:
     13:
     0,0,0,0,0:
00000000
00000000
00000000
00000000
,
00000000
00000000
00000000
00000000
,
00000000
00000000
00000000
00000000
,
00000000
00000000
00000000
00000000
,
00000000
00000000
00000000
00000000
,
00000000
00000000
00000000
00000000
,
00000000
00000000
00000000
00000000
,
00000000
00000000
00000000
00000000
,
00011000
00001000
01000000
01000000
,
00011000
00010000
00000100
00000100
,
00011000
00010000
00001000
00010000
,
00200000
00000000
00000000
00300000
,
10010000
00000000
10000000
00000000
01000000
00010000
00001000
00000000
,
00000010
00000000
00000001
00000000
00000100
00001000
00010000
00000000
,
00100000
00000000
10000000
00000000
01000000
00010000
00001000
00000000
,
00000010
00000000
00000000
00000100
00000000
00000100
00000000
00000000
00001000
00000000
00000001
00000000
00000100
00000000
00000000
00000000
,
00001000
00000000
00010000
00000000
00100000
01000000
00100000
00000000
,
00010000
00000000
00001000
00000000
00000010
00000100
00000010
00000000
,
00001000
00000000
00010000
00000000
01000000
00100000
01000000
00000000
,
10000000
00000000
00000000
00010000
00000000
00010000
00000000
00000000
01100000
00000000
00000000
00000000
10010000
00000000
00000000
00000000
,
00010000
01000000
00010000
00100000
00001000
00010000
00000010
00000000
,
00001000
00000100
00001000
00000010
00010000
00001000
00100000
00000000
,
00010000
01000000
00010000
00100000
00001000
00010000
00000010
00000000
,
00000100
00001000
00000100
00000001
00001000
00000001
00001000
00000000
,
00000100
00010000
00001000
01000000
00100000
10000000
00010000
00000000
,
01000000
00001000
00010000
00000100
00000010
00000001
00001000
00000000
,
00000010
00000000
00000100
00001000
00010000
00000000
00011000
00000000
,
00000000
01001000
00000000
01001000
00000000
00100000
00100000
00000000
,
10010000
10000000
01000000
01000000
,
00010000
00010000
00001000
00000010
,
00000001
00000001
00000100
00000100
,
00001000
00001000
00010000
00100000
,
10000000
01000000
10000000
01000000
00100000
00001000
00100000
00001000
,
00010000
00000010
00010000
00000010
00000100
00000001
00000100
00000001
,
00000010
00000100
00001000
00000100
00010000
00001000
01000000
00010000
,
02000000
00000000
10000000
00000000
10000000
10000000
13000000
00000000
,
01000000
00000000
00100000
00000000
01000000
00000000
00000000
00010000
00000000
00000000
00100000
00000000
00001000
00000000
00010000
00000000
,
00000000
00000010
00001000
00000100
00000010
00000001
00000100
00000000
,
00000010
00000000
00010000
00000000
00001000
00000000
00000000
00100000
00000000
00000000
00010000
00000000
10000000
00000000
00010000
00000000
,
00000000
01000000
00001000
00010000
00000000
00011000
00000000
00001000
,
00010000
00000000
00000100
00000000
00001000
00000000
00000000
00000100
00000000
00000000
00000010
00000000
00000001
00000000
00001000
00000000
,
00000000
00000010
00000100
00001000
00010000
00010000
00010000
00000000
,
00001000
00000000
01000000
00000000
00010000
00000000
00000000
10000000
00000000
00000000
01000000
00000000
00010000
00000000
00001000
00000000
,
00010000
00010100
00011000
00010010
,
00000010
00000000
00000100
00000000
00000001
00000000
00000000
00000010
00000000
00000000
00000100
00000000
00001000
00000000
00000100
00000000
,
00000000
00010000
00001000
01000000
00010000
10000000
00100000
00000000
,
10000000
00000000
01000000
00000000
00010000
00000000
00000000
00001000
00000000
00000000
00100000
00000000
00010000
00000000
01000000
00000000
,
00000000
00001000
00010000
00000100
00000000
00000110
00000000
00000010
,
00000001
00000000
00001000
00000000
00000001
00000000
00000000
00000100
00000000
00000000
00001000
00000000
00010000
00000000
00001000
00000000
,
00000000
00100000
00010000
10000000
00100000
00100000
00100000
00000000
,
01000000
00000000
00010000
00000000
00100000
00000000
00000000
00001000
00000000
00000000
00010000
00000000
00000010
00000000
00001000
00000000
,
00000200
00000000
00000000
00000300
,
00000110
00000001
00000100
00001000
,
00010000
00100000
10000000
00000000
00010000
00100000
10000000
00000000
,
00100000
01000000
00010000
00001000
,
00000010
00000100
00001000
00000000
00000010
00000100
00001000
00000000
,
00021000
00000100
00000000
00000100
,
00000000
00001000
00000000
00001000
,
00000000
00100000
00000000
00130000
,
00022000
00000000
00000000
00033000
,
00001000
00000000
01000000
00000000
00010000
00000000
00000000
10000000
00000000
00000000
00100000
00000000
00100000
00000000
00000000
00000000
,
00010000
00000000
00000100
00000000
00001000
00000000
00000000
00000001
00000000
00000000
00000010
00000000
00000010
00000000
00000000
00000000
,
00001000
00000000
01000000
00000000
00010000
00000000
00000000
10000000
00000000
00000000
00100000
00000000
00100000
00000000
00000000
00000000
,
00010000
00000000
00001000
00000000
00000010
00000100
00000010
00000000
,
00001001
00000000
00000001
00000100
00001000
00010000
00100000
00000000
,
10010000
00000000
10000000
01000000
00010000
00001000
00000010
00000000
,
00000110
00000000
00000100
00010000
00001000
01000000
00010000
00000000
,
02200000
00000000
00000000
03300000
,
00001000
00000000
01000000
00000000
00000000
00010000
00000000
00000000
00100000
00000000
00001000
00010000
00000000
00000000
00000010
00000000
,
00010000
00000000
00000100
00000000
00000000
00001000
00000000
00000000
00000010
00000000
00010000
00001000
00000000
00000000
00100000
00000000
,
00001000
00000000
01000000
00000000
00000000
00010000
00000000
00000000
00100000
00000000
00001000
00010000
00000000
00000000
00000010
00000000
,
00000100
00001000
00000100
00000001
00001000
00000100
00010000
00000000
,
00001000
00000000
00010000
00000000
00000000
00100000
00000000
00000000
10000000
00000000
00000000
01000000
00000000
00000000
00010000
00000000
,
00010000
00000000
00001000
00000000
00000000
00000010
00000000
00000000
00000001
00000000
00000000
00000100
00000000
00000000
00001000
00000000
,
00001000
00000000
00010000
00000000
00000000
00100000
00000000
00000000
10000000
00000000
00000000
01000000
00000000
00000000
00010000
00000000
,
00001000
00100000
00001000
00010000
00001000
00000010
00000100
00000000
,
00010000
00000010
00010000
00001000
00010000
00100000
02000000
03000000
,
00010000
00000000
10000000
00000000
01000000
00000000
00000000
00010000
00000000
00000000
00001000
00000000
00100000
00000000
00010000
00000000
,
00000000
01000000
00001000
00010000
00001000
00000010
00000100
00000000
,
00001000
00000000
00000001
00000000
00000100
00000000
00000000
00001000
00000000
00000000
00010000
00000000
00100000
00000000
10000000
00000000
,
00000000
01000000
00010000
00001000
00000000
00011000
00000000
00010000
,
00001000
00000000
00000100
00000000
00000001
00000000
00000000
00001000
00000000
00000000
00000100
00000000
00000010
00000000
00000001
00000000
,
00000000
00000100
00001000
00010000
00100000
00100000
00100000
00000000
,
10000000
00000000
00010000
00000000
10000000
00000000
00000000
01000000
00000000
00000000
00010000
00000000
00001000
00000000
00000010
00000000
,
00000001
00001001
00000110
00001001
,
00001000
00000000
00000100
00000000
00010000
00000000
00001000
00100000
00000000
00000000
00010000
00000000
10000000
00000000
00100000
00000000
,
00000000
01000000
00001000
00010000
00100000
10000000
00010000
00000000
,
01000000
00000000
00001000
00000000
00010000
00000000
00000010
00001000
00000000
00000000
00000100
00000000
00000010
00000000
00000001
00000000
,
00000000
00000100
00001000
00010000
00001000
00000010
00001000
00010000
,
00100000
00000000
10000000
00000000
00100000
00000000
01000000
00010000
00000000
00000000
00100000
00000000
00001000
00000000
00010000
00000000
,
00000000
00000010
00001000
00000100
00000010
00000010
00000010
00000000
,
00000001
00000000
00000100
00000000
00000010
00000000
00001000
00000001
00000000
00000000
00000010
00000000
00000100
00000000
00001000
00000000
,
00000000
00000010
00010000
00001000
00000000
00100000
00001000
00010000
,
00000000
00100000
10000000
01000000
00010000
00001000
00000100
00000001
,
00000020
00000000
00000000
00000030
;

//--------------- dance-double - forcednature ----------------
#NOTES:
     dance-double:
     forcednature:
     Hard:
     16:
     0,0,0,0,0:
00000000
00000000
00000000
00000000
,
00000000
00000000
00000000
00000000
,
00000000
00000000
00000000
00000000
,
00000000
00000000
00000000
00000000
,
00000000
00000000
00000000
00000000
,
00000000
00000000
00000000
00000000
,
00000000
00000000
00000000
00000000
,
00000000
00000000
00000000
00000000
,
00011000
01000000
00010000
00100000
,
00011000
00000100
00001000
00000010
,
00011000
01000000
01010000
10100000
,
00020000
00000000
00100000
00000000
10000000
10000000
10030000
00000000
,
00010000
00000000
00100000
00000000
00010000
01000000
00000000
00000000
00001000
00000000
00010000
00000100
00000000
00001000
00000100
00000000
,
00000010
00000000
00000001
00000000
00001000
00000010
00000000
00000000
00010000
00000000
00001000
01000000
00001000
00000000
00010000
00000000
,
00100000
00000000
01000000
00000000
00010000
10000000
00000000
00000000
01000000
00000000
00100000
00010000
00000000
00100000
00001000
00000000
,
00010000
00000000
00000010
00001000
00000000
00000100
00000000
00000010
00000001
00000000
00000100
00000000
00000110
00000000
00000000
00000000
,
00000001
00000000
00000010
00000000
00000100
00000010
00000000
00000000
00000001
00000000
00001000
00000010
00000000
00001000
00000100
00000000
,
00010000
00000000
00001000
00000000
01000000
00010000
00000000
00000000
00100000
00000000
01000000
10000000
00010000
00000000
00100000
00000000
,
00010000
00000000
01000000
00000000
00001000
00010000
00000000
00000000
00000100
00000000
00001000
00000001
00000000
00000100
00000001
00000000
,
00001000
00000000
00000100
00010000
00000000
00010000
00000000
00010000
00001000
00000000
01000000
00000000
00200000
00000000
00300000
00000000
,
10000000
00000000
00000000
10000000
01000000
00000000
00010000
00001000
00010000
00000000
00000010
00000000
00002000
00000000
00003000
00000000
,
00000001
00000000
00000000
00000001
00000100
00000000
00001000
00010000
00001000
00000000
00100000
00000000
00020000
00000000
00030000
00000000
,
10000000
00000000
00000000
10000000
01000000
00000000
00010000
00001000
00010000
00000000
00000010
00000000
00002000
00000000
00003000
00000000
,
00000100
00020000
00031000
00020000
00130000
01000000
00020000
00030000
,
10000000
00000000
01000000
00010000
00001000
00000000
01000000
00001000
00010000
00000000
00000100
00000000
00002000
00000000
00003000
00000000
,
00000001
00000000
00000100
00001000
00010000
00000000
00000100
00010000
00001000
00000000
01000000
00000000
00020000
00000000
00030000
00000000
,
10010000
00000000
10000000
01000000
00010000
00000000
00022000
00033000
,
00000000
00000110
00000000
00000001
00000100
00001000
00010000
00000000
,
00100000
00000000
10000000
00000000
00000000
00010000
00000000
00000000
10000000
00000000
00000000
01000000
00000000
00000000
00010000
00000000
,
00000000
00001000
00000000
00000000
00000100
00000000
00000000
00000001
00000000
00000000
00000010
00000000
00000100
00000000
00000010
00000000
,
00000001
00000000
00001000
00000000
00000000
00000010
00000000
00000000
00000100
00000000
00000000
00001000
00000000
00000000
00010000
00000000
,
00000000
01000000
00000000
00000000
00100000
00000000
00000000
00010000
00000000
00000000
10000000
00000000
00100000
00000000
00010000
00000000
,
00100000
00000000
10000000
00000000
01000000
00010000
00000000
00000000
00001000
00000000
00000000
00010000
01000000
00000000
00100000
00000000
,
00001000
00010000
00000000
00000000
00000010
00000000
00000000
00010000
00001000
00000000
00000010
00000000
00000001
00000000
00000010
00000000
,
00000100
00000000
00000100
00000000
00010000
00000000
00010000
00000000
00001000
01000000
00001000
00000000
01000000
00010000
01000000
00000000
,
00200000
00000000
10000000
00000000
10000000
10000000
10300000
00000000
,
00010000
10000000
00010000
00000000
00100000
00000000
01000000
00010000
00000000
00010000
00001000
00000000
00000010
00000000
00000100
00000000
,
00000000
00001000
00000001
00000100
00001000
00010000
00011000
00000000
,
00000100
00001000
00000100
00000000
00000010
00000000
00000001
00000100
00000000
00000100
00001000
00000000
00010000
00000000
00100000
00000000
,
10000000
00010000
00100000
01000000
00000000
10010000
00000000
00010000
,
10000000
00100000
10000000
00000000
01000000
00000000
00010000
00001000
00000000
00001000
00000100
00000000
00000010
00000000
00001000
00000000
,
00000000
00000100
00000001
00000100
00001000
00000001
00001001
00000000
,
00000001
00000100
00000001
00000000
00000010
00000000
00000100
00010000
00000000
00010000
00001000
00000000
01000000
00000000
00010000
00000000
,
01010000
00101000
00010010
00001100
,
00000100
00001000
00000100
00000010
00000001
00000000
00001000
00000010
00000000
00000010
00000100
00000000
00001000
00000000
00010000
00000000
,
00000000
01000000
10000000
00100000
00010000
00100000
10000000
00000000
,
01000000
00100000
00010000
00100000
00001000
00000000
00010000
00000010
00000000
00000010
00001000
00000000
00000100
00000000
00000010
00000000
,
00000001
00000100
00001000
00010000
00000000
01100000
00000000
10000000
,
00010000
01000000
00100000
10000000
00100000
00000000
01000000
00001000
00000000
00001000
00010000
00000000
00000100
00000000
00001000
00000000
,
00000000
00000010
00000001
00000010
00001000
00000100
00001100
00000000
,
00000100
00010000
00001000
00100000
00001000
00000000
00100000
00010000
00000000
00010000
10000000
00000000
00100000
00000000
00010000
00000000
,
00001000
00000010
00000100
00001000
00000000
00000010
00000100
00001000
,
00010000
00000000
00000000
00100000
00000000
00000000
10000000
00000000
01000000
00100000
00000000
00010000
00100000
00000000
00001000
00000000
,
00010000
00000000
00000010
00000000
00001000
00000100
00000000
00000000
00010000
00000000
00000010
00000000
00001000
00000100
00000000
00000000
,
00010000
00000000
00000000
00001000
00000000
00000000
01000000
00000000
00010000
10000000
00000000
01000000
10000000
00000000
00100000
00000000
,
01000000
00000000
00001000
00000000
00100000
00010000
00000000
00000000
01000000
00000000
00001000
00000000
00100000
00010000
00000000
00000000
,
01002000
00010000
00000000
00010000
,
00000000
00000010
00000000
00000010
,
00000000
00100000
00000000
00103000
,
00022000
00000000
00000000
00033000
,
00001000
00000000
00010000
00000000
00100000
00000000
00000000
10000000
00000000
00000000
10000000
00000000
01000000
00000000
00000000
00000000
,
00010000
00000000
00001000
00000000
00000010
00000000
00000000
00000001
00000000
00000000
00000001
00000000
00000100
00000010
00000100
00000000
,
00001000
00000000
00010000
00000000
00100000
00000000
00000000
10000000
00000000
00000000
01000000
00000000
00010000
00000000
01000000
00000000
,
00100000
00000000
00001000
00010000
00000000
00010000
00000000
00000010
00001000
00000000
00000100
00000000
00000010
00000000
00000000
00000000
,
00000001
00000000
00000100
00000000
00001000
00000000
00000000
00001000
00010000
00000000
00100000
00000000
00100000
00000000
00000000
00000000
,
10000000
00000000
01000000
00000000
00010000
00000000
00000000
00010000
00001000
00000000
00000010
00000000
00000010
00000001
00001000
00000000
,
00000001
00000000
00000100
00000000
00001000
00000000
00000000
00010000
00000000
00000000
00100000
00000000
10000000
00000000
00100000
00000000
,
01000000
00000000
00001000
00010000
00000000
00010000
00000000
00000100
00001000
00000000
00000010
00000000
00020000
00000000
00000000
00000000
,
00031000
00000000
01000000
00000000
00010000
00100000
00000000
00100000
01000000
00000000
01000000
10000000
00000000
10000000
00010000
00000000
,
01000000
00000000
00001000
00000000
00010000
00000100
00000000
00000100
00001000
00000000
00001000
00000001
00000100
00000010
00001000
00000000
,
00000100
00000000
00010000
00000000
00001000
01000000
00000000
01000000
00010000
00000000
00010000
10000000
00000000
10000000
01000000
00000000
,
00010000
00000000
00001000
00100000
00000000
00100000
00000000
00001000
00010000
00000000
00000010
00000000
00000100
00000000
00000100
00000000
,
00000001
00000000
00000010
00000000
00000100
00001000
00000000
00000100
00010000
00000000
00001000
00100000
00000000
00010000
00100000
00000000
,
01000000
00000000
10000000
00000000
00010000
01000000
00000000
00001000
00010000
00000000
00001000
00100000
00010000
00100000
01000000
00000000
,
10000000
00000000
00100000
00000000
01000000
00010000
00000000
01000000
00001000
00000000
00010000
00000010
00000000
00001000
00000010
00000000
,
00000110
00000000
00000100
00001000
00000000
00010000
00000000
00001000
00200000
00000000
00320000
00000000
00230000
00000000
00300000
00000000
,
01100000
00000000
01000000
00010000
00000000
00001000
00000000
00010000
00000020
00000000
00002030
00000000
00003020
00000000
00000030
00000000
,
00000100
00000001
00001000
00000010
00000100
00000000
00000001
00000010
00000000
00000100
00001000
00000000
00000010
00000000
00010000
00000000
,
00001000
00100000
01000000
00010000
00001000
01000000
00010000
00000000
,
10000000
01000000
00100000
00010000
10000000
00000000
00100000
10000000
00000000
00010000
01000000
00000000
00001000
00000000
00010000
00000000
,
00000100
00020000
00032000
00003020
00000030
00000110
00000000
00000001
,
00001000
00000100
00010000
00001000
00010000
00000000
00000010
00001000
00000000
00000010
00010000
00000000
00001000
00000000
00100000
00000000
,
01000000
00010000
01000000
10000000
00100000
00010000
00001000
00000000
,
00100000
00010000
00100000
01000000
10000000
00000000
00010000
01000000
00000000
00010000
00100000
00000000
00001000
00000000
00010000
00000000
,
00010010
01001000
00010100
00101000
,
00001000
00010000
00000100
00001000
00000100
00000000
00000010
00000001
00001000
00000001
00000100
00000010
00001000
00000000
00000100
00000000
,
00000000
00000000
00010000
00000000
00100000
00000000
10000000
00000000
00010000
00000000
10000000
01000000
00100000
00000000
00000000
00000000
,
00010000
10000000
00010000
00100000
00001000
00000000
00010000
00000010
00001000
00000010
00000100
00000001
00001000
00000000
00000001
00000000
,
00000000
00000100
00001000
00010000
01000000
00100000
00010000
00001000
,
00000100
00000010
00000001
00001000
00000001
00000000
00000100
00000001
00001000
00000010
00001000
00000100
00000010
00000000
00000001
00000000
,
00000000
00000100
00001000
00010000
00100000
10000000
00010000
00000000
,
10000000
01000000
00100000
00010000
00100000
00000000
00001000
00010000
00000000
00000010
00001000
00000010
00000100
00000000
00000001
00000000
,
00000010
00001000
00010000
01000000
00000000
00010000
00001000
00000100
,
00001000
00000000
00010000
00000000
00000010
00000000
00010000
00000000
00001000
00100000
00010000
00100000
01000000
10000000
00010000
01000000
,
00200000
00000000
00000000
00300000
;
