#TITLE:Take It Easy;
#SUBTITLE:;
#ARTIST:Aya;
#TITLETRANSLIT:;
#SUBTITLETRANSLIT:;
#ARTISTTRANSLIT:;
#GENRE:INSTRUMENTAL;
#CREDIT:;
#BANNER:takeiteasy.png;
#BACKGROUND:takeiteasy-bg.png;
#LYRICSPATH:;
#CDTITLE:cdtitle.png;
#MUSIC:takeiteasy.ogg;
#OFFSET:-1.582472;
#SAMPLESTART:57.778000;
#SAMPLELENGTH:14.048000;
#SELECTABLE:YES;
#BPMS:0.000000=205.000000
,125.000000=102.500000
,157.000000=205.000000
;
#STOPS:28.000000=0.878000
;
#BGCHANGES:;
#KEYSOUNDS:;
#ATTACKS:;

//---------------dance-single - ----------------
#NOTES:
     dance-single:
     :
     Hard:
     13:
     0.576921,0.923645,0.279893,0.151942,0.179931,505.000000,470.000000,35.000000,19.000000,0.000000,0.000000,0.576921,0.923645,0.279893,0.151942,0.179931,505.000000,470.000000,35.000000,19.000000,0.000000,0.000000:
// measure 0
0000
0000
0000
0000
,  // measure 1
0000
0000
0000
0000
,  // measure 2
0000
0000
0000
0000
,  // measure 3
0000
0000
0000
0000
,  // measure 4
1000
0000
0020
0000
0001
0000
0130
0010
,  // measure 5
0000
0200
0000
0000
1000
0000
0301
0000
,  // measure 6
0001
0000
0020
0000
1000
0030
0010
0100
,  // measure 7
0110
0000
1000
0100
0010
0000
0001
0000
,  // measure 8
1000
0010
0000
0001
0000
0010
1000
0000
,  // measure 9
0101
0000
0001
0100
0010
0000
1000
0000
,  // measure 10
0001
0010
0000
1000
0000
0010
0001
0000
,  // measure 11
1100
0000
1000
0001
0100
0000
0010
0000
,  // measure 12
0001
0010
0000
1000
0000
0010
0100
0000
,  // measure 13
0101
0000
0001
1000
0100
0000
0010
0000
,  // measure 14
1000
0010
0002
0000
0000
0000
0000
0000
,  // measure 15
0003
0000
0101
0000
0001
0100
0001
0000
,  // measure 16
0001
0100
1000
0100
0001
0010
0000
0100
,  // measure 17
1000
0010
1000
0000
1000
0100
0001
0100
,  // measure 18
0010
0001
0000
1001
0000
0000
0000
0000
,  // measure 19
0000
0000
1100
0000
1000
0100
1000
0000
,  // measure 20
1000
0100
0001
0100
1000
0010
0000
0100
,  // measure 21
0001
0010
0001
0000
0001
0100
1000
0100
,  // measure 22
0001
0020
0000
0000
0030
0000
0100
0010
,  // measure 23
0100
1000
1100
0000
1000
0010
1000
0000
,  // measure 24
1000
0010
0001
0010
1000
0100
0000
0010
,  // measure 25
0001
0100
0001
0000
0001
0010
1000
0010
,  // measure 26
0001
0000
0000
0100
0000
0000
0000
0000
0000
0010
0000
0000
0000
1000
0000
0000
0000
0000
0001
0000
0000
0000
1000
0000
,  // measure 27
0000
0000
0001
0000
0000
0000
0101
0000
0000
0000
0000
0000
0001
0000
0000
0010
0000
0000
0001
0000
0000
0000
0000
0000
,  // measure 28
0001
0010
1000
0010
0001
0100
0000
0010
,  // measure 29
1000
0100
1000
0000
1000
0010
0001
0010
,  // measure 30
1000
0020
0000
0000
0000
0000
0000
0000
,  // measure 31
0030
0000
0000
0000
0100
0000
0001
0010
0000
0001
0100
0000
0000
0000
0011
0000
,  // measure 32
0000
0000
0000
0000
0100
0000
1000
0010
0000
1000
0100
0000
0000
0000
1010
0000
,  // measure 33
0000
0000
0000
0000
0001
0000
1000
0100
0000
1000
0001
0000
0000
0000
0101
0000
,  // measure 34
0000
0000
0000
0000
1000
0000
0001
0100
0000
0001
1000
0000
0000
0000
0101
0000
,  // measure 35
0000
0001
0000
0000
0100
0000
0001
0100
0001
0000
0001
0100
1000
0100
0001
0010
,  // measure 36
0000
0100
1000
0001
0100
0000
1000
0100
0001
0100
0010
1000
0000
0020
0000
0000
,  // measure 37
0000
0000
0030
0000
0010
0000
1000
0100
1000
0000
1000
0100
0001
0100
1000
0010
,  // measure 38
0000
0100
0001
1000
0100
0000
0001
0100
1000
0100
0010
0002
0000
0000
0000
0000
,  // measure 39
0003
2000
0000
0000
,  // measure 40
0000
0000
0000
0000
,  // measure 41
0000
3002
0000
0000
,  // measure 42
0000
0000
0000
0000
,  // measure 43
0000
0023
0000
0000
,  // measure 44
0000
0000
0000
0000
,  // measure 45
0000
0000
0000
0000
,  // measure 46
0030
0000
1100
1000
0001
0000
0000
0001
,  // measure 47
0000
0000
0101
0000
0000
0110
0000
0000
,  // measure 48
0101
0000
0000
1100
0000
0000
1001
0000
,  // measure 49
0000
0000
1100
0000
0000
0110
0000
0000
,  // measure 50
1100
0000
0000
0101
0000
0000
1000
0001
,  // measure 51
0000
0000
0000
0001
0100
0001
1000
0001
,  // measure 52
0010
0100
1000
0100
0010
0100
0001
0100
,  // measure 53
0010
0100
1000
0100
0001
0100
1000
0100
,  // measure 54
0010
0002
0000
0000
0000
0000
0000
0000
,  // measure 55
0003
0000
0000
0100
0010
1000
0001
0010
,  // measure 56
0100
1000
0001
0100
1000
0100
0010
0001
,  // measure 57
0010
0000
0000
1000
0000
0000
0001
0000
0000
0000
0000
0000
1000
0000
0010
0000
1000
0000
0010
0000
1000
0000
0000
0000
,  // measure 58
0000
0001
0000
1000
0002
0000
0000
0000
,  // measure 59
0000
0000
0000
0003
0000
0000
0000
1000
0000
0001
0000
0001
,  // measure 60
0000
1000
0000
0010
0000
0010
0000
0100
0000
0001
0000
0001
,  // measure 61
0000
0100
0000
1000
0000
1000
0000
0100
0000
0001
0000
0001
,  // measure 62
0000
0000
1000
0000
0000
0000
2000
0000
0000
0000
0000
0000
0000
0000
0000
0000
0000
0000
3000
0000
0000
0010
0000
0000
,  // measure 63
0100
0010
0100
0001
0100
0010
0100
1000
,  // measure 64
0100
0010
1000
0100
0010
0001
0000
1000
,  // measure 65
0001
0010
0100
0001
0100
0010
0100
1000
,  // measure 66
0100
0020
0000
0000
0000
0000
0030
0000
,  // measure 67
0000
0000
0100
1000
0100
0010
0100
0001
,  // measure 68
0100
0010
0001
0100
0010
1000
0000
0001
,  // measure 69
1000
0010
0100
1000
0100
0010
0100
0001
,  // measure 70
0100
0010
0000
2002
0000
0000
0000
0000
,  // measure 71
3003
0000
1000
0100
1000
0001
1000
0010
,  // measure 72
1000
0001
0010
1000
0010
0100
0000
1000
,  // measure 73
0100
0010
0001
0100
0001
1000
0001
0010
,  // measure 74
0100
2000
0000
0000
0000
0000
0000
0000
,  // measure 75
3000
0000
0001
0100
0001
1000
0001
0010
,  // measure 76
0001
1000
0010
0001
0010
0100
0000
0001
,  // measure 77
0100
0010
1010
0000
0011
0000
1100
0000
,  // measure 78
0001
0100
0000
1000
0100
0001
1000
0100
,  // measure 79
0010
0001
1000
0010
0100
0000
0001
0000
,  // measure 80
1000
0100
0000
0001
0000
0100
1000
0000
,  // measure 81
0011
0000
0001
0010
0100
0000
1000
0000
,  // measure 82
0001
0100
0000
1000
0000
0100
0001
0000
,  // measure 83
1010
0000
0001
1000
0100
0000
0001
0000
,  // measure 84
0100
1000
0000
0100
0000
0010
0100
0000
,  // measure 85
1100
0000
1000
0001
1000
0001
0000
0100
,  // measure 86
0001
0010
0001
0010
0000
1100
0000
1001
,  // measure 87
0000
0000
0001
0100
1000
0000
0100
0000
,  // measure 88
0010
1000
0000
0001
0000
0010
1000
0000
,  // measure 89
0110
0000
1000
0100
0001
0000
0100
0000
,  // measure 90
0010
0001
0000
1000
0000
0010
0001
0000
,  // measure 91
0110
0000
0001
1000
0100
0000
0001
0000
,  // measure 92
0100
0010
0000
1000
0000
0010
0001
0000
,  // measure 93
0011
0000
1000
0001
0100
0000
1000
0000
,  // measure 94
0100
0010
0000
1000
0100
0001
0020
0000
,  // measure 95
0000
0000
0000
0000
,  // measure 96
0000
0030
0000
0000
;
