#TITLE:Stage 5;
#SUBTITLE:;
#ARTIST:Lv.4;
#TITLETRANSLIT:;
#SUBTITLETRANSLIT:;
#ARTISTTRANSLIT:;
#GENRE:;
#CREDIT:Braeden;
#MUSIC:Stage 5.ogg;
#BANNER:Battle Royale 2022.png;
#BACKGROUND:Battle Royale 2022-bg.png;
#CDTITLE:;
#SAMPLESTART:99.561;
#SAMPLELENGTH:14.069;
#SELECTABLE:YES;
#OFFSET:-1.905;
#BPMS:0.000=145.000
,135.000=72.500
,151.000=145.000
;
#STOPS:83.500=0.414
,215.000=1.241
;
#BGCHANGES:;
#FGCHANGES:;

//--------------- dance-single - ----------------
#NOTES:
     dance-single:
     :
     Beginner:
     4:
     0,0,0,0,0:
0000
0000
0000
0000
,
0000
0000
0000
0000
,
1001
0000
0000
0000
,
0001
0000
0000
0000
,
1000
0000
0000
0000
,
0001
0000
0000
0000
,
0100
0000
0000
0000
,
0010
0000
0000
0000
,
1000
0000
0001
0000
,
2000
0000
3000
0000
,
1001
0000
0001
0000
,
1000
0000
0010
0000
,
0100
0000
0001
0000
,
0010
0000
0000
0000
,
0100
0000
1000
0000
,
0001
0000
1000
0000
,
0010
0000
0100
0000
,
0002
0000
0003
0000
,
0000
1001
0000
0001
,
0000
1001
0000
0001
,
0000
1001
0000
0001
,
1001
0000
1000
0000
,
1001
0000
0010
0000
,
1000
0000
0010
0000
,
0100
0000
0002
0000
,
0000
0000
0003
1001
,
0000
1000
0000
0001
,
0000
0000
0000
0100
,
0000
0010
0000
1000
,
0000
0000
0000
0001
,
0000
1000
0000
0010
,
0000
0000
0000
0100
,
0000
0001
0000
1000
,
0000
0000
0000
0002
,
0000
0003
0000
2000
,
0000
3000
0000
0002
,
0000
0003
0000
2000
,
0000
3000
0000
0001
,
0000
0001
0000
1000
,
0000
1000
0000
0010
,
0000
0010
0000
0100
,
0000
0100
0000
0001
,
0000
0001
0000
1000
,
0000
1000
0000
0010
,
0000
0010
0000
0200
,
0000
0000
0300
0010
,
0010
0010
0000
1000
,
1000
1000
0000
0001
,
0001
0001
0000
0100
,
0100
0100
0000
0010
,
0010
0010
0000
1000
,
1000
1000
0000
0001
,
0001
0001
0001
0001
,
0001
0001
0001
0001
,
0000
0000
0000
0000
,
1001
0000
1000
0000
,
0010
0000
0100
0000
,
0001
0000
1000
0000
,
0100
0000
0010
0000
,
0100
0000
1000
0000
,
0010
0000
0100
0000
,
0001
0000
1000
0000
,
0010
0000
1000
0000
,
1001
0000
0001
0000
,
0100
0000
0001
0000
,
0010
0000
0100
0000
,
1000
0000
0010
0000
,
0100
0000
0001
0000
,
1000
0000
0001
0000
,
0010
0000
0100
0000
,
1000
0000
0001
0000
,
1001
0000
1000
0000
,
0010
0000
0100
0000
,
0001
0000
0010
0000
,
0100
0000
1000
0000
,
0010
0000
1000
0000
,
0001
0000
0010
0000
,
0100
0000
1000
0000
,
0002
0000
0000
0003
;

//--------------- dance-single - ----------------
#NOTES:
     dance-single:
     :
     Easy:
     6:
     0,0,0,0,0:
0000
0000
0000
0000
,
0000
0000
0000
0000
,
1001
0001
1000
0010
,
1000
0001
0100
0001
,
1000
0010
1000
0100
,
1000
0001
1000
0010
,
1000
0001
0100
0001
,
0010
0100
1000
0010
,
0100
0001
0010
0001
,
2000
0000
3002
1003
,
1001
0001
1000
0010
,
1000
0100
0010
0001
,
0100
0010
0100
0001
,
1000
0100
1000
0010
,
1000
1000
0010
0100
,
0001
0001
0100
0010
,
1000
0001
1000
0010
,
0200
0000
0310
1000
,
0000
1010
1000
0001
,
1000
1001
0001
0100
,
0010
1010
1000
0100
,
1100
1000
0001
1000
,
1010
0010
0100
0001
,
0010
0100
1000
0001
,
1000
0010
1000
0002
,
0000
1003
0010
1010
,
1000
0020
0030
1000
,
0001
0200
0300
0010
,
1000
0002
0003
1000
,
0100
0020
0030
0100
,
0010
0002
0003
0000
,
0100
0010
2000
3000
,
0001
1000
0010
1000
,
0000
0000
1000
0002
,
0000
0000
0000
2003
,
0000
0000
0000
3020
,
0000
0000
0000
0230
,
0000
0000
0000
0301
,
1000
0001
1000
0010
,
1000
0010
1000
0001
,
0100
0001
0100
0010
,
1000
0010
1000
0001
,
1000
0010
0100
0001
,
0100
0010
0100
0001
,
1000
0100
0010
0200
,
2300
3020
1030
0101
,
0100
0010
1000
0001
,
0010
0100
1000
1001
,
0001
0100
0010
1000
,
0100
1000
0001
1001
,
1000
0010
0100
0101
,
0001
0010
0001
0101
,
0100
1010
0010
1001
,
1001
0110
0110
1001
,
0000
0000
0000
0000
,
1001
0001
1000
0010
,
1000
0001
0010
0100
,
1000
0010
0100
0001
,
1000
0100
0010
0001
,
1000
0010
1000
0010
,
0100
0001
0010
0001
,
0100
0010
0100
0001
,
1000
0100
0010
0001
,
1001
1000
0010
1000
,
0001
0100
0010
0100
,
0001
1000
0100
1000
,
0001
0100
0010
0100
,
0001
1000
0100
1000
,
0001
0010
0100
1000
,
0001
0010
0001
0010
,
0100
1000
0100
1000
,
1001
0001
0100
0001
,
0100
0010
1000
0010
,
1000
0001
0010
0100
,
1000
0010
0100
0001
,
0010
0001
0100
0010
,
1000
0001
1000
0010
,
0100
0001
0100
0010
,
2000
0000
3100
0010
;

//--------------- dance-single - ----------------
#NOTES:
     dance-single:
     :
     Medium:
     11:
     0,0,0,0,0:
0000
0000
0000
0000
,
0000
0000
0000
0000
,
1001
0001
0100
0001
,
1000
0010
1000
0010
,
0100
0001
0010
0100
,
1000
0001
1000
0010
,
1000
0000
0000
0100
0000
0000
1000
0000
0010
0000
0000
0000
0100
0000
0001
0000
,
0100
0000
0000
0010
0000
0000
1000
0000
0100
0000
0000
0000
0010
0000
0001
0000
,
1000
0001
1000
0010
,
2000
0000
0000
0010
0000
0000
0010
0000
3010
0000
0000
0000
0100
0000
0001
0000
,
0101
0000
0001
0000
1000
0000
0100
0010
,
0001
0000
0100
0000
0010
0000
1000
0001
,
1000
0000
0010
0000
0100
0000
0001
0010
,
0001
0000
0100
0000
0010
0000
1000
0001
,
1000
0100
1000
0010
1000
0010
0100
0001
,
0010
0001
0100
0010
0100
0001
1000
0100
,
0010
0001
0010
0001
0010
0001
0010
0001
,
0200
0000
0320
1030
,
0000
0000
1010
0000
0010
0000
1000
0001
,
1000
0000
1001
0000
0001
0100
0010
1000
,
0000
0000
1001
0000
0001
0100
0010
1000
,
1001
0000
0001
0010
0100
1000
0000
0000
,
1001
0000
0001
0010
0100
0010
0001
0000
,
1000
0000
0000
0001
0000
0000
0100
0000
0010
0000
0100
0000
0010
0000
0000
0000
,
1000
0000
0001
1000
0010
1000
0002
0000
,
0000
0203
0310
1010
,
0010
0000
0000
1000
0000
0000
0001
0000
1000
0000
0000
0000
0002
0000
0000
0000
,
0103
0000
0000
0001
0000
0000
0010
0000
0001
0000
0000
0000
2000
0000
0000
0000
,
3010
0000
0000
1000
0000
0000
0100
0000
0010
0000
0000
0000
0002
0000
0000
0000
,
1003
0000
0000
0010
0000
0000
1000
0000
0001
0000
0000
0000
2000
0000
0000
0000
,
3010
0000
0000
0100
0000
0000
0001
0000
0100
0000
0000
0000
0020
0000
0000
0000
,
1030
0000
0000
0001
0000
0000
1000
0000
0010
0000
0000
0000
2000
0000
0000
0000
,
3001
0000
0000
0100
0000
0000
0010
0000
1000
0000
0000
0000
0001
0000
0000
1000
,
0000
0010
1000
0000
0001
0000
2000
0000
,
0000
0000
0000
3020
,
0000
0000
0000
0230
,
0000
0000
0000
0302
,
0000
0000
0000
0000
0000
0003
1001
0000
,
1000
0000
0000
0010
0000
0000
0100
0000
0001
0000
0010
0000
0001
0000
0000
0000
,
0001
0000
0000
0100
0000
0000
0010
0000
1000
0000
0100
0000
0010
0000
0000
0000
,
0100
0000
0000
0010
0000
0000
0100
0000
1000
0000
0010
0000
1000
0000
0000
0000
,
0001
1000
0010
0100
0001
0010
0100
0000
,
1000
0000
0000
0001
0000
0000
1000
0000
0010
0000
0100
0000
0010
0000
0000
0000
,
1000
0000
0000
0001
0000
0000
1000
0000
0010
0000
1000
0000
0001
0000
0000
0000
,
0100
0000
0000
0010
0000
0000
1000
0000
0001
0000
1000
0000
0002
0000
0000
0000
,
0203
0000
0320
0000
0230
0000
0301
0010
,
0001
0010
0001
0010
0001
0010
0100
1000
,
0100
1000
0100
1000
0100
1000
0001
0100
,
0001
0010
0001
0100
0010
1000
0100
1000
,
0100
1000
0001
0010
0100
1000
0001
0100
,
0001
0100
0001
0010
0100
1000
0001
0010
,
0001
0100
0010
1000
0100
1000
0001
0010
,
0001
0010
0100
1000
0100
1000
0020
0000
,
0230
0302
1003
1010
,
0000
0000
0000
0000
,
1001
0000
0000
0000
1000
0000
0000
0001
0000
0000
1000
0000
0010
0000
1000
0000
,
0010
0000
0000
0000
0100
0000
0000
0001
0000
0000
0010
0000
0001
0000
0100
0000
,
0010
0000
0000
0000
1000
0000
0000
0100
0000
0000
0010
0000
0001
0000
0100
0000
,
0010
0000
1000
0100
0010
0001
0100
0010
,
1000
0000
0000
0000
0001
0000
0000
1000
0000
0000
0010
0000
1000
0000
0001
0000
,
0100
0000
0000
0000
0001
0000
0000
0010
0000
0000
0100
0000
1000
0000
0001
0000
,
1000
0000
0000
0000
0010
0000
0000
0100
0000
0000
0001
0000
0010
0000
0001
0000
,
0100
0000
0010
0000
1000
0001
1000
0010
,
1010
0000
1000
0000
0001
0000
0100
0010
,
0100
0000
0001
0000
1000
0000
0100
0010
,
0100
0000
1000
0000
0001
0000
0100
0010
,
0100
0000
0001
0000
1000
0100
0010
0001
,
1000
0010
0000
0000
0100
0000
0001
1000
0000
0000
0001
0000
1000
0000
0001
0000
,
1000
0010
0000
0000
0100
0000
0001
1000
0000
0000
0001
0000
1000
0000
0100
0000
,
1000
0000
0000
0000
0010
0000
0000
1000
0000
0000
0001
0000
1000
0000
0010
0000
,
1000
0000
0001
0000
1000
0100
0010
0001
,
1001
0000
0000
0000
1000
0000
0000
0001
0000
0000
0010
0000
1000
0000
0010
0000
,
0001
0000
0000
0000
1000
0000
0000
0100
0000
0000
0001
0000
0100
0000
1000
0000
,
0001
0000
0000
0000
1000
0000
0000
0010
0000
0000
0001
0000
0010
0000
1000
0000
,
0010
0000
0100
0001
0010
0001
0100
0010
,
1000
0100
1000
0100
1000
0100
1000
0100
,
0010
0001
0010
0001
0010
0001
0010
0001
,
1000
0010
0100
0001
1000
0010
0100
0001
,
1000
0000
0000
0010
0000
0000
1000
0000
0002
0000
0000
0000
1003
0000
0000
0000
,
0101
0000
0000
0000
;

//--------------- dance-single - ----------------
#NOTES:
     dance-single:
     :
     Hard:
     14:
     0,0,0,0,0:
0000
0000
0000
0000
,
0000
0000
0000
0000
,
1001
0001
0010
0001
1000
0001
0010
0001
,
1000
0010
0100
0010
1000
0010
0100
0010
,
1000
0100
1000
0100
1000
0010
0100
0001
,
1000
0000
0001
1000
0000
1000
0010
0000
0010
0100
0000
0100
0001
0000
1000
0000
,
0001
0000
1000
0010
0000
0010
0100
0000
0100
0001
0000
0001
1000
0000
0010
0000
,
0100
0000
0001
0010
0000
0010
0100
0000
0100
1000
0000
1000
0001
0000
0100
0000
,
0001
0001
1000
1000
0001
0001
0100
0100
,
0002
0000
0000
0000
2003
0000
3010
0100
,
0101
0000
0001
0100
0000
0100
0010
0000
0010
1000
0000
1000
0001
0000
0100
0000
,
0001
0000
0100
0001
0000
0001
1000
0000
1000
0010
0000
0010
0100
0000
0001
0000
,
1000
0000
0001
0100
0000
0100
0010
0000
0010
1000
0000
1000
0100
0000
0010
0000
,
0001
0000
1000
0100
0000
0100
0010
0000
0010
0100
0000
0100
1000
0000
0001
0000
,
1000
0000
0001
0010
0000
0001
0100
0000
0001
0010
0000
0001
1000
0000
0010
0000
,
0100
0000
0001
0010
0000
0001
0100
0000
0001
1000
0000
0001
0100
0000
0010
0000
,
1000
0000
1000
0000
0001
0000
0001
0000
0100
0000
0100
0000
0010
1000
0010
1000
,
0001
0000
0000
0101
0000
0000
0110
0000
0020
0000
0000
0000
1030
0000
0001
0000
,
0000
0000
1001
0001
0100
0010
1000
0100
,
0010
0001
0010
0001
1000
0000
0001
0000
0010
0000
0100
0000
1000
0000
0010
0000
,
0100
0000
0101
0100
0001
1000
0010
0100
,
0101
0000
0001
0000
1000
0000
0100
0000
1000
0010
0100
0001
0000
0000
0000
0000
,
1001
0000
1000
0000
0100
0000
1000
0000
0010
0100
0010
0000
1000
0000
0001
0000
,
2000
0000
0000
3001
0000
0100
0000
0000
0010
0000
1000
0000
0010
0000
0100
0000
,
0001
0000
0010
0000
1000
0000
0010
0000
0001
0100
0001
1000
0010
0000
0000
0110
,
0000
0000
0101
0000
0002
0000
0000
0000
1003
0000
0001
1000
0002
0000
0000
0000
,
0100
0000
0000
0103
0000
0000
0001
0000
1000
0000
0100
0000
0020
0000
0000
0000
,
0001
0000
0000
0031
0000
0000
0100
0000
0010
0000
0100
0000
0002
0000
0000
0000
,
0100
0000
0000
0103
0000
0000
0010
0000
1000
0000
0100
0000
2000
0000
0000
0000
,
0010
0000
0000
3010
0000
0000
0100
0000
0001
0000
0010
0000
0200
0000
0000
0000
,
1000
0010
0001
0010
,
1000
0000
0010
0000
1300
0000
0001
1000
,
0001
0000
0000
0000
0100
0000
0000
0000
0010
0000
0000
0000
1000
0000
0000
1000
,
0000
0010
0100
0000
0001
0000
2000
0000
,
0000
0000
0000
3002
,
0000
0000
0000
0203
,
0000
0000
0000
0320
,
0000
0000
0000
0000
0000
0000
1030
0100
,
0001
0100
1000
0010
0100
0001
1000
0100
,
0001
0100
1000
0010
0100
0001
1000
0100
,
0001
0100
1000
0010
0100
0001
0010
1000
,
0010
0001
0100
0010
1000
0010
0100
0001
,
0010
1000
0010
0001
1000
0010
1000
0100
,
0001
0100
0010
0001
1000
0001
0010
1000
,
0010
0001
0100
0010
1000
0010
0200
0000
,
0302
0000
0000
0000
2003
0000
0000
0000
3002
0000
0000
0000
1003
0010
1000
0010
,
1000
0010
1000
0010
0100
0001
0100
0000
0010
1000
0010
0000
1000
0100
1000
0100
,
1000
0100
1000
0100
0010
0001
0010
0000
0001
1000
0001
0000
1001
0000
1000
0000
,
0010
0000
0100
0000
0001
1000
0001
0000
1000
0010
1000
0000
0001
0010
0001
0010
,
0000
0010
0001
0010
0100
1000
0100
0000
1000
0010
0100
0000
0101
0000
0001
0100
,
0000
0001
1000
0001
1000
0100
0010
0000
0001
0100
0010
0000
1010
0000
1000
0100
,
0000
0010
0001
0000
1000
0010
1000
0000
0001
0100
0001
0000
1001
0000
1000
0010
,
0000
0100
0001
0000
0101
0000
0001
0000
0100
0000
0010
0000
1010
0000
0010
0000
,
0110
0100
0002
0000
2003
0000
3001
0000
,
0000
0000
0000
0000
,
0001
1000
0000
1000
0010
0000
0010
0100
0000
0100
0001
0000
1000
0000
0010
0000
,
0100
0001
0000
0001
0010
0000
0010
0100
0000
0100
1000
0000
0001
0000
0100
0000
,
0010
1000
0000
1000
0010
0000
0010
0100
0000
0100
0001
0000
1000
0000
0010
0000
,
0100
0001
0000
0001
0010
0000
0100
0000
1000
0001
1000
0000
0001
0100
0001
0100
,
0001
0010
0000
0100
1000
0000
0001
0010
0000
0100
1000
0000
0001
0000
0100
0000
,
0001
0100
0000
0010
1000
0000
0001
0100
0000
0010
1000
0000
0001
0000
1000
0000
,
0010
0100
0000
0010
1000
0000
0010
0100
0000
0010
1000
0000
0001
0000
0100
0000
,
0001
0010
0000
0100
1000
0000
0010
0100
0001
0000
0001
0000
1000
0000
1000
0000
,
0001
0010
0000
0001
0100
0000
0001
0010
0000
0001
1000
0000
0001
0100
0001
0000
,
1000
0010
0000
1000
0100
0000
1000
0010
0000
0100
0001
0000
1000
0100
1000
0000
,
0001
0010
0000
0001
0100
0000
0010
1000
0000
0100
1000
0000
0001
0010
0001
0000
,
1000
0010
0000
0100
0001
0000
1000
0010
1000
0100
1000
0000
0001
0010
0001
0000
,
1000
0010
0000
0010
0100
0000
0100
0010
0000
0010
1000
0000
0001
0100
0001
0000
,
1000
0100
0000
0100
0010
0000
0010
0100
0000
0100
1000
0000
0001
0100
0010
0000
,
1000
0100
0000
0100
0010
0000
0010
0001
0000
0001
1000
0000
0010
1000
0010
0000
,
0100
0001
0000
1000
0010
0000
0100
0001
1000
0100
0010
0000
0001
0100
0010
0000
,
1000
0001
0000
0000
0001
0000
0000
1000
0000
0000
0001
0000
1000
0010
1000
0100
,
1000
0010
0000
0000
0100
0000
0000
0001
0000
0000
0010
0000
0001
0010
0100
1000
,
0001
0100
0000
0000
0010
0000
0000
1000
0000
0000
0010
0000
1000
0100
0010
0001
,
1000
0010
0000
0100
0001
0000
1000
0100
0010
0001
0010
0000
0100
1000
0100
0000
,
1000
0010
0000
0100
0001
0000
1000
0010
0000
0100
0001
0000
1000
0100
1000
0100
,
0010
0001
0000
1000
0010
0000
0100
0010
0000
1000
0010
0000
0100
0001
0100
0001
,
1000
0000
0010
0000
0100
0000
0001
0000
1000
0000
0100
0000
0010
0001
0010
0001
,
1000
0000
0000
1001
0000
0000
0101
0000
0001
0010
0100
1000
0001
0100
0010
1000
,
0002
0000
0003
0000
;

//--------------- dance-single - ----------------
#NOTES:
     dance-single:
     :
     Challenge:
     17:
     0,0,0,0,0:
0000
0000
0000
0000
,
0000
0000
0000
0000
,
1000
0000
0001
0010
0000
0100
1000
0000
0001
0100
0000
0010
1000
0000
0001
0000
,
1000
0000
0001
0100
0000
0010
1000
0000
0001
0010
0000
0100
1000
0000
0001
0000
,
1000
0000
0010
0100
0000
0001
0100
0000
0010
1000
0000
0010
0100
0000
0001
0000
,
1000
0000
0100
0010
0000
0001
0010
0000
0100
1000
0000
0001
0010
0000
0100
0000
,
1100
0000
1000
0010
0000
0100
0001
0000
1000
0100
0000
0010
0001
0000
1000
0000
,
0001
0000
0010
0100
0000
1000
0100
0000
0010
0001
0000
1000
0010
0000
0100
0000
,
0001
0001
1000
1000
0010
0010
0100
0100
,
0002
0000
0000
0000
2003
0000
3010
0010
,
0100
0000
0001
0100
0000
0010
1000
0000
0001
0010
0000
0100
1000
0000
0001
0000
,
1000
0000
0010
0100
0000
0010
1000
0000
0010
0100
0000
0010
1000
0000
0001
0000
,
0010
0000
0100
1000
0000
0100
1000
0000
0010
0100
0000
0010
0100
0000
0001
0000
,
1000
0000
0100
0010
0000
0001
0010
0000
0100
1000
0000
0010
0100
0000
0001
0000
,
1000
0000
0010
0000
1000
0000
0100
0000
1000
0000
0010
0000
0100
0001
0100
0001
,
1000
0000
0010
0000
0100
0000
0010
0000
1000
0000
0001
0000
0010
0100
0010
0100
,
1000
0000
1000
0000
0001
0000
0001
0000
0100
0000
0100
0000
0001
1000
0001
0000
,
0101
0000
0000
0110
0000
0000
1010
0000
0000
1100
0000
0000
1000
0000
0001
1000
,
0020
0000
0000
0000
0130
0000
0001
0100
0000
0001
0100
0000
0010
0000
1000
0000
,
0001
1000
0001
1000
0100
0000
0010
0001
0000
0100
0010
0000
1000
0000
0001
0000
,
1000
0000
1000
0000
1001
0000
0001
0000
0100
0010
0000
1000
0010
0000
0010
0000
,
0100
0001
0100
0001
1000
0000
1000
0000
0001
1000
0001
1000
0000
0010
0100
0000
,
0101
0000
0001
0000
1000
0010
1000
0000
0001
0000
0001
0000
1000
0010
0100
0001
,
0200
0000
0000
0000
0310
1000
0010
1000
0001
0010
0001
1000
0001
0010
0100
1000
,
0001
0010
0001
0100
0001
1000
0100
1000
0001
0010
0100
1000
0200
0000
0000
0000
,
0310
0001
0010
0001
1000
0010
1000
0010
0100
0001
0010
0001
2000
0000
0000
0000
,
0001
0000
0000
0100
0000
0000
3100
0000
0000
0000
0000
0000
0002
0000
0000
0000
,
1000
0000
0000
0100
0000
0000
0103
0000
0000
0000
0000
0000
0020
0000
0000
0000
,
1000
0000
0000
1000
0000
0000
1030
0000
0000
0000
0000
0000
0002
0000
0000
0000
,
1000
0000
0000
1000
0000
0000
0103
0000
0000
0000
0000
0000
0001
0000
1000
0000
,
0001
0000
0000
0100
0000
0000
0100
0000
0000
0000
0100
0001
1000
0000
0001
0000
,
0001
0000
0000
0100
0000
0000
0010
1000
0010
0000
0100
0001
0100
0000
0001
0000
,
1000
0000
0000
0010
0100
0000
0001
0000
1000
0000
0001
0100
0001
0000
0000
1000
,
0000
0010
0100
0001
0010
0001
2002
0000
,
0000
0000
3000
2003
,
0000
0000
0000
3020
,
0000
0000
0000
2030
,
0000
0000
0000
0000
0000
0000
0000
0000
0000
0000
0000
0000
3001
1000
0001
1000
,
0001
0010
0100
1000
0010
0100
0001
0010
0001
0100
0010
1000
0001
0100
0001
1000
,
0100
0010
0001
1000
0100
1000
0010
1000
0001
0010
0100
1000
0001
0100
0001
1000
,
0010
1000
0001
0010
0001
1000
0010
1000
0001
0010
0100
1000
0001
0100
0001
1000
,
0100
0010
0001
0100
0001
1000
0010
1000
0001
1000
0100
0010
0001
0100
0001
1000
,
0100
1000
0001
0100
0010
1000
0100
1000
0001
0010
0100
1000
0001
0100
0001
1000
,
0010
1000
0001
0010
0100
1000
0010
0100
0001
1000
0001
1000
0010
0100
0010
1000
,
0100
1000
0001
0010
0100
1000
0010
1000
0001
0010
0100
1000
0002
0000
0000
0000
,
0000
0000
0000
0000
2003
0000
0000
0000
3002
0000
0000
0000
1003
0010
1000
0010
,
1000
0010
1000
0010
0100
0001
0100
0001
0100
0001
0100
0001
1000
0100
1000
0100
,
1000
0100
1000
0100
0010
0001
0010
0001
0010
0001
0010
0001
1000
0010
0100
0001
,
0100
0010
1000
0001
1000
0100
0010
0001
1000
0100
0010
0001
1000
0100
1000
0010
,
1000
0001
0010
0001
1000
0010
0100
0010
1000
0100
0010
0001
1000
0010
1000
0100
,
0010
0001
0100
0010
1000
0100
1000
0001
0010
0100
0010
0100
1000
0001
1000
0001
,
0100
0010
1000
0001
0010
0100
1000
0100
0010
0001
1000
0001
0100
0010
1000
0010
,
1000
0100
0010
0001
1000
0010
0100
0001
1000
0100
0010
0001
1000
0000
0000
0000
,
1001
1010
0101
0110
,
0000
0000
0000
0000
,
0001
1000
0000
0001
0100
0000
0001
0100
0000
0010
1000
0000
0001
0010
0100
1000
,
0001
0100
0000
0010
1000
0000
0001
0010
0000
0100
1000
0000
0010
0100
0010
1000
,
0010
0100
0000
0001
0010
0000
0100
1000
0000
0010
0100
0000
0001
1000
0100
0010
,
0001
0100
0000
0001
0100
0000
0010
1000
0100
1000
0010
0000
1000
0100
0010
0001
,
0010
0100
0000
0010
0001
0000
0010
0100
0000
0010
0001
0000
1000
0010
0100
0001
,
0010
0100
0000
1000
0010
0000
0100
0001
0000
0010
0100
0000
1000
0001
0100
0010
,
1000
0100
0000
0010
0001
0000
0100
0001
0000
0010
0100
0000
1000
0010
0100
0001
,
0010
0100
0000
1000
0001
0000
0100
0010
1000
0100
0010
0001
1000
0100
1000
0100
,
1000
0010
0000
0100
0001
0000
1000
0010
0000
0100
0001
0000
1000
0010
0100
0001
,
0100
0010
0000
1000
0100
0000
0010
0001
0000
0010
0100
0000
1000
0100
0010
0100
,
1000
0001
0000
1000
0010
0000
1000
0100
0000
1000
0010
0000
0100
0001
0100
0001
,
0010
0100
0000
0010
0001
0000
1000
0010
0100
0001
1000
0100
1000
0010
0100
0001
,
1000
0100
0000
1000
0010
0000
1000
0100
0000
1000
0010
0000
0100
0001
0100
0001
,
0010
0100
0000
1000
0010
0000
1000
0100
0000
1000
0010
0000
0100
0001
0010
0100
,
1000
0001
0000
1000
0100
0000
0010
0001
0000
0010
0001
0000
1000
0010
0100
0001
,
0010
0100
0000
1000
0001
0010
0100
0010
0001
0100
0010
1000
0001
0010
0100
1000
,
0001
0100
0010
1000
0001
0000
1000
0100
0010
0001
1000
0000
0100
1000
0100
1000
,
0001
0100
0010
1000
0001
0000
1000
0100
0010
0001
1000
0000
0100
0010
0100
0010
,
0001
0100
0010
1000
0001
0000
0010
0100
1000
0100
0010
0000
0001
0100
0001
0010
,
0001
1000
0100
0010
0001
0000
1000
0010
1000
0100
0010
0001
1000
0010
0100
0001
,
1000
0010
1000
0100
0010
0000
0001
0100
0001
0010
0100
0000
1000
0010
1000
0010
,
0100
0001
0010
0100
1000
0000
0001
0100
0010
1000
0100
0000
0010
0001
0010
0001
,
1000
0010
0100
0001
0010
0000
0100
1000
0010
1000
0100
0000
0010
0001
0100
0001
,
1000
0000
0000
0011
0000
0000
1100
0000
0000
1001
0000
0000
0001
0010
0100
0010
,
0100
0000
0000
0000
;

//--------------- dance-double - ----------------
#NOTES:
     dance-double:
     :
     Challenge:
     16:
     0,0,0,0,0:
00000000
00000000
00000000
00000000
,
00000000
00000000
00000000
00000000
,
00010000
00001000
00010000
00001000
00010000
00000100
00010000
00000100
,
00001000
00000010
00001000
00000010
00000100
00000001
00000100
00000001
,
00001000
00000100
00001000
00000010
00010000
00001000
00010000
00000100
,
00010000
00001000
00100000
00010000
01000000
00100000
10000000
01000000
,
10000000
00000000
00100000
10000000
00000000
10000000
00010000
00000000
00010000
01000000
00000000
01000000
00001000
00000000
00010000
00000000
,
00001000
00000000
00010000
00001000
00000000
00001000
00010000
00000000
00010000
00000100
00000000
00000100
00001000
00000000
00000010
00000000
,
00000100
00000100
00000001
00000001
00001000
00001000
00000001
00000001
,
00002000
00000000
00000000
00003020
00000000
00000000
00010030
00000000
00002000
00000000
00000000
00000000
00013000
00000000
00001000
00000000
,
00101000
00000000
00100000
00010000
00000000
00010000
10000000
00000000
10000000
01000000
00000000
01000000
00100000
00000000
00010000
00000000
,
00100000
00000000
00001000
00100000
00000000
00100000
00010000
00000000
00010000
00100000
00000000
00100000
00001000
00000000
00010000
00000000
,
00000100
00000000
00001000
00000010
00000000
00000010
00000100
00000000
00000100
00000001
00000000
00000001
00000100
00000000
00000010
00000000
,
00001000
00000000
00000001
00001000
00000000
00001000
00000100
00000000
00000100
00010000
00000000
00010000
00000010
00000000
00010000
00000000
,
00001000
00000000
00010000
00001000
00000000
00100000
00010000
00000000
10000000
00010000
00000000
00100000
01000000
00000000
10000000
00000000
,
00010000
00000000
01000000
00001000
00000000
00100000
00001000
00000000
00010000
00001000
00000000
00100000
00001000
00000000
00010000
00000000
,
00000100
00000000
00001000
00000100
00001000
00000010
00000100
00000000
00000010
00001000
00000100
00001000
00000010
00000100
00000001
00001000
,
00000001
00000000
00000000
00000101
00000000
00000000
00000110
00000000
00000020
00000000
00000000
00000000
00000130
00000000
00000001
00000000
,
00000100
00000000
00000000
00000000
00001010
00000000
00000000
00000100
00010000
00000100
00000000
00010000
00001000
00000000
00010000
00000000
,
00002000
00000000
00003000
00000000
00001000
00100000
00000000
00100000
00010000
01000000
00000000
00000000
00010000
01000000
00010000
00000000
,
10000000
00000000
00010000
00000000
10000000
01000000
00010000
01000000
00100000
00010000
01000000
00000000
00100000
00000000
00100000
00000000
,
01000000
00001000
00100000
00001000
00010000
00000100
00001000
00000000
00000100
00001000
00000100
00010000
00000000
00000000
00000000
00000000
,
00001010
00000000
00000010
00000000
00000100
00000001
00000100
00000001
00000100
00000000
00000001
00000000
00000010
00000100
00000010
00000100
,
00001000
00000000
00000100
00010000
00000000
00001000
00010000
00000000
00001000
00000000
00001000
00000000
00100000
00010000
00100000
00010000
,
01000000
00000000
00100000
10000000
00010000
10000000
00010000
00000000
01000000
00100000
01000000
00100000
10000000
00000000
00000000
10010000
,
00000000
00000000
01010000
00000000
00010000
01000000
00010000
00100000
00020000
00000000
00130000
00001000
00020000
00000000
00000000
00000000
,
00000010
00000000
00000000
00000010
00030000
00000000
00001000
00000100
00001000
00000000
00000001
00000100
00000002
00000000
00000000
00000000
,
00001000
00000000
00000000
00000103
00000000
00000000
00000001
00001000
00000010
00000000
00000100
00000001
00002000
00000000
00000000
00000000
,
00000100
00000000
00000000
00003001
00000000
00000000
00000100
00000010
00010000
00000000
00001000
00010000
00002000
00000000
00000000
00000000
,
00010000
00000000
00000000
00100000
00003000
00000000
00001000
00100000
00001000
00000000
00100000
00010000
20000000
00000000
00000000
00000000
,
00010000
00000000
00000000
31000000
00000000
00000000
00100000
01000000
00010000
00000000
01000000
00100000
20000000
00000000
00000000
00000000
,
00010000
00000000
00000000
31000000
00000000
00000000
01000000
00100000
01000000
00000000
10000000
00010000
00100000
00000000
00000000
00000000
,
00001000
00000000
00000000
00000000
00010000
00000000
00000000
00000000
00000100
00000000
00000000
00000000
00010000
00000000
00000000
00000100
,
00000000
00001000
00000010
00001000
00000100
00010000
00002000
00000000
,
00000000
00000000
00000000
02003000
,
00000000
00000000
00000000
03000200
,
00000000
00000000
00000000
02000300
,
00000000
00000000
00000000
00000000
00000000
00000000
00000000
00000000
00000000
00000000
00000000
00000000
03001000
00010000
00000000
00010000
,
00001000
00000000
00001000
00100000
00000000
00100000
00001000
00000000
00100000
00010000
00100000
00010000
10000000
00100000
00000000
10000000
,
01000000
00000000
10000000
00100000
00000000
10000000
00010000
00000000
10000000
01000000
00100000
00010000
10000000
00100000
00000000
01000000
,
00010000
00000000
00100000
00001000
00000000
00010000
00000100
00000000
00001000
00000010
00001000
00000100
00010000
00001000
00000000
00010000
,
00000100
00000000
00010000
00001000
00010000
00000100
00010000
00000000
00000100
00001000
00000100
00001000
00000010
00000100
00000000
00000001
,
00000100
00000000
00000010
00000100
00000000
00000001
00001000
00000000
00000100
00010000
00001000
00010000
00000100
00010000
00000000
00001000
,
00010000
00000000
00001000
00100000
00000000
00001000
00010000
00000000
00001000
00100000
00010000
01000000
00010000
01000000
00000000
00010000
,
10000000
00000000
01000000
00100000
00000000
00010000
00100000
00000000
01000000
10000000
00100000
01000000
00020000
00000000
00000000
00000000
,
20030000
00000000
00000000
00000000
30002000
00000000
00000000
00000000
00013000
00000000
00000000
00000000
00001000
00010000
00001000
00010000
,
00001000
00010000
00001000
00010000
00000010
00000100
00000010
00001000
00000001
00000010
00000001
00001000
00000010
00000100
00000010
00000100
,
00000010
00000100
00000010
00000100
00000001
00000010
00000001
00001000
00000010
00010000
00000010
00001000
00000100
00010000
00000100
00010000
,
00000100
00010000
00000100
00010000
00001000
01000000
00001000
00100000
00010000
10000000
00010000
00100000
01000000
10000000
01000000
10000000
,
01000000
10000000
01000000
10000000
00100000
01000000
00100000
10000000
00010000
01000000
00100000
01000000
00010000
10000000
00010000
10000000
,
00010000
10000000
00010000
10000000
00100000
01000000
00100000
10000000
00010000
00100000
01000000
10000000
00010000
00100000
00010000
00100000
,
00010000
00100000
00010000
00100000
00001000
00010000
00001000
01000000
00010000
00100000
00010000
01000000
00001000
00010000
00001000
00010000
,
00001000
00010000
00001000
00010000
00000100
00001000
00000100
00010000
00000100
00001000
00000010
00000100
00000001
00000000
00000000
00000000
,
00001010
00010100
00011000
00101000
,
00000000
00000000
00000000
00000000
,
00001000
00010000
00000000
00001000
00010000
00000000
00001000
00010000
00000000
00001000
00010000
00000000
00001000
00100000
00010000
01000000
,
00100000
10000000
00000000
00100000
10000000
00000000
00100000
10000000
00000000
00100000
10000000
00000000
00010000
00100000
01000000
10000000
,
00010000
01000000
00000000
00010000
01000000
00000000
00010000
01000000
00000000
00010000
01000000
00000000
00100000
10000000
01000000
00100000
,
00001000
00010000
00000000
00000100
00001000
00000000
00000010
00000100
00000001
00000010
00000001
00000000
00001000
00000100
00001000
00000010
,
00000100
00000001
00000000
00000100
00000010
00000000
00000100
00000001
00000000
00000100
00000010
00000000
00001000
00000100
00001000
00000100
,
00010000
00001000
00000000
00010000
00000010
00000000
00010000
00000010
00000000
00010000
00000100
00000000
00010000
00001000
00100000
00010000
,
01000000
00100000
00000000
01000000
00100000
00000000
10000000
00010000
00000000
10000000
00010000
00000000
10000000
01000000
00100000
00010000
,
10000000
00100000
00000000
01000000
00010000
00000000
10000000
00010000
01000000
00100000
01000000
00000000
10000000
00010000
00100000
00010000
,
10000000
01000000
00000000
01000000
00010000
00000000
00010000
01000000
00000000
01000000
10000000
00000000
00100000
01000000
00010000
00100000
,
00001000
00010000
00000000
00010000
00000100
00000000
00000100
00001000
00000000
00001000
00000010
00000000
00000100
00000001
00000100
00000010
,
00001000
00000001
00000000
00001000
00000100
00001000
00000010
00001000
00000000
00000001
00000010
00000000
00000100
00001000
00000100
00001000
,
00000010
00010000
00000000
00001000
00010000
00000000
00001000
00100000
00010000
01000000
00010000
10000000
00010000
00100000
01000000
10000000
,
00010000
00100000
00000000
00010000
01000000
00000000
00001000
00010000
00000000
00001000
00100000
00000000
00001000
00010000
00000100
00001000
,
00000010
00000100
00000000
00000001
00000010
00000000
00000100
00010000
00000000
00001000
00100000
00000000
00010000
01000000
00010000
00100000
,
00001000
00100000
00000000
00010000
10000000
01000000
10000000
00010000
00000000
01000000
00100000
00000000
10000000
00010000
10000000
00010000
,
01000000
00001000
00000000
00010000
00001000
00000000
00010000
00001000
00010000
00000100
00010000
00001000
00010000
00000100
00001000
00000100
,
00001000
00000010
00000000
00000001
00000010
00000000
00001000
00000100
00000000
00001000
00000010
00000000
00001000
00000100
00010000
00001000
,
00100000
00010000
00000000
00100000
01000000
00100000
10000000
00100000
00000000
00010000
00100000
00000000
00010000
00100000
00001000
00010000
,
00001000
00100000
00000000
00100000
01000000
10000000
00100000
01000000
00000000
00001000
00010000
00000000
00001000
00010000
00000100
00001000
,
00000100
00001000
00000000
00000010
00000001
00000000
00000010
00001000
00000010
00010000
00001000
00000000
00010000
00001000
00100000
00010000
,
10000000
01000000
00000000
01000000
00010000
00000000
00001000
00000100
00000000
00000100
00000001
00000000
00000010
00000100
00001000
00000100
,
00010000
00001000
00000000
00100000
00010000
00000000
10000000
00100000
01000000
00100000
10000000
00000000
00010000
01000000
00010000
00100000
,
00001000
00000000
00001000
00000000
00010000
00000000
00010000
00000000
00000100
00000000
00000100
00000000
00001000
00000001
00001000
00000001
,
00001000
00000000
00000000
00001100
00000000
00000000
00010100
00000000
00010000
00001000
00010000
00000000
00001000
00100000
00010000
10000000
,
01000000
00000000
00000000
00000000
;
