#TITLE:SIGMA;
#SUBTITLE:;
#ARTIST:BEMANI Sound Team "Mutsuhiko Izumi";
#TITLETRANSLIT:;
#SUBTITLETRANSLIT:;
#ARTISTTRANSLIT:Mutsuhiko Izumi;
#GENRE:HARDROCK;
#CREDIT:;
#MUSIC:SIGMA.ogg;
#BANNER:SIGMA.png;
#BACKGROUND:SIGMA-bg.png;
#CDTITLE:;
#SAMPLESTART:10.311;
#SAMPLELENGTH:15.000;
#SELECTABLE:YES;
#OFFSET:0.852;
#BPMS:0.000=130.000;
#STOPS:;
#BGCHANGES:2.100=SIGMA.avi=1.000=0=0=1=====,
99999=-nosongbg-=1.000=0=0=0 // don't automatically add -songbackground-
;
#FGCHANGES:;

//--------------- dance-single - forcednature ----------------
#NOTES:
     dance-single:
     forcednature:
     Beginner:
     5:
     0,0,0,0,0:
0000
0000
0000
0000
,
0000
0000
0000
0000
,
0000
0000
0000
0000
,
0000
0000
0000
0000
,
0000
0000
0000
0000
,
0000
0000
0000
0000
,
1000
1000
0001
0001
,
0100
0000
0010
0000
,
0001
0001
1000
1000
,
0100
0000
0010
0000
,
1001
0000
0001
0100
,
0001
0000
1000
0100
,
1000
0000
0010
0100
,
0010
1000
0001
0000
,
1000
0100
0010
0001
,
0100
0100
0100
0000
,
0001
0100
0010
1000
,
0100
0100
0100
0000
,
2002
0000
0000
0000
,
0000
0000
3003
0000
,
0001
0001
0001
0001
,
1000
1000
1000
0000
,
2002
0000
0000
0000
,
0000
0000
3003
0000
,
1000
1000
1000
1000
,
0001
0001
0001
0000
,
1000
0100
0010
0001
,
0100
0100
0000
0100
,
0010
1000
0000
0001
,
0010
0100
0000
0010
,
0001
1000
0000
0000
,
0001
0001
0001
0000
,
1000
1000
1000
0000
,
0010
0100
0010
0100
,
0010
0100
0010
0000
,
1001
0000
0000
0000
,
0100
0010
0100
0000
,
0100
0010
0100
0000
,
0010
0010
0010
0000
,
1001
0000
0001
0100
,
0010
0000
1000
0100
,
0010
0000
0100
1000
,
0001
0000
0100
0001
,
1001
0000
0000
0010
,
0110
0000
0100
0100
,
0001
1000
0001
0000
,
1000
0001
1000
0000
,
1001
0000
0000
0000
,
0110
0000
0010
0010
,
1000
0001
0010
0000
,
0100
0100
0100
0010
,
0001
0001
0001
1000
,
0010
0010
0100
0001
,
1000
0100
0010
0100
,
2002
0000
0000
0000
,
3003
0000
0000
0000
,
0001
0100
0010
1000
,
0100
0100
0010
0010
,
0001
0010
0100
1000
,
0010
0010
0100
2002
,
0000
0000
3003
0000
,
1000
0001
0000
0001
,
1000
0001
0000
0001
,
0100
0010
1000
0100
,
0010
0001
0100
0010
;

//--------------- dance-single - forcednature ----------------
#NOTES:
     dance-single:
     forcednature:
     Easy:
     9:
     0,0,0,0,0:
0000
0000
0000
0000
,
0000
0000
0000
0000
,
0000
0000
0000
0000
,
0000
0000
0000
0000
,
0000
0000
0000
0000
,
0000
0000
0000
0000
,
0000
0001
0100
0000
0010
0000
1000
0000
0010
0000
0100
0000
0001
0000
0000
0000
,
1000
0000
0000
1000
0000
1000
0000
0000
0001
0000
0000
0001
0000
0001
0000
0000
,
0000
1000
0100
0000
0010
0000
0001
0000
0010
0000
0100
0000
1000
0000
0000
0000
,
0010
0000
0000
0010
0000
0010
0000
0000
0100
0000
0000
0100
0000
0100
0000
0000
,
0001
0000
0000
0000
1000
0000
0000
0100
0000
0100
0000
0000
0010
0000
0001
0000
,
0100
0000
0000
0000
0010
0000
0000
1000
0000
1000
0000
0000
0001
0000
0010
0000
,
0100
0000
0000
0000
1000
0000
0000
0001
0000
0001
0000
0000
0100
0000
0010
0000
,
1000
0000
0100
0010
0001
0001
0001
0000
,
0000
0100
0010
0000
1000
0000
0100
0000
1000
0000
0010
0000
0100
0000
0000
0000
,
0001
0000
0000
0010
0000
0010
0000
0000
0100
0000
0000
0010
0000
0010
0000
0000
,
0000
0001
1000
0000
0010
0000
0100
0000
0001
0000
0010
0000
0100
0000
0000
0000
,
0010
0000
0000
0001
0000
0001
0000
0000
1000
0000
0000
0010
0000
0010
0000
0000
,
0220
0000
0000
0330
,
0001
0100
0001
0000
1000
0100
1000
0000
,
0001
0000
0000
0101
0000
0000
0001
0000
0000
0011
0000
0000
1000
0000
0001
0000
,
1000
0000
0000
1100
0000
0000
1000
0000
0000
1010
0000
0000
0001
0000
1000
0000
,
2002
0000
0000
3003
,
1000
0100
1000
0000
0001
0100
0001
0000
,
1000
0000
0000
1100
0000
0000
1000
0000
0000
1010
0000
0000
0001
0000
1000
0000
,
0001
0000
0000
0101
0000
0000
0001
0000
0000
0011
0000
0000
1000
0000
0001
0000
,
0101
1100
0011
1010
,
1000
0001
0100
0010
1000
0001
0010
0000
,
0100
1000
0100
0000
0010
0001
0010
0000
,
0100
1000
0001
0100
0001
1000
0100
0000
,
0010
0100
1000
0000
0010
0000
0110
0000
,
0100
0000
0100
0000
0100
0001
1000
0100
,
0010
0001
1000
0010
0100
0000
0001
0000
,
2002
0000
0000
0000
3003
1000
0001
1000
,
0100
0010
0001
0100
0010
0010
0010
0000
,
1001
0000
0000
0000
0000
0000
0000
0001
0000
0001
0000
0000
0100
0000
0010
0000
,
1000
0000
0100
0000
0010
0000
0001
0100
,
0010
0000
1000
0000
0001
0000
0010
0100
,
1000
0001
1000
0001
0100
0010
1000
0000
,
0001
0000
0000
0001
0100
0000
0001
0000
0000
0001
0100
0000
0010
0000
0000
0000
,
1000
0000
0000
1000
0100
0000
1000
0000
0000
1000
0100
0000
0010
0000
0000
0000
,
0001
0000
0000
0001
1000
0000
0001
0000
0000
0001
1000
0000
0100
0000
0000
0000
,
1000
0000
0000
1000
0001
0000
1000
0000
0000
1000
0001
0000
0100
0000
0000
0000
,
0010
0020
0000
0000
0000
0030
0110
0000
,
1000
1000
0000
0001
0100
0001
0010
0000
,
0110
0000
0000
1000
0000
0000
0001
0000
0000
0100
0000
0000
1000
0000
0000
0000
,
0110
0000
0000
0001
0000
0000
1000
0000
0000
0100
0000
0000
0001
0000
0000
0000
,
0110
0000
0000
0000
1000
0000
0000
0010
0000
0010
0000
0000
0100
0000
0000
0000
,
2002
0000
0000
3003
,
0001
0000
0010
0000
0001
0000
0000
0100
0000
0000
0010
0000
1000
0000
0000
0000
,
0001
1000
0100
1000
0001
0100
0010
0000
,
1000
0100
0010
0001
0100
0010
1000
0000
,
0001
0000
0000
0010
0000
0000
0100
0000
0000
1000
0000
0000
0010
0000
0010
0000
,
0100
0000
0000
0001
0000
0000
1000
0000
0000
0100
0000
0010
0000
0000
0000
0000
,
2002
0000
0000
3003
,
0001
0100
0001
1000
0010
1000
0001
1000
,
0000
1000
0100
0000
0010
0000
0001
0000
1000
0010
0000
0010
0000
0000
0000
0000
,
0100
0000
0000
0001
0000
1000
0000
0000
0100
0000
0000
1000
0000
0001
0000
0000
,
0000
0001
1000
0000
0010
0000
0100
0000
0001
0010
0000
0010
0000
0000
0000
0000
,
0100
0000
0000
1000
0000
0000
0001
0000
0100
0000
0000
0010
0000
2002
0000
0000
,
0000
0000
0000
3003
,
1000
0000
0100
0000
1000
0000
0000
0010
0000
0010
0000
0000
0100
0000
0001
0000
,
0010
0000
0100
0000
1000
0000
0000
0001
0000
0001
0000
0000
0010
0000
0010
0000
,
0100
0000
0010
0000
0001
0000
0000
1000
0000
1000
0000
0000
0010
0000
0100
0000
,
0001
0000
0010
0000
0100
0000
0000
0010
0000
0010
0000
0000
0001
1000
0001
1000
;

//--------------- dance-single - forcednature ----------------
#NOTES:
     dance-single:
     forcednature:
     Medium:
     13:
     0,0,0,0,0:
0000
0000
0000
0000
,
0000
0000
0000
0000
,
0000
0000
0000
0000
,
0000
0000
0000
0000
,
0000
0000
0000
0000
,
0000
0000
0000
0000
,
0000
1000
0100
1000
0100
0010
0001
0010
0000
0010
0000
0010
0000
0001
0100
0001
,
0100
0000
0010
1000
0000
0001
0000
0000
1000
0000
0100
0010
0000
0001
0000
0000
,
0000
1000
0010
1000
0010
0100
0001
0100
0000
0100
0000
0100
0000
0001
0010
0001
,
0010
0000
0100
1000
0000
0001
0000
0000
1000
0010
1000
0010
0000
0100
0000
0000
,
0001
0000
1000
0000
0010
0000
0000
1001
0000
1001
0000
0000
1000
0000
0100
0000
,
0010
0000
0001
0000
0100
0000
0000
0110
0000
0110
0000
0000
0010
1000
0010
1000
,
0001
0000
0010
0000
0100
0000
0000
1001
0000
1001
0000
0000
1000
0000
0010
0000
,
0100
0000
0100
0000
0010
0000
0010
0000
1000
0100
1000
0000
0001
0100
0001
0000
,
0000
1000
0010
0100
0001
0100
0010
1000
0000
1000
0000
1000
0000
0100
0010
0001
,
0100
0000
0010
1000
0000
1001
0000
0000
0100
0000
0010
0001
0000
1001
0000
0000
,
0000
0001
0010
0100
1000
0100
0010
0001
0000
0001
0000
0001
0000
0100
0010
1000
,
0001
0000
0001
0010
0000
0010
0100
0000
1000
0010
1000
0010
0000
0100
0000
0000
,
2002
0000
0000
3003
,
1000
0000
0100
0000
0001
0000
0100
0000
1000
0000
0010
0000
0100
0001
0000
0000
,
1000
0100
1000
0100
0000
0010
0001
0010
0001
0010
0000
0100
1000
0100
1000
0000
,
0001
0100
0001
0100
0000
0010
1000
0010
1000
0100
1000
0000
0001
0100
0001
0000
,
2002
0000
0000
3003
,
0001
0000
0100
0000
1000
0000
0100
0000
0001
0000
0010
0000
0100
1000
0000
0000
,
0001
0100
0001
0100
0000
0010
1000
0010
1000
0010
0000
0100
0001
0100
0001
0000
,
1000
0100
1000
0100
0000
0010
0001
0010
0001
0010
0000
0100
1000
0001
1000
0001
,
1000
0001
0101
0000
0001
1000
1100
0000
,
1000
0000
0001
0000
0100
0000
0000
0110
0000
0110
0000
0000
0010
0000
1000
0000
,
0001
0000
0010
0000
0100
0000
0000
1001
0000
1001
0000
0000
1000
0010
1000
0010
,
1000
0000
0100
0000
0010
0000
0000
0011
0000
0011
0000
0000
0001
0000
0100
0000
,
0010
0000
1000
0000
0001
0000
0000
1010
0000
1010
0000
0000
1000
0001
1000
0001
,
1000
0000
0100
0000
0001
0000
0100
0000
1000
0000
0100
0000
0010
0001
1000
0000
,
0001
0000
0100
0000
1000
0000
0100
0000
0001
0000
0100
0000
0010
1000
0010
1000
,
0200
0000
0000
0000
0310
0000
0000
0110
0000
0110
0000
0000
1000
0000
0001
0000
,
0100
0000
0100
0000
0010
0000
0010
0000
1000
0001
1000
0001
1000
0100
0010
0001
,
0200
0001
0001
0001
,
0320
1000
1000
1000
,
2030
0100
0100
0100
,
3002
0000
0010
0000
0010
0000
0013
0000
0001
0100
0001
0100
0010
1000
0010
0000
,
1000
0000
1000
0100
0000
0100
0010
0000
0010
0001
0000
0001
1000
0001
1000
0000
,
0001
0000
0001
0100
0000
0100
0010
0000
0010
1000
0000
1000
0001
1000
0001
0000
,
1000
0000
1000
0100
0000
0100
0001
0000
0001
0100
0000
0100
1000
0001
1000
0000
,
0001
0000
0001
0100
0000
0100
1000
0000
1000
0100
0000
0100
0001
1000
0001
0000
,
1001
2002
0000
0000
0000
0000
3003
0000
,
0110
0220
0000
0000
0000
0000
0330
0000
,
1000
0000
0000
1100
0000
0000
1010
0000
0000
1001
0000
0000
0110
0000
0000
0000
,
0001
0000
0000
0101
0000
0000
0011
0000
0000
1001
0000
0000
0110
0000
0000
0000
,
1000
0000
0001
0000
0100
0000
0000
0110
0000
0110
0000
0000
0001
1000
0001
0000
,
2002
0000
0000
3003
,
1000
0000
1000
0100
0000
0010
0000
0001
0000
1000
0001
0000
0100
0000
0010
0000
,
1000
0000
0100
0010
0001
0000
0100
0010
1000
0000
0001
0010
0001
0010
0001
0000
,
0001
0000
0100
0010
1000
0000
0100
0010
0001
0000
1000
0010
1000
0010
1000
0000
,
1001
0000
0000
1100
0000
0000
1010
0000
0000
1001
0000
0000
0100
0000
0010
0000
,
1001
0000
0000
0101
0000
0000
0011
0000
0000
1001
0000
0110
0000
0000
0000
0000
,
2002
0000
0000
3003
,
1000
0000
1000
0000
0001
0100
0001
0100
0001
0000
0001
0000
1000
0100
1000
0100
,
0000
0010
0001
0010
0001
1000
0010
1000
0010
0100
0000
0100
0000
0001
0010
0100
,
1000
0000
1000
0010
0000
0010
0000
0100
0001
0000
0001
0010
0000
0010
0100
1000
,
0000
0001
0100
0001
0100
0010
1000
0010
1000
0100
0000
0100
0000
0010
0001
1000
,
0001
0000
0001
0100
0000
0100
0010
0000
1000
0100
0010
0001
0000
2002
0000
0000
,
0000
0000
0000
3003
,
1000
0000
0100
0000
0001
0000
0000
0110
0000
0110
0000
0000
0001
0000
0100
0000
,
1000
0000
0100
0000
0001
0000
0000
0110
0000
0110
0000
0000
1000
0010
1000
0010
,
1000
0000
0100
0000
0010
0000
0000
1001
0000
1001
0000
0000
0001
0000
0100
0000
,
0010
0000
1000
0000
0100
0000
0000
0110
0000
0110
0000
0000
1000
0001
0100
0010
;

//--------------- dance-single - forcednature ----------------
#NOTES:
     dance-single:
     forcednature:
     Hard:
     15:
     0,0,0,0,0:
0000
0000
0000
0000
,
0000
0000
0000
0000
,
0000
0000
0000
0000
,
0000
0000
0000
0000
,
0000
0000
0000
0000
,
0000
0000
0000
0000
,
0000
0001
0100
0001
0100
0010
1000
0010
0000
0100
0000
1001
0000
1000
0100
0010
,
0001
0000
0001
0100
0000
1010
0000
0000
1000
0000
1000
0100
0000
0011
0000
0000
,
0000
1000
0010
1000
0010
0100
0001
0100
0000
0010
0000
1001
0000
1000
0001
0010
,
0100
0000
0010
0001
0000
1001
0000
0000
0100
0010
0100
0010
0000
1001
0000
0000
,
1000
0000
0100
0000
0010
0000
0000
0001
0000
0001
0000
0001
0100
0000
0010
0000
,
0100
0000
0001
0000
0010
0000
0000
0100
0000
0100
0000
0100
1000
0001
1000
0001
,
1000
0000
0010
0000
0100
0000
0000
0001
0000
0001
0000
0001
0010
0000
0100
0000
,
1000
0010
1000
0000
0001
0010
0001
0000
1000
0100
1000
0010
0100
0001
0100
0001
,
0000
1000
0100
0010
0001
0100
0010
1000
0000
0010
0000
1001
0000
1000
0010
0100
,
0001
0000
0010
0100
0000
1100
0000
0000
1000
0000
0010
0100
0000
0101
0000
0000
,
0000
0001
1000
0010
0100
0001
0010
0100
0000
1000
0000
0110
0000
0001
1000
0010
,
0100
0000
0100
0001
0000
0001
1000
0000
0100
0010
0100
0010
0000
1001
0000
0000
,
2000
0100
0001
0100
,
3001
1000
0000
1000
0010
1000
0000
0001
0010
0001
0000
0100
0010
0100
0000
0000
,
0001
0010
0001
0100
0000
0000
0001
0010
0001
0100
0000
0001
1000
0001
1000
0001
,
1000
0010
1000
0100
0000
0000
1000
0010
1000
0100
0010
0001
0100
0010
1000
0000
,
0002
0100
1000
0100
,
1003
0001
0000
0001
0100
0001
0000
0001
0010
0100
1000
0010
0100
0001
0000
0000
,
1000
0100
0010
0001
0000
0000
1000
0010
0100
0001
0000
1000
0001
1000
0001
1000
,
0001
0010
0100
1000
0000
0000
0001
0100
0010
1000
0000
0000
0001
1000
0001
1000
,
0100
0000
0000
0010
0000
0000
0001
0000
0000
0000
0000
0000
0100
0000
0000
0010
0000
0000
1000
0000
0000
0000
0000
0000
0001
0000
1000
0000
0001
0000
1000
0000
0001
0000
1000
0000
0001
0000
0000
0000
0000
0000
0000
0000
0000
0000
0000
0000
,
0100
0000
0001
0000
1000
0000
0010
1000
0000
1000
0000
1000
0100
0000
0010
0000
,
0001
0000
0100
0000
0010
0000
1000
0001
0000
0001
0000
0001
0010
0100
0010
0100
,
1000
0000
0001
0000
0100
0000
0010
1000
0000
1000
0000
1000
0100
0000
0010
0000
,
0001
0000
0100
0000
0010
0000
1000
0001
0000
0001
0000
0001
0010
0100
1000
0000
,
0001
0100
0001
0000
1000
0100
1000
0000
0001
0100
0010
1000
0001
0100
0010
0000
,
1000
0100
1000
0000
0001
0100
0001
0000
1000
0100
0010
0001
1000
0001
1000
0001
,
1000
0000
0010
0000
0100
0000
0001
0010
0000
0010
0000
0010
0100
0000
1000
0000
,
0010
0000
0100
0000
0001
0000
1000
0010
0100
0001
0100
0001
1000
0100
0010
0001
,
0200
0000
0000
0000
0001
0000
0000
0001
0000
0001
0000
0000
0001
0000
0001
0000
,
0320
0000
0000
0000
1000
0000
0000
1000
0000
1000
0000
0000
1030
0000
1001
0000
,
2000
0000
0000
0000
0100
0000
0000
0100
0000
0100
0000
0000
0100
0000
0100
0000
,
3001
0000
0011
0000
0001
0000
0101
0000
1000
0001
1000
0001
1000
0100
0010
0001
,
0100
0001
1000
0010
0000
0010
0100
0001
1000
0010
0000
0010
1000
0001
1000
0001
,
1000
0100
0010
0001
0000
0001
1000
0100
0010
0001
0010
0100
1000
0001
1000
0001
,
1000
0010
0100
0001
0000
0001
1000
0010
0100
0001
0000
0001
1000
0010
1000
0010
,
1000
0100
0010
0001
0010
0100
1000
0001
0100
0010
1000
0001
0010
0100
0010
0000
,
1001
0000
2002
0000
0000
0000
0000
0000
0000
0000
3003
0000
0100
0010
0100
0010
,
0100
0000
2002
0000
3003
0000
0001
0100
0010
1000
0100
0010
0002
0000
0003
0000
,
1001
0000
0000
1100
0000
0000
1001
0000
0000
1010
0000
0000
0100
0000
0110
0000
,
1001
0000
0000
0101
0000
0000
1001
0000
0000
0011
0000
0000
1001
0000
0000
0000
,
1000
0000
0100
0000
0010
0001
0000
0101
0000
0101
0000
0000
0010
1000
0001
0100
,
0020
0000
0000
0000
0000
0000
0000
0000
0000
0000
0000
0000
1030
0001
1000
0001
1000
0001
1000
0001
1000
0001
1000
0001
,
1000
0000
0100
0000
0010
0001
0000
0001
0000
0001
0100
0000
0010
0000
1000
0000
,
0001
1000
0100
0001
0100
1000
0001
0000
0001
0100
0010
1000
0001
0000
1001
0000
,
1000
0000
0000
0000
0000
0000
0000
0000
0000
0000
0000
0000
0001
0000
0000
0000
0000
0000
0000
0000
0000
0000
0000
0000
0100
0000
0000
0000
0000
0000
0000
0000
0000
0000
0000
0000
1000
0000
0000
0000
0000
0000
0000
0000
0000
0000
0000
0000
0100
0000
0000
0000
0000
0000
0000
0000
0000
0000
0000
0000
0001
0000
0000
0000
0000
0000
0000
0000
0000
0000
0000
0000
1000
0000
0000
0000
0000
0000
0000
0000
0000
0000
0000
0000
0000
0000
0000
0000
0000
0000
0000
0000
0000
0000
0000
0000
1000
0000
0000
0000
0000
0000
0000
0000
0000
0000
0000
0000
0100
0000
0000
0000
0000
0000
0000
0000
0000
0000
0000
0000
0010
0000
0000
0000
0000
0000
0000
0000
0000
0000
0000
0000
0001
0000
0000
0000
0000
0000
0000
0000
0000
0000
0000
0000
1000
0000
0000
0000
0000
0000
0000
0001
0000
0000
0000
0000
0000
0000
1000
0000
0000
0000
0000
0000
0000
0001
0000
0000
0000
0000
0000
1000
0000
0000
0000
0000
0000
0000
0001
0000
0000
0000
0000
0000
0000
1000
0000
0000
0000
0000
0000
0000
,
0001
0000
0000
0101
0000
0000
1010
0000
0000
1001
0000
0000
0100
0010
0100
0000
,
1001
0000
0000
0110
0000
0000
1100
0000
0000
0101
0000
0220
0000
0000
0330
0000
,
2002
0000
0000
0000
0000
0000
0000
3003
,
1000
0000
0000
0000
0000
0000
0000
0000
0000
0000
0000
0000
0100
0000
0000
0000
0000
0000
0000
0000
0000
0000
0000
0000
1000
0000
0000
0000
0000
0000
0000
0000
0000
0000
0000
0000
0100
0000
0000
0000
0000
0000
0000
0000
0000
0000
0000
0000
0010
0000
0000
0000
0000
0000
0000
0000
0000
0000
0001
0000
0000
0000
0000
0000
0000
0000
0000
0010
0000
0000
0000
0000
0000
0000
0000
0000
0000
0001
0000
0000
0000
0000
0000
0000
0000
0000
0010
0000
0000
0000
0000
0000
0000
0000
0000
0000
0001
0000
0000
0000
0000
0000
0000
0000
0000
0000
0000
0000
0100
0000
0000
0000
0000
0000
0000
0000
0000
0000
0000
0000
0001
0000
0000
0000
0000
0000
0000
0000
0000
0000
0000
0000
0100
0000
0000
0000
0000
0000
0000
0000
0000
0000
0000
0000
0010
0000
0000
0000
0000
0000
0000
0000
0000
0000
0000
0000
1000
0000
0000
0000
0000
0000
0000
0000
0000
0000
0000
0000
0010
0000
0000
0000
0000
0000
0000
0000
0000
0000
0000
0000
1000
0000
0000
0000
0000
0000
0000
0000
0000
0000
0000
0000
,
0000
0001
0010
0001
0100
0010
1000
0100
1000
0010
0000
0110
0000
1000
0001
0010
,
0100
0000
1000
0001
0000
0101
0000
0001
0100
0000
0001
1000
0000
1100
0000
0000
,
0000
1000
0010
0100
0001
0010
0001
0100
0010
1000
0000
0101
0000
0001
0010
0100
,
1000
0010
0100
1000
0100
0001
1000
0000
0100
0010
0100
0010
0000
2002
0000
0000
,
0000
0000
0000
3003
,
0001
0000
0100
0000
0001
0000
1000
0010
0000
0010
0000
0010
0100
0000
1001
0000
,
0001
0000
0010
0000
0100
0000
1000
0010
0000
0010
0000
0010
1000
0100
0010
0001
,
0100
0000
0001
0000
0010
0000
0100
1000
0000
1000
0000
1000
0010
0000
0110
0000
,
0100
0000
0001
0000
1000
0000
0100
0010
0000
0010
0000
0010
0001
0100
0001
1000
;

//--------------- dance-single - forcednature ----------------
#NOTES:
     dance-single:
     forcednature:
     Challenge:
     16:
     0,0,0,0,0:
0000
0000
0000
0000
,
0000
0000
0000
0000
,
0000
0000
0000
0000
,
0000
0000
0000
0000
,
0000
0000
0000
0000
,
0000
0000
0000
0000
,
0000
1000
0010
0100
0001
1000
0100
0010
0000
0110
0000
1001
0000
0001
0100
0010
,
1000
0000
0100
0010
0000
0011
0000
0000
0001
0000
0100
0010
0000
1010
0000
0000
,
0000
0001
0010
0100
0010
0001
1000
0010
0000
0110
0000
1001
0000
1000
0010
0100
,
0001
0000
0010
0100
0000
1100
0000
0000
1000
0010
0100
0001
0000
0101
0000
0000
,
1000
0000
0001
0000
0010
0000
0100
1000
0000
1000
0000
1000
0010
0000
0110
0000
,
0100
0000
0001
0000
0010
0000
0100
0010
0000
0010
0000
0010
0001
1000
0001
0100
,
0010
1000
0010
0000
0100
0000
0001
0010
0100
0010
0000
0010
0001
0000
1001
0000
,
0001
0100
0001
0100
0010
1000
0010
1000
0001
1000
0100
0010
0001
1000
0010
0100
,
0000
0001
0010
0100
1000
0100
0010
0001
0000
0101
0000
1010
0000
1000
0001
0010
,
0001
0000
0100
0010
0000
1010
0000
0000
1000
0000
0100
0010
0000
0011
0000
0000
,
0000
1000
0010
0100
0001
0100
0010
1000
0000
0011
0000
1100
0000
1000
0010
0100
,
0001
0000
0000
0000
0001
0000
0100
0000
0000
0000
0001
0000
0010
0000
0000
0000
0100
1000
0100
0000
1000
0000
0001
0000
1000
0000
0010
0000
0100
0000
0001
0000
,
0020
0100
1000
0100
,
0031
0010
0100
1000
0100
0010
0001
1000
0001
0100
0010
1000
0001
0020
0000
0000
,
0031
0100
1000
0100
0000
0001
1000
0100
0001
0100
0000
1000
0001
0100
0010
1000
,
0001
0010
1000
0010
0000
0001
1000
0010
0001
0010
0100
0001
1000
0100
0010
0001
,
0200
1000
0010
0001
,
0310
0000
0000
0100
0000
0000
0000
0000
0000
0100
0000
0000
0001
0000
0000
1000
0000
0000
0000
0000
0000
1000
0000
0000
0001
0000
0100
0000
0001
0000
1000
0000
0100
0000
1000
0000
0001
0000
0000
0010
0000
0000
0100
0000
0000
1000
0000
0000
,
0001
0010
1000
0010
0000
0001
1000
0010
0001
0010
0000
1000
0100
0010
1000
0010
,
0001
0100
1000
0100
0000
0001
1000
0100
0001
0100
0000
0010
0001
1000
0001
0100
,
0010
0000
0000
1000
0000
0000
0010
0000
0000
1000
0000
0000
0001
0000
0000
0010
0000
0000
0001
0000
0000
0010
0000
0000
0100
0000
1000
0000
0100
0000
1000
0000
0100
0000
1000
0000
0001
0000
0100
0000
0001
0000
0100
0000
0001
0000
0100
0000
,
0001
0000
0010
0000
0100
0000
1000
0010
0000
0010
0000
0010
0100
0000
0110
0000
,
1000
0000
0001
0000
1000
0000
0010
0100
0000
0100
0000
0100
0001
0010
0001
0100
,
0010
0000
1000
0000
0100
0000
0010
0100
0000
0100
0000
0100
1000
0000
1001
0000
,
0001
0000
0000
0000
0100
0000
0000
0000
0010
0000
0000
0000
1000
0000
0100
0000
0000
0000
0100
0000
0000
0000
0100
0000
0010
0000
0001
1000
0001
0000
0100
0000
,
0010
1000
0001
0100
0010
1000
0001
0100
0001
0010
0100
0010
0001
0100
0010
0000
,
1000
0100
0010
0001
1000
0100
0010
0001
0100
0010
1000
0000
0100
0001
0100
0010
,
0001
0000
0001
0000
0100
0000
0010
1000
0000
1000
0000
1000
0100
0000
0110
0000
,
0010
0000
0000
0000
0010
0000
0000
0000
0010
0000
0000
0000
0010
0000
0001
0000
1000
0000
0001
0100
0001
0000
1000
0000
0010
0000
1000
0000
0100
0000
0010
0000
,
0001
0000
0000
0001
0100
0000
0000
0110
0000
0110
0000
1000
1000
0000
0001
0000
,
1000
0010
0100
0001
1000
0100
0000
0010
0000
0110
0000
0001
0001
0000
1010
0000
,
0001
0010
0100
1000
0001
0100
0000
0110
0000
0110
0000
0010
0010
0000
1001
0000
,
1000
0000
0000
0000
0100
0000
0010
0000
0001
0000
0000
0000
0100
0000
0010
0000
1000
0001
1000
0000
0100
0000
0010
0000
0001
0000
0100
0000
1000
0000
0100
0000
,
0010
1000
0001
0010
0000
0100
1000
0001
0100
0010
0000
1000
0100
0001
0100
1000
,
0001
0000
0000
0100
0000
0000
0010
0000
0000
1000
0000
0000
0000
0000
0000
0001
0000
0000
0010
0000
0000
0100
0000
0000
1000
0000
0000
0100
0000
0000
0010
0000
0000
0001
0000
0000
1000
0000
0010
0000
1000
0000
0001
0000
0100
0000
0001
0000
,
0010
0100
0010
0001
0000
0100
0010
0100
0001
0010
0000
0100
1000
0001
0100
0010
,
1000
0100
0010
0100
0000
1000
0010
0100
0010
0001
0010
0100
0001
1000
0100
1000
,
0010
0000
0000
0000
0220
0000
0000
0000
0000
0000
0000
0000
0000
0000
0000
0000
0000
0000
0000
0000
0330
0000
0000
0000
0001
0100
0001
0000
1000
0000
0100
0000
,
0010
0000
0220
0000
0330
0000
0001
1000
0100
0001
0100
1000
0010
0000
0100
0001
,
1000
0000
0000
0001
0100
0000
1010
0000
0000
1001
0000
0000
1100
0000
0011
0000
,
1001
0000
0000
1000
0100
0000
0011
0000
0000
1001
0000
0000
0202
0000
0303
0000
,
0001
0000
0100
0000
0010
0000
1000
0000
0001
0000
1000
0000
0000
0000
0100
0000
0000
0000
0110
0000
0000
0000
0000
0000
1000
0100
1000
0000
0001
0000
0010
0000
,
0002
0000
0000
0000
0000
0000
0000
0000
0000
0000
0000
0000
0103
0001
0100
0001
0100
0001
1000
0010
1000
0010
1000
0010
,
1000
0100
0010
0100
1000
0010
0000
0110
0000
0100
0001
0010
0100
0010
0001
0000
,
0100
0000
0001
0000
0100
0000
0001
0000
1000
0000
0100
0000
1000
0000
0100
0000
0010
0000
0001
0000
0010
0000
0001
0000
0100
0000
0000
0001
0000
0000
0010
0000
0000
0001
0000
0000
1000
0000
0000
0100
0000
0000
1000
0000
0000
0010
0000
0000
,
0100
0000
0000
0000
0000
0000
0000
0000
0001
0000
0000
0000
0000
0000
0000
0000
0100
0000
0000
0000
0000
0000
0000
0000
0001
0000
0000
0000
0000
0000
0000
0000
1000
0000
0000
0000
0000
0000
0000
0000
0010
0000
0000
0000
0000
0000
0000
0000
1000
0000
0000
0000
0000
0000
0000
0000
0010
0000
0000
0000
0000
0000
0000
0000
1000
0000
0000
0000
0000
0000
0000
0000
0100
0000
0000
0000
0000
0000
0000
0000
0010
0000
0000
0000
0000
0000
0000
0000
0001
0000
0000
0000
0000
0000
0000
0000
1000
0000
0000
0000
0000
0000
0000
0000
0000
0000
0000
0000
0010
0000
0000
0000
0000
0000
0000
0000
0000
0000
0000
0000
0100
0000
0000
0000
0000
0000
0000
0000
0000
0000
0000
0000
0001
0000
0000
0000
0000
0000
0000
0000
0000
0000
0000
0000
1000
0000
0000
0000
0000
0000
0000
0001
0000
0000
0000
0000
0000
0000
1000
0000
0000
0000
0000
0000
0000
0001
0000
0000
0000
0000
0000
1000
0000
0000
0000
0000
0000
0000
0001
0000
0000
0000
0000
0000
0000
1000
0000
0000
0000
0000
0000
0000
,
0001
0000
0000
0101
0000
0000
1100
0000
0000
0110
0000
0000
1000
0001
0010
0000
,
0100
0000
1000
0001
1000
0000
0010
0000
0100
0001
0100
0000
0001
0000
1000
0010
1000
0000
0100
0000
0010
0001
0020
0000
0000
0000
0000
0000
0030
0000
0000
0000
,
2002
0000
0000
0000
0000
0000
0000
3003
,
1000
0000
0000
0000
0000
0000
0100
0000
0000
0000
0000
0000
1000
0000
0000
0000
0000
0000
0000
0000
0000
0000
0000
0000
0001
0000
0000
0000
0000
0000
0000
0000
0000
0000
0000
0000
0100
0000
0000
0000
0000
0000
0000
0000
0000
0000
0000
0000
0001
0000
0000
0000
0000
0000
0000
0000
0000
0000
0010
0000
0000
0000
0000
0000
0000
0000
0000
0100
0000
0000
0000
0000
0000
0000
0000
0000
0000
1000
0000
0000
0000
0000
0000
0000
0000
0000
0010
0000
0000
0000
0000
0000
0000
0000
0000
0000
0100
0000
0000
0000
0000
0000
0001
0000
0000
0000
0000
0000
0100
0000
0000
0000
0000
0000
0000
0000
0000
0000
0000
0000
0010
0000
0000
0000
0000
0000
0000
0000
0000
0000
0000
0000
1000
0000
0000
0000
0000
0000
0000
0000
0000
0000
0000
0000
0001
0000
0000
0000
0000
0000
0000
0000
0000
0000
0000
0000
0010
0000
0000
0000
0000
0000
0000
0000
0000
0000
0000
0000
0001
0000
0000
0000
0000
0000
0000
0000
0000
0000
0000
0000
0100
0000
0000
0000
0000
0000
0000
0000
0000
0000
0000
0000
,
0000
0001
0100
1000
0100
0001
0010
0100
1000
0010
0000
1010
0000
0001
0010
1000
,
0010
0000
0000
0000
0100
0000
1000
0000
0000
0000
1001
0000
0000
0000
0001
0000
0100
0000
0000
0000
0100
0000
0010
0000
0000
0000
1000
0000
0001
1000
0001
0000
,
0000
1000
0100
0001
0100
1000
0010
0001
0010
1000
0000
1001
0000
0001
0010
0100
,
1000
0001
1000
0000
0010
0000
0100
0001
0100
0000
0010
0000
1000
0100
1000
0000
0001
0000
0100
0000
0100
0000
1000
0000
0000
0000
0220
0000
0000
0000
0000
0000
,
0000
0000
0000
0000
0000
0000
0330
0000
0001
0100
0010
1000
0100
0010
0001
1000
,
0010
0000
0100
0000
0001
0000
1000
0100
0000
0100
0000
0100
0010
0000
1001
0000
,
0001
0000
0010
0000
0100
0000
1000
0010
0000
0010
0000
0010
0100
1000
0100
0001
,
0100
0000
0010
0000
1000
0000
0001
0010
0000
0010
0000
0010
0100
0000
1001
0000
,
0001
0000
0100
0000
0010
0000
1000
0100
0000
0100
0000
0100
0001
0100
1000
0010
;

//--------------- dance-double - forcednature ----------------
#NOTES:
     dance-double:
     forcednature:
     Easy:
     10:
     0,0,0,0,0:
00000000
00000000
00000000
00000000
,
00000000
00000000
00000000
00000000
,
00000000
00000000
00000000
00000000
,
00000000
00000000
00000000
00000000
,
00000000
00000000
00000000
00000000
,
00000000
00000000
00000000
00000000
,
00000000
00001000
00010000
00000000
00100000
00000000
01000000
00010000
00000000
10000000
00000000
01000000
00000000
00000000
00000000
00000000
,
00100000
00000000
00000000
00001000
00000000
00001000
00000000
00000000
00010000
00000000
00000000
00000010
00000000
00000010
00000000
00000000
,
00000000
00000100
00001000
00000000
00000100
00000000
00000001
00000010
00000000
00000100
00000000
00001000
00000000
00000000
00000000
00000000
,
00000010
00000000
00000000
00010000
00000000
00010000
00000000
00000000
00001000
00000000
00000000
00100000
00000000
00100000
00000000
00000000
,
01000000
00000000
00010000
00000000
00001000
00000000
00000000
01000000
00000000
01000000
00000000
00000000
00100000
00000000
10000000
00000000
,
00010000
00000000
10000000
00000000
01000000
00000000
00000000
00010000
00000000
00010000
00000000
00000000
00001000
00000000
00001000
00000000
,
00000010
00000000
00000001
00000000
00001000
00000000
00000000
00000010
00000000
00000010
00000000
00000000
00000100
00000000
00001000
00000000
,
00010000
01000000
00100000
00001000
00010000
00100000
10000000
00000000
,
00000000
01000000
00010000
00000000
00001000
00000000
00000010
00000100
00000000
00001000
00000000
00000001
00000000
00000000
00000000
00000000
,
00000100
00000000
00000000
00001000
00000000
00020000
00000000
00000000
01030000
00000000
00000000
00010000
00000000
00002000
00000000
00000000
,
00000000
00013000
00100000
00000000
10000000
00000000
00010000
10000000
00000000
01000000
00000000
00010000
00000000
00000000
00000000
00000000
,
00001000
00000000
00000000
00000010
00000000
00000002
00000000
00000000
00001003
00000010
00001000
00000020
00000000
00000230
00000000
00000000
,
00000302
00000000
00000000
00000000
,
00000013
00001000
00010000
00100000
10000000
01000000
00200000
00000000
,
01300000
00000000
00000000
00010000
00000000
00000000
00001000
00000000
00000000
00010000
00000000
00000000
00100000
00000000
00100000
00000000
,
00010000
00000000
00000000
00001000
00000000
00000000
00000010
00000000
00000000
00000100
00000000
00000000
00001000
00000000
00001000
00000000
,
00000020
00000000
00000000
00000000
,
00000130
00001000
00010000
01000000
00100000
00001000
00020000
00000000
,
00130000
00000000
00000000
10000000
00000000
00000000
01000000
00000000
00000000
00010000
00000000
00000000
00001000
00000000
00001000
00000000
,
01000000
00000000
00000000
00010000
00000000
00000000
00001000
00000000
00000000
00000010
00000000
00000000
00000100
00000000
00000100
00000000
,
00000101
00001100
01010000
11000000
,
10000000
00000000
00000000
00000000
01000000
00000000
00000000
00010000
00000000
00010000
00000000
00000000
00001000
00000000
00010000
00000000
,
00100000
00000000
00000000
00000000
01000000
00000000
00000000
00010000
00000000
00010000
00000000
00000000
00100000
00000000
00100000
00000000
,
00001000
00000000
00000000
00000000
00010000
00000000
00000000
00000010
00000000
00000010
00000000
00000000
00001000
00000000
00000100
00000000
,
00000010
00000000
00000000
00000000
00000100
00000000
00000000
00001000
00000000
00001000
00000000
00000000
00000001
00000000
00000100
00000000
,
00001000
00010000
00001000
00000100
00001000
00010000
00100000
00000000
,
10000000
01000000
00010000
00001000
00010000
00100000
00010000
00000000
,
00001000
00000000
01000000
00000000
00100000
00000000
00000000
00010000
00000000
00010000
00000000
00000000
00000100
00000000
00000000
00000000
,
00001000
00000001
00000100
00000001
00001000
00000000
00000100
00000000
,
00000120
00000000
00000000
00000000
00000000
00000000
00000000
00001000
00000000
00001000
00000000
00000000
00010030
00000000
00000000
00000000
,
02000000
00100000
10000000
00010000
,
03002000
00010000
00100000
00010000
,
02003000
00000000
00010000
00000000
03100000
00100000
00100000
00000000
,
00010000
00000000
00000000
00010000
00000100
00000000
00010000
00000000
00000000
00010000
00000100
00000000
00010000
00000000
00000000
00000000
,
00001000
00000000
00000000
00001000
01000000
00000000
00001000
00000000
00000000
00001000
01000000
00000000
00001000
00000000
00000000
00000000
,
00010000
00000000
00000000
00010000
00000010
00000000
00010000
00000000
00000000
00010000
00000010
00000000
00010000
00000000
00000000
00000000
,
00001000
00000000
00000000
00001000
00100000
00000000
00001000
00000000
00000000
00001000
00100000
00000000
00001000
00000000
00000000
00000000
,
00011000
00022000
00000000
00000000
00000000
00000000
00033000
00000000
,
00000110
00000110
00000000
00000001
00000100
00001000
00000200
00000000
,
00000301
00000000
00000000
00000010
00000000
00000000
00001000
00000000
00000000
00010000
00000000
00000000
00100000
00000000
00000000
00000000
,
10000000
00000000
00000000
00100000
00000000
00000000
00010000
00000000
00000000
00001000
00000000
00000000
00000010
00000000
00000000
00000000
,
00000210
00000000
00000000
00000000
00000000
00000000
00000000
00000001
00000000
00000001
00000000
00000000
00001300
00000000
00000000
00000000
,
00002002
00000000
00000003
00000000
00000001
00000001
00003001
00000001
,
00000100
00000000
00001000
00000000
00000000
00010000
00000000
00001000
00000000
00000000
00100000
00000000
00010000
00000000
00000000
00000000
,
01000000
00010000
00100000
01000000
00010000
00001000
00020000
00000000
,
00130000
10000000
01000000
00010000
00001000
00000010
00000100
00000000
,
00001100
00000000
00000000
00000101
00000000
00000000
00000011
00000000
00000000
00001010
00000000
00000000
00000001
00000000
00000000
00000000
,
00000100
00000000
00000000
00001000
00000000
00000000
00010000
00000000
00000000
01000000
00000000
02200000
00000000
00000000
03300000
00000000
,
20020000
00000000
00000000
30030000
,
00010000
00010000
01000000
01000000
00001000
00001000
00010000
00010000
,
00000000
00000100
00001000
00000000
00000100
00000000
00000010
00000001
00000000
00001000
00000000
00001000
00000000
00000000
00000000
00000000
,
00000100
00000000
00000000
00010000
00000000
00011000
00000000
00000000
01000000
00000000
00000000
00001000
00000000
00011000
00000000
00000000
,
00000000
00100000
00010000
00000000
10000000
00000000
00100000
10000000
00000000
01000000
00000000
01000000
00000000
00000000
00000000
00000000
,
00010000
00000000
00000000
00001000
00000000
00000000
01000000
00000000
00010000
00100000
00010000
00200000
00000000
00002000
00000000
00000000
,
00000000
00000000
00000000
00303000
,
00001000
00000000
00010000
00000000
00000010
00000000
00000000
00000100
00000000
00000100
00000000
00000000
00000001
00000000
00000010
00000000
,
00000100
00000000
00001000
00000000
00000010
00000000
00000000
00010000
00000000
00010000
00000000
00000000
00001000
00000000
00001000
00000000
,
00100000
00000000
00010000
00000000
01000000
00000000
00000000
00100000
00000000
00100000
00000000
00000000
10000000
00000000
01000000
00000000
,
00010000
00000000
01000000
00000000
00100000
00000000
00000000
00010000
00000000
00010000
00000000
00000000
01000000
00100000
01000000
00100000
;

//--------------- dance-double - forcednature ----------------
#NOTES:
     dance-double:
     forcednature:
     Medium:
     14:
     0,0,0,0,0:
00000000
00000000
00000000
00000000
,
00000000
00000000
00000000
00000000
,
00000000
00000000
00000000
00000000
,
00000000
00000000
00000000
00000000
,
00000000
00000000
00000000
00000000
,
00000000
00000000
00000000
00000000
,
00000000
00010000
00000100
00010000
00000100
00001000
00000001
00001000
00000000
00001000
00000000
00000010
00000000
00010000
00001000
00010000
,
00001000
00000000
00100000
00010000
00000000
00100000
00000000
00000000
01000000
00000000
10000000
01000000
00000000
10000000
00000000
00000000
,
00000000
00010000
01000000
00010000
01000000
00001000
00010000
00001000
00000000
00001000
00000000
00010000
00000000
00000100
00001000
00000100
,
00001000
00000000
00000001
00000010
00000000
00000001
00000000
00000000
00000100
00000001
00000100
00000001
00000000
00001000
00000000
00000000
,
00000010
00000000
00010000
00000000
00001000
00000000
00000000
00011000
00000000
00011000
00000000
00000000
00100000
00000000
00001000
00000000
,
00010000
00000000
00100000
00000000
01000000
00000000
00000000
01100000
00000000
01100000
00000000
00000000
00010000
10000000
00010000
10000000
,
00010000
00000000
00100000
00000000
01000000
00000000
00000000
01100000
00000000
01100000
00000000
00000000
00100000
00000000
00001000
00000000
,
00010000
00000000
00010000
00000000
00000010
00000000
00000010
00000000
00000100
00000001
00000100
00000001
00001000
00000100
00001000
00000100
,
00000000
00010000
00001000
00010000
00001000
01000000
00010000
01000000
00000000
01000000
00000000
00100000
00000000
10000000
01000000
10000000
,
01000000
00000000
00100000
00010000
00000000
00100000
00000000
00000000
00001000
00000000
00010000
00001000
00000000
00010000
00000000
00000000
,
00000000
00000010
00001000
00000010
00001000
00000001
00000100
00000001
00000000
00000001
00000000
00000010
00000000
00000100
00001000
00000100
,
00001000
00000000
00000010
00010000
00000000
00010000
00001000
00000000
00100000
00010000
00100000
00010000
10000000
00100000
10000000
00100000
,
02000000
00000000
00000000
00000000
,
03010000
00000000
01000000
00000000
00001000
00000000
00010000
00000000
01000000
00000000
00100000
00000000
00001000
00010000
00000000
00000000
,
00000010
00010000
00000010
00010000
00000000
00001000
01000000
00001000
01000000
00001000
00000000
00010000
00001000
00010000
00001000
00000000
,
00100000
00001000
00100000
00001000
00000000
00010000
00000100
00010000
00001000
01000000
00001000
00000000
00010000
00000100
00010000
00000000
,
00002000
00000000
00000000
00000000
,
00003010
00000000
00000001
00000000
00000100
00000000
00001000
00000000
00010000
00000000
00100000
00000000
10000000
00020000
00000000
00000000
,
10030000
01000000
10000000
01000000
00000000
00010000
00001000
00010000
00001000
00010000
00000000
00000010
00001000
00000010
00001000
00000000
,
00000001
00000100
00000001
00000100
00000000
00001000
00010000
00001000
00010000
00001000
00000000
00100000
00010000
00100000
00010000
00100000
,
02000000
03020000
00032000
00003200
,
00000310
00000000
00010000
00000000
00001000
00000000
00000000
00101000
00000000
00101000
00000000
00000000
00100000
00000000
01000000
00000000
,
10000000
00000000
00010000
00000000
01000000
00000000
00000000
00011000
00000000
00011000
00000000
00000000
00000100
00001000
00000100
00001000
,
00000001
00000000
00000100
00000000
00000010
00000000
00000000
00010010
00000000
00010010
00000000
00000000
00010000
00000000
00001000
00000000
,
00100000
00000000
00010000
00000000
01000000
00000000
00000000
10010000
00000000
10010000
00000000
00000000
10000000
01000000
00100000
00010000
,
01000000
00000000
00001000
00000000
00010000
00000000
00001000
00000000
00000010
00000000
00001000
00000000
00010000
00001000
00010000
00000000
,
00000100
00000000
00010000
00000000
00001000
00000000
00010000
00000000
00100000
00000000
00010000
00000000
00001000
00000010
00001000
00000010
,
00000001
00000000
00001000
00000000
00000001
00000000
00000000
00000110
00000000
00000110
00000000
00000000
00001000
00000000
00000001
00000000
,
00000100
00000000
00001000
00000000
00010000
00000000
01000000
00000000
00100000
00010000
00100000
00010000
10000000
00100000
10000000
00000000
,
01000000
00000000
00000000
01000000
00010000
00000000
00000000
00011000
00000000
00011000
00000000
00000000
00001000
00000000
00000100
00000000
,
00000001
00000000
00000010
00000000
00000100
00001000
00000000
00000010
00000000
00000110
00000000
00000000
00000001
00001000
00000001
00000000
,
00000100
00000000
00001000
00000000
01000000
00010000
00000000
10000000
00000000
01000000
00100000
00000000
00010000
00000000
01000000
00000000
,
00001000
00000000
00010000
00000000
00001000
00000000
00000010
00000000
00000001
00000100
00000001
00000100
00001000
00010000
00001000
00000000
,
01000000
00000000
01000000
00010000
00000000
00010000
00100000
00000000
00100000
01000000
00000000
01000000
00010000
00001000
00000010
00000000
,
00000100
00000000
00000100
00001000
00000000
00001000
00000010
00000000
00000010
00000100
00000000
00000100
00001000
00010000
00100000
00000000
,
01000000
00000000
01000000
00010000
00000000
00010000
00100000
00000000
00100000
01000000
00000000
01000000
00010000
00001000
00000010
00000000
,
00000100
00000000
00000100
00001000
00000000
00001000
00000010
00000000
00000010
00000100
00000000
00000100
00001000
00010000
00100000
00000000
,
10010000
00000000
20020000
00000000
00000000
00000000
00000000
00000000
00000000
00000000
30030000
00000000
10000000
01000000
00010000
00001000
,
00010000
00000000
00022000
00000000
00033000
00000000
00000100
00001000
00000100
00001000
00000001
00000010
00000200
00000000
00000000
00000000
,
00001300
00000000
00000000
00000010
00000000
00000000
00000100
00000000
00000000
00001000
00000000
00000000
00011000
00000000
00110000
00000000
,
00100000
00000000
00000000
01000000
00000000
00000000
00001000
00000000
00000000
00010000
00000000
00000000
00022000
00000000
00033000
00000000
,
00001000
01000000
00001000
01000000
00000000
00010000
00000000
00100000
00000000
01100000
00000000
00000000
10000000
01000000
00010000
00001000
,
00020000
00000000
00000000
00000000
00001000
00001000
00001000
00031000
,
00010000
00000000
00000100
00001000
00000000
00000001
00000000
00000100
00000000
00001000
00010000
00000000
00100000
00000000
10000000
00000000
,
01000000
00000000
00010000
00001000
00000010
00000000
00001000
00010000
01000000
00000000
00010000
00000000
00001000
00000000
00000000
00000000
,
00000100
00000000
00001000
00010000
00100000
00000000
00010000
00001000
00000100
00000000
00000100
00000000
00000001
00001000
00000001
00001000
,
00000100
00000000
00000000
00000001
00000000
00000000
00001000
00000000
00000000
00010000
00000000
00000000
00100000
01000000
00100000
00000000
,
10000000
00000000
00000000
00010000
00000000
00000000
00001000
00000000
00000000
00000001
00000000
00000100
00000000
00000000
00000000
00000000
,
00000220
00000000
00000000
00000330
,
00000001
00000000
00000000
00000000
00000000
00000000
00000000
00000000
00000000
00000000
00000000
00000000
00000100
00000000
00000000
00000000
00000000
00000000
00000000
00000000
00000000
00000000
00000000
00000000
00000001
00000000
00000000
00000000
00000000
00000000
00000000
00000000
00000000
00000000
00000000
00000000
00000100
00000000
00000000
00000000
00000000
00000000
00000000
00000000
00000000
00000000
00000000
00000000
00000010
00000000
00000000
00000000
00000000
00000000
00000000
00000000
00000000
00000000
00010000
00000000
00000000
00000000
00000000
00000000
00000000
00000000
00000000
00000010
00000000
00000000
00000000
00000000
00000000
00000000
00000000
00000000
00000000
00010000
00000000
00000000
00000000
00000000
00000000
00000000
00000000
00000000
00000000
00000000
00000000
00000000
00000000
00000000
00000000
00000000
00000000
00000000
00001000
00000000
00000000
00000000
00000000
00000000
00000000
00000000
00000000
00000000
00000000
00000000
00100000
00000000
00000000
00000000
00000000
00000000
00000000
00000000
00000000
00000000
00000000
00000000
00001000
00000000
00000000
00000000
00000000
00000000
00000000
00000000
00000000
00000000
00000000
00000000
00100000
00000000
00000000
00000000
00000000
00000000
00000000
00000000
00000000
00000000
00000000
00000000
01000000
00000000
00000000
00000000
00000000
00000000
00000000
00000000
00000000
00000000
00000000
00000000
10000000
00000000
00000000
00000000
00000000
00000000
00000000
00000000
00000000
00000000
00000000
00000000
01000000
00000000
00000000
00000000
00000000
00000000
00000000
00000000
00000000
00000000
00000000
00000000
10000000
00000000
00000000
00000000
00000000
00000000
00000000
00000000
00000000
00000000
00000000
00000000
,
00000000
00100000
10000000
01000000
00100000
00010000
01000000
00001000
00000000
00010000
00000000
00011000
00000000
00000100
00001000
00000100
,
00001000
00000000
00000001
00000100
00000000
00000010
00000000
00001000
00000100
00000000
00000010
00000100
00000000
00010000
00001000
00000000
,
00000000
01000000
00010000
01000000
00010000
10000000
01000000
00100000
00010000
01000000
00000000
01010000
00000000
00001000
00010000
00000100
,
00010000
00000000
00001000
00000100
00000000
00000001
00000100
00000000
00000010
00001000
00000100
00001000
00000000
00002002
00000000
00000000
,
00000000
00000000
00000000
00000000
00000000
00000000
00000000
00003003
,
00000001
00000000
00000100
00000000
00001000
00000000
00000000
00011000
00000000
00011000
00000000
00000000
00010000
00000000
01000000
00000000
,
00100000
00000000
00010000
00000000
10000000
00000000
00000000
01100000
00000000
01100000
00000000
00000000
00010000
01000000
00010000
01000000
,
00010000
00000000
00100000
00000000
01000000
00000000
00000000
00011000
00000000
00011000
00000000
00000000
00000100
00000000
00001000
00000000
,
00000001
00000000
00000100
00000000
00001000
00000000
00000000
00011000
00000000
00011000
00000000
00000000
00010000
00000100
00001000
00000001
;

//--------------- dance-double - forcednature ----------------
#NOTES:
     dance-double:
     forcednature:
     Hard:
     15:
     0,0,0,0,0:
00000000
00000000
00000000
00000000
,
00000000
00000000
00000000
00000000
,
00000000
00000000
00000000
00000000
,
00000000
00000000
00000000
00000000
,
00000000
00000000
00000000
00000000
,
00000000
00000000
00000000
00000000
,
00000000
00001000
00010000
00001000
00010000
01000000
00100000
01000000
00000000
01100000
00000000
10010000
00000000
10000000
01000000
00010000
,
00001000
00000000
00001000
00000100
00000000
00000110
00000000
00000000
00000001
00000000
00000001
00000010
00000000
00000110
00000000
00000000
,
00000000
00000001
00000100
00000001
00000010
00001000
00010000
00001000
00000000
00101000
00000000
11000000
00000000
10000000
00010000
00100000
,
01000000
00000000
00100000
00001000
00000000
00011000
00000000
00000000
00000100
00000010
00000100
00000010
00000000
00001001
00000000
00000000
,
00000001
00000000
00000100
00000000
00001000
00000000
00010000
00100000
00000000
00100000
00000000
00100000
10000000
00000000
01000000
00000000
,
00010000
00000000
00001000
00000000
00000010
00000000
00000001
00000100
00000000
00000100
00000000
00000100
00001000
00010000
00001000
00010000
,
00001000
00000000
00000010
00000000
00000001
00000000
00000100
00001000
00000000
00001000
00000000
00001000
00010000
00000000
00100000
00000000
,
10000000
01000000
00100000
00000000
00010000
01000000
00100000
00000000
10000000
01000000
10000000
01000000
00010000
00001000
00010000
00001000
,
00000000
00000100
00000001
00000100
00000001
00000010
00000100
00001000
00000000
00000010
00000000
00011000
00000000
00100000
00001000
01000000
,
00001000
00000000
00010000
00100000
00000000
01100000
00000000
00000000
10000000
00000000
01000000
00010000
00000000
00011000
00000000
00000000
,
00000000
00000100
00001000
00000001
00000100
00001000
00000100
00000010
00000000
00001000
00000000
00001001
00000000
00000001
00000010
00000100
,
00001000
00000000
00010000
01000000
00000000
00100000
10000000
00000000
01000000
00010000
00001000
00010000
00000000
00010010
00000000
00000000
,
00020000
00100000
00001000
00000100
,
00031000
00010000
00001000
00010000
00100000
10000000
00100000
10000000
01000000
00100000
01000000
00100000
00001000
00010000
00000000
00000000
,
00000100
00001000
00000010
00010000
00000000
00000000
00000100
00001000
00000010
00010000
00000000
00001000
00010000
00001000
00010000
00001000
,
01000000
00010000
00100000
00001000
00000000
00000000
01000000
00010000
00100000
00001000
00010000
00000100
00001000
00000100
00000010
00000001
,
00000020
00010000
00001000
00000001
,
00000130
00000010
00000100
00000010
00001000
00010000
00001000
00010000
00100000
01000000
00100000
01000000
10000000
01000000
00010000
00000000
,
00100000
00001000
01000000
00010000
00000000
00000000
00100000
00001000
01000000
00010000
00000000
00100000
00001000
00010000
00000100
00001000
,
00000010
00010000
00000100
00001000
00000000
00000000
00000010
00010000
00000100
00001000
00000000
00000010
00010000
00001000
01000000
00010000
,
10000000
00000000
00000000
01000000
00000000
00000000
00010000
00000000
00000000
00000000
00000000
00000000
00001000
00000000
00000000
00000100
00000000
00000000
00000001
00000000
00000000
00000000
00000000
00000000
00000010
00000000
00000100
00000000
00000010
00000000
00000100
00000000
00000010
00000000
00000100
00000000
00001000
00000000
00000000
00000000
00000000
00000000
00000000
00000000
00000000
00000000
00000000
00000000
,
00000001
00000000
00000100
00000000
00001000
00000000
00010000
01000000
00000000
01000000
00000000
01000000
00100000
00000000
00010000
00000000
,
10000000
00000000
00100000
00000000
00010000
00000000
00001000
00000010
00000000
00000010
00000000
00000010
00000100
00001000
00000100
00001000
,
00000001
00000000
00000100
00000000
00001000
00000000
01000000
00010000
00000000
00010000
00000000
00010000
10000000
00000000
01000000
00000000
,
00010000
00000000
00001000
00000000
00100000
00000000
00010000
01000000
00000000
01000000
00000000
01000000
00001000
00010000
00001000
00000000
,
00000010
00000100
00000010
00000100
00001000
00000100
00001000
00000100
00010000
00001000
00010000
00001000
01000000
00010000
00100000
00000000
,
01000000
10000000
01000000
10000000
00010000
01000000
00010000
01000000
00100000
10000000
00100000
10000000
01000000
00010000
00001000
00010000
,
00000100
00000000
00010000
00000000
00001000
00000000
00000100
00000001
00000000
00000001
00000000
00000001
00000010
00000000
00000110
00000000
,
00000100
00000000
00000001
00000000
00000100
00000000
00001000
00000001
00000100
00001000
00000100
00001000
00010000
00001000
00010000
01000000
,
00200000
00000000
00000000
00000000
00010000
00000000
00000000
00010000
00000000
00010000
00000000
00000000
00010000
00000000
00010000
00000000
,
02300000
00000000
00000000
00000000
10000000
00000000
00000000
10000000
00000000
10000000
00000000
00000000
13000000
00000000
10010000
00000000
,
00020000
00000000
00000000
00000000
01000000
00000000
00000000
01000000
00000000
01000000
00000000
00000000
01000000
00000000
01000000
00000000
,
00130000
00000000
00101000
00000000
00000010
00000000
00010010
00000000
00010000
00001000
00010000
00001000
00000010
00000100
00001000
00000001
,
00000100
00001000
00010000
00001000
00000000
00001000
00000100
00001000
00010000
00001000
00000000
00001000
00010000
00100000
10000000
00000000
,
01000000
00010000
00001000
00010000
00000000
00010000
01000000
00010000
00001000
00010000
00000000
00010000
00001000
00000010
00000001
00000000
,
00000100
00001000
00010000
00001000
00000000
00001000
00000100
00001000
00010000
00001000
00000000
00001000
00010000
00100000
10000000
00000000
,
01000000
00010000
00001000
00010000
01000000
00010000
00001000
00010000
00000010
00010000
00000100
00001000
00000001
00000100
00000010
00000000
,
00010010
00000000
00020020
00000000
00000000
00000000
00000000
00000000
00000000
00000000
00030030
00000000
00010000
00001000
00100000
00010000
,
00100000
00000000
02200000
00000000
03300000
00000000
01000000
10000000
01000000
00010000
00001000
00000010
00000002
00000000
00000003
00000000
,
00000101
00000000
00000000
00001010
00000000
00000000
01010000
00000000
00000000
10100000
00000000
00000000
10010000
00000000
10010000
00000000
,
11000000
00000000
00000000
00110000
00000000
00000000
00001100
00000000
00000000
00000011
00000000
00000000
00002002
00000000
00003003
00000000
,
00000001
00000000
00000100
00000000
00001000
00010000
00000000
00011000
00000000
00011000
00000000
00000000
00100000
00010000
01000000
00010000
,
00200000
00000000
00000000
00000000
00000000
00000000
00000000
00000000
00000000
00000000
00000000
00000000
00301000
00010000
00001000
00010000
00001000
00010000
00001000
00010000
00001000
00010000
00001000
00010000
,
00001000
00000000
00000100
00000000
00000001
00001000
00000000
00001000
00000000
00001000
00000100
00000000
00000010
00000000
00000001
00000000
,
00000100
00001000
00010000
00001000
00100000
00001000
01000000
00000000
00010000
10000000
00010000
10000000
01000000
00000000
01100000
00000000
,
01000000
00000000
00000000
00000000
00000000
00000000
00000000
00000000
00000000
00000000
00000000
00000000
00010000
00000000
00000000
00000000
00000000
00000000
00000000
00000000
00000000
00000000
00000000
00000000
00001000
00000000
00000000
00000000
00000000
00000000
00000000
00000000
00000000
00000000
00000000
00000000
00010000
00000000
00000000
00000000
00000000
00000000
00000000
00000000
00000000
00000000
00000000
00000000
00000010
00000000
00000000
00000000
00000000
00000000
00000000
00000000
00000000
00000000
00000000
00000000
00010000
00000000
00000000
00000000
00000000
00000000
00000000
00000000
00000000
00000000
00000000
00000000
00000100
00000000
00000000
00000000
00000000
00000000
00000000
00000000
00000000
00000000
00000000
00000000
00000000
00000000
00000000
00000000
00000000
00000000
00000000
00000000
00000000
00000000
00000000
00000000
00001000
00000000
00000000
00000000
00000000
00000000
00000000
00000000
00000000
00000000
00000000
00000000
00000001
00000000
00000000
00000000
00000000
00000000
00000000
00000000
00000000
00000000
00000000
00000000
00001000
00000000
00000000
00000000
00000000
00000000
00000000
00000000
00000000
00000000
00000000
00000000
00000001
00000000
00000000
00000000
00000000
00000000
00000000
00000000
00000000
00000000
00000000
00000000
00001000
00000000
00000000
00000000
00000000
00000000
00000000
00000001
00000000
00000000
00000000
00000000
00000000
00000000
00001000
00000000
00000000
00000000
00000000
00000000
00000000
00000001
00000000
00000000
00000000
00000000
00000000
00001000
00000000
00000000
00000000
00000000
00000000
00000000
00000001
00000000
00000000
00000000
00000000
00000000
00000000
00001000
00000000
00000000
00000000
00000000
00000000
00000000
,
00000001
00000000
00000000
00000100
00000000
00000000
00010000
00000000
00000000
00100000
00000000
00000000
01000000
00000000
01100000
00000000
,
10000000
00000000
00000000
00010000
00000000
00000000
00001000
00000000
00000000
00000001
00000000
00000220
00000000
00000000
00000330
00000000
,
00022000
00000000
00000000
00000000
00000000
00000000
00000000
00033000
,
01000000
00000000
00000000
00000000
00000000
00000000
00000000
00000000
00000000
00000000
00000000
00000000
00010000
00000000
00000000
00000000
00000000
00000000
00000000
00000000
00000000
00000000
00000000
00000000
10000000
00000000
00000000
00000000
00000000
00000000
00000000
00000000
00000000
00000000
00000000
00000000
00100000
00000000
00000000
00000000
00000000
00000000
00000000
00000000
00000000
00000000
00000000
00000000
10000000
00000000
00000000
00000000
00000000
00000000
00000000
00000000
00000000
00000000
01000000
00000000
00000000
00000000
00000000
00000000
00000000
00000000
00000000
00010000
00000000
00000000
00000000
00000000
00000000
00000000
00000000
00000000
00000000
00001000
00000000
00000000
00000000
00000000
00000000
00000000
00000000
00000000
00010000
00000000
00000000
00000000
00000000
00000000
00000000
00000000
00000000
00000000
00000100
00000000
00000000
00000000
00000000
00000000
00000000
00000000
00000000
00000000
00000000
00000000
00001000
00000000
00000000
00000000
00000000
00000000
00000000
00000000
00000000
00000000
00000000
00000000
00000100
00000000
00000000
00000000
00000000
00000000
00000000
00000000
00000000
00000000
00000000
00000000
00001000
00000000
00000000
00000000
00000000
00000000
00000000
00000000
00000000
00000000
00000000
00000000
00000001
00000000
00000000
00000000
00000000
00000000
00000000
00000000
00000000
00000000
00000000
00000000
00000100
00000000
00000000
00000000
00000000
00000000
00000000
00000000
00000000
00000000
00000000
00000000
00000010
00000000
00000000
00000000
00000000
00000000
00000000
00000000
00000000
00000000
00000000
00000000
00001000
00000000
00000000
00000000
00000000
00000000
00000000
00000000
00000000
00000000
00000000
00000000
,
00000000
00000100
00001000
00000100
00010000
00001000
00100000
00010000
00100000
01000000
00000000
01100000
00000000
10000000
01000000
00010000
,
00001000
00000000
01000000
00010000
00000000
10100000
00000000
10000000
01000000
00000000
00100000
00001000
00000000
00011000
00000000
00000000
,
00000000
01000000
00010000
01000000
00001000
00010000
00000010
00001000
00000010
00000100
00000000
00000110
00000000
00000001
00000100
00001000
,
00010000
00001000
00100000
00001000
01000000
00001000
00010000
00000000
01000000
00100000
01000000
00100000
00000000
20020000
00000000
00000000
,
00000000
00000000
00000000
30030000
,
10000000
00000000
01000000
00000000
00010000
00000000
00001000
00000010
00000000
00000010
00000000
00000010
00000001
00000000
00001001
00000000
,
00000001
00000000
00000100
00000000
00001000
00000000
00010000
00100000
00000000
00100000
00000000
00100000
10000000
00010000
10000000
00010000
,
10000000
00000000
01000000
00000000
00010000
00000000
00001000
00000100
00000000
00000100
00000000
00000100
00000001
00000000
00001001
00000000
,
00000001
00000000
00000100
00000000
00001000
00000000
00010000
01000000
00000000
01000000
00000000
01000000
00100000
00001000
00010000
00100000
;

//--------------- dance-double - forcednature ----------------
#NOTES:
     dance-double:
     forcednature:
     Challenge:
     17:
     0,0,0,0,0:
00000000
00000000
00000000
00000000
,
00000000
00000000
00000000
00000000
,
00000000
00000000
00000000
00000000
,
00000000
00000000
00000000
00000000
,
00000000
00000000
00000000
00000000
,
00000000
00000000
00000000
00000000
,
00000000
00010000
00001000
00010000
00100000
10000000
00010000
00100000
00000000
01100000
00000000
00011000
00000000
00000100
00010000
00001000
,
00010000
00000000
00000010
00001000
00000000
00000101
00000000
00000000
00000001
00000000
00000010
00000100
00000000
00001001
00000000
00000000
,
00000000
00001000
00000010
00000100
00001000
00010000
01000000
00100000
00000000
01100000
00000000
10010000
00000000
10000000
01000000
00010000
,
00001000
00000000
01000000
00010000
00000000
10100000
00000000
00000000
00010000
01000000
00001000
00010000
00000000
00010100
00000000
00000000
,
00000010
00000000
00000100
00000000
00001000
00000000
00010000
01000000
00000000
01000000
00000000
01000000
00100000
00000000
10010000
00000000
,
10000000
00000000
01000000
00000000
00010000
00000000
00001000
00000010
00000000
00000010
00000000
00000010
00000100
00000001
00000100
00001000
,
00000001
00000100
00000001
00000000
00000010
00000000
00001000
00010000
00100000
00010000
00000000
00010000
00001000
00000000
00101000
00000000
,
10000000
01000000
00010000
01000000
00100000
00001000
00010000
00001000
00000100
00000001
00001000
00000100
00000010
00000001
00000100
00000010
,
00000000
00000100
00001000
00010000
01000000
00100000
00001000
00010000
00000000
00101000
00000000
10010000
00000000
10000000
01000000
00010000
,
00001000
00000000
00000100
00000010
00000000
00001001
00000000
00000000
00000001
00000000
00000100
00001000
00000000
00011000
00000000
00000000
,
00000000
00100000
00001000
00010000
00100000
01000000
00010000
10000000
00000000
11000000
00000000
00110000
00000000
00100000
00001000
00010000
,
00000010
00000000
00000000
00000000
00000010
00000000
00000100
00000000
00000000
00000000
00000100
00000000
00001000
00000000
00000000
00000000
00010000
00001000
00010000
00000000
00000100
00000000
00001000
00000000
00000100
00000000
00000010
00000000
00000001
00000000
00001000
00000000
,
00000020
00000001
00000100
00001000
,
00010030
00000010
00010000
00001000
00100000
00010000
00100000
01000000
10000000
00010000
01000000
00010000
00100000
02000000
00000000
00000000
,
03010000
00001000
00010000
00000010
00000000
00000100
00001000
00010000
00001000
00100000
00000000
01000000
00010000
00001000
00010000
00001000
,
00010000
00001000
00010000
00000010
00000000
00000100
00001000
00010000
00100000
10000000
00010000
10000000
01000000
00010000
00001000
00010000
,
00200000
10000000
01000000
00010000
,
10300000
00000000
00000000
00100000
00000000
00000000
00000000
00000000
00000000
01000000
00000000
00000000
00010000
00000000
00000000
01000000
00000000
00000000
00000000
00000000
00000000
00001000
00000000
00000000
00010000
00000000
00000100
00000000
00001000
00000000
00000100
00000000
00000010
00000000
00000001
00000000
00000100
00000000
00000000
00000010
00000000
00000000
00000100
00000000
00000000
00001000
00000000
00000000
,
00010000
00001000
00010000
00000100
00000000
00000010
00001000
00010000
00001000
01000000
00000000
00100000
00010000
00001000
00010000
00001000
,
00010000
00001000
00010000
00000100
00000000
00000010
00001000
00010000
00001000
01000000
00000000
00100000
00010000
00001000
00010000
00001000
,
00000010
00000000
00000000
00000100
00000000
00000000
00000010
00000000
00000000
00000100
00000000
00000000
00000001
00000000
00000000
00001000
00000000
00000000
00000001
00000000
00000000
00001000
00000000
00000000
00000100
00000000
00010000
00000000
00001000
00000000
00100000
00000000
00010000
00000000
00100000
00000000
01000000
00000000
10000000
00000000
00010000
00000000
10000000
00000000
00100000
00000000
01000000
00000000
,
00010000
00000000
00100000
00000000
01000000
00000000
00010000
00001000
00000000
00001000
00000000
00001000
00000010
00000000
00000110
00000000
,
00000100
00000000
00001000
00000000
00000001
00000000
00000100
00001000
00000000
00001000
00000000
00001000
00010000
00100000
10000000
00100000
,
01000000
00000000
10000000
00000000
01000000
00000000
00010000
00100000
00000000
00100000
00000000
00100000
01000000
00000000
01100000
00000000
,
10000000
00000000
00000000
00000000
01000000
00000000
00000000
00000000
00010000
00000000
00000000
00000000
00001000
00000000
00000010
00000000
00000000
00000000
00000010
00000000
00000000
00000000
00000010
00000000
00000001
00000000
00001000
00000010
00001000
00000000
00000100
00000000
,
00010000
00001000
01000000
00100000
00010000
00001000
00100000
01000000
00010000
00001000
01000000
00100000
01000000
00001000
00010000
00000000
,
01000000
10000000
01000000
00010000
00001000
00000010
00000001
00001000
00000001
00000100
00001000
00000000
00010000
00100000
01000000
00100000
,
10000000
00000000
10000000
00000000
01000000
00000000
00010000
00001000
00000000
00001000
00000000
00001000
00000010
00000000
00000110
00000000
,
00000100
00000000
00000000
00000000
00000100
00000000
00000000
00000000
00000100
00000000
00000000
00000000
00000100
00000000
00001000
00000000
00000001
00000000
00000100
00000010
00000100
00000000
00001000
00000000
00010000
00000000
00100000
00000000
10000000
00000000
00010000
00000000
,
10000000
00000000
00000000
01000000
00010000
00000000
00000000
00011000
00000000
00011000
00000000
00000010
00000010
00000000
00001000
00000000
,
00000100
00000010
00000001
00001000
00000001
00000100
00000000
00001000
00000000
00011000
00000000
00100000
00100000
00000000
10010000
00000000
,
10000000
01000000
00010000
00001000
00100000
00010000
00000000
00011000
00000000
00011000
00000000
00000010
00000010
00000000
00001001
00000000
,
00000001
00000000
00000000
00000000
00000100
00000000
00001000
00000000
00010000
00000000
00000000
00000000
01000000
00000000
00010000
00000000
00001000
00010000
00001000
00000000
01000000
00000000
00010000
00000000
10000000
00000000
01000000
00000000
00010000
00000000
00001000
00000000
,
00000010
00000100
00010000
00001000
00000000
00001000
00000010
00000100
00010000
00001000
00000000
00001000
00000100
00001000
00010000
01000000
,
10000000
00000000
00000000
00010000
00000000
00000000
01000000
00000000
00000000
10000000
00000000
00000000
00000000
00000000
00000000
10000000
00000000
00000000
01000000
00000000
00000000
00010000
00000000
00000000
00100000
00000000
00000000
00001000
00000000
00000000
00010000
00000000
00000000
00000100
00000000
00000000
00001000
00000000
00000010
00000000
00000100
00000000
00000001
00000000
00000100
00000000
00000010
00000000
,
00010000
00001000
00010000
00100000
00000000
00100000
10000000
01000000
00010000
00001000
00000000
00001000
00100000
01000000
00100000
00010000
,
10000000
00100000
01000000
00100000
00000000
00100000
00010000
00001000
00000010
00000100
00001000
00000001
00000100
00001000
00010000
00001000
,
01000000
00000000
00000000
00000000
02200000
00000000
00000000
00000000
00000000
00000000
00000000
00000000
00000000
00000000
00000000
00000000
00000000
00000000
00000000
00000000
03300000
00000000
00000000
00000000
10000000
00010000
10000000
00000000
01000000
00000000
00010000
00000000
,
00001000
00000000
00022000
00000000
00033000
00000000
00000100
00001000
00000010
00000100
00001000
00000100
00000001
00000000
00000010
00000100
,
00001000
00000000
00000000
00000010
00001000
00000000
00001100
00000000
00000000
00011000
00000000
00000000
01010000
00000000
10010000
00000000
,
10010000
00000000
00000000
10000000
01000000
00000000
01100000
00000000
00000000
00011000
00000000
00000000
00000220
00000000
00000330
00000000
,
00000001
00000000
00000100
00000000
00000010
00000000
00000100
00000000
00001000
00000000
00010000
00000000
00000000
00000000
00100000
00000000
00000000
00000000
01100000
00000000
00000000
00000000
00000000
00000000
10000000
00010000
10000000
00000000
01000000
00000000
00010000
00000000
,
00002000
00000000
00000000
00000000
00000000
00000000
00000000
00000000
00000000
00000000
00000000
00000000
00013000
00000100
00010000
00000100
00001000
00000001
00001000
00000001
00000010
00000100
00000010
00000100
,
00001000
00000010
00000100
00000010
00010000
00001000
00000000
00101000
00000000
00100000
01000000
00010000
01000000
10000000
00010000
00000000
,
10000000
01000000
00100000
00010000
00001000
00000100
00000010
00000001
00000100
00000010
00001000
00000001
00000010
00000100
00001000
00000000
,
00000001
00000000
00000000
00000000
00000000
00000000
00000000
00000000
00000000
00000000
00000000
00000000
00000100
00000000
00000000
00000000
00000000
00000000
00000000
00000000
00000000
00000000
00000000
00000000
00000010
00000000
00000000
00000000
00000000
00000000
00000000
00000000
00000000
00000000
00000000
00000000
00001000
00000000
00000000
00000000
00000000
00000000
00000000
00000000
00000000
00000000
00000000
00000000
00010000
00000000
00000000
00000000
00000000
00000000
00000000
00000000
00000000
00000000
00000000
00000000
01000000
00000000
00000000
00000000
00000000
00000000
00000000
00000000
00000000
00000000
00000000
00000000
00100000
00000000
00000000
00000000
00000000
00000000
00000000
00000000
00000000
00000000
00000000
00000000
10000000
00000000
00000000
00000000
00000000
00000000
00000000
00000000
00000000
00000000
00000000
00000000
01000000
00000000
00000000
00000000
00000000
00000000
00000000
00000000
00000000
00000000
00000000
00000000
00100000
00000000
00000000
00000000
00000000
00000000
00000000
00000000
00000000
00000000
00000000
00000000
00010000
00000000
00000000
00000000
00000000
00000000
00000000
00000000
00000000
00000000
00000000
00000000
01000000
00000000
00000000
00000000
00000000
00000000
00000000
00000000
00000000
00000000
00000000
00000000
00001000
00000000
00000000
00000000
00000000
00000000
00000000
00010000
00000000
00000000
00000000
00000000
00000000
00000000
00001000
00000000
00000000
00000000
00000000
00000000
00000000
00010000
00000000
00000000
00000000
00000000
00000000
00001000
00000000
00000000
00000000
00000000
00000000
00000000
00010000
00000000
00000000
00000000
00000000
00000000
00000000
00001000
00000000
00000000
00000000
00000000
00000000
00000000
,
00010000
00000000
00000000
00010100
00000000
00000000
00101000
00000000
00000000
00010010
00000000
00000000
01000000
00010000
00100000
00000000
,
01000000
00010000
00001000
00000100
00001000
00010000
00100000
00010000
00001000
00000010
00000001
00002000
00000000
00000000
00003000
00000000
,
00000220
00000000
00000000
00000000
00000000
00000000
00000000
00000330
,
00000001
00000000
00000000
00000000
00000000
00000000
00000000
00000000
00000000
00000000
00000000
00000000
00000100
00000000
00000000
00000000
00000000
00000000
00000000
00000000
00000000
00000000
00000000
00000000
00001000
00000000
00000000
00000000
00000000
00000000
00000000
00000000
00000000
00000000
00000000
00000000
00010000
00000000
00000000
00000000
00000000
00000000
00000000
00000000
00000000
00000000
00000000
00000000
00100000
00000000
00000000
00000000
00000000
00000000
00000000
00000000
00000000
00000000
10000000
00000000
00000000
00000000
00000000
00000000
00000000
00000000
00000000
01000000
00000000
00000000
00000000
00000000
00000000
00000000
00000000
00000000
00000000
10000000
00000000
00000000
00000000
00000000
00000000
00000000
00000000
00000000
00100000
00000000
00000000
00000000
00000000
00000000
00000000
00000000
00000000
00000000
00010000
00000000
00000000
00000000
00000000
00000000
00000000
00000000
00000000
00000000
00000000
00000000
00001000
00000000
00000000
00000000
00000000
00000000
00000000
00000000
00000000
00000000
00000000
00000000
00000010
00000000
00000000
00000000
00000000
00000000
00000000
00000000
00000000
00000000
00000000
00000000
00000100
00000000
00000000
00000000
00000000
00000000
00000000
00000000
00000000
00000000
00000000
00000000
00000001
00000000
00000000
00000000
00000000
00000000
00000000
00000000
00000000
00000000
00000000
00000000
00000100
00000000
00000000
00000000
00000000
00000000
00000000
00000000
00000000
00000000
00000000
00000000
00010000
00000000
00000000
00000000
00000000
00000000
00000000
00000000
00000000
00000000
00000000
00000000
00001000
00000000
00000000
00000000
00000000
00000000
00000000
00000000
00000000
00000000
00000000
00000000
,
00000000
00000100
00000010
00010000
00001000
00100000
01000000
00010000
00001000
00100000
00000000
01100000
00000000
10000000
01000000
00010000
,
00001000
00000000
00000000
00000000
00100000
00000000
00010000
00000000
00000000
00000000
00001100
00000000
00000000
00000000
00000001
00000000
00000100
00000000
00000000
00000000
00001000
00000000
00000100
00000000
00000000
00000000
00000010
00000000
00010000
00001000
00010000
00000000
,
00000000
00100000
10000000
01000000
00010000
00000100
00010000
00000010
00001000
00000100
00000000
00011000
00000000
00000010
00001000
00000001
,
00000010
00001000
00010000
00100000
00010000
00001000
00010000
01000000
10000000
00100000
00100000
00010000
00000000
00022000
00000000
00000000
,
00000000
00000000
00000000
00000000
00000000
00000000
00033000
00000000
00010000
00000100
00001000
00000010
00000100
00001000
00010000
01000000
,
00100000
00000000
00001000
00000000
00010000
00000000
00100000
10000000
00000000
10000000
00000000
10000000
01000000
00000000
00011000
00000000
,
00000100
00000000
00001000
00000000
00000001
00000000
00000100
00001000
00000000
00001000
00000000
00001000
00010000
00100000
00010000
00001000
,
00000010
00000000
00000100
00000000
00001000
00000000
00000001
00000100
00000000
00000100
00000000
00000100
00001000
00000000
00011000
00000000
,
01000000
00000000
00010000
00000000
00100000
00000000
01000000
00010000
00000000
00010000
00000000
00010000
00001000
00000010
00000001
00000100
;
