#TITLE:リモコン;
#SUBTITLE:;
#ARTIST:じーざすP (ワンダフル★オポチュニティ!);
#TITLETRANSLIT:Rimokon;
#SUBTITLETRANSLIT:;
#ARTISTTRANSLIT:JesusP (WONDERFUL★OPPORTUNITY!);
#GENRE:;
#CREDIT:;
#MUSIC:Rimokon.ogg;
#BANNER:Rimokon.png;
#BACKGROUND:Rimokon-bg.png;
#CDTITLE:;
#SAMPLESTART:49.228;
#SAMPLELENGTH:15.000;
#SELECTABLE:YES;
#OFFSET:1.454;
#BPMS:0.000=165.000;
#STOPS:;
#BGCHANGES:-0.450=Rimokon.avi=1.000=0=0=0=StretchNoLoop====,
99999.000=-nosongbg-=1.000=0=0=0=StretchNoLoop====
;
#FGCHANGES:;

//--------------- dance-single - chrononical ----------------
#NOTES:
     dance-single:
     chrononical:
     Beginner:
     3:
     0,0,0,0,0:
0000
0000
0000
0000
,
0000
0000
0000
0000
,
0000
0000
0000
0000
,
1000
0000
1000
0000
,
1001
0000
0001
0000
,
0010
0000
1001
0000
,
0001
0000
0001
0000
,
1001
0000
1000
0000
,
0100
0100
0100
0000
,
0010
0000
0001
0000
,
1000
0001
1000
0000
,
1000
0010
1000
0000
,
0100
0010
0100
0000
,
0010
0000
0010
0000
,
0001
1000
0001
0000
,
1000
0100
1000
0000
,
0001
0010
0001
0000
,
1000
0000
0010
0000
,
1000
1000
1000
0000
,
1000
0000
0100
0000
,
0010
0010
0010
0000
,
0001
0000
0010
0000
,
1000
0000
0100
0000
,
0001
0000
0100
0000
,
0010
0010
0010
0000
,
1000
0000
0010
0000
,
0001
0000
0100
0000
,
1000
1000
1000
0000
,
0001
0001
0001
0000
,
1002
0000
2003
0000
,
0000
0000
3001
0001
,
0001
0000
1000
0000
,
0100
0010
0100
0000
,
1001
0000
1001
0000
,
0110
0000
0000
1001
,
1000
0000
0100
0000
,
0001
0000
0100
0000
,
1000
0000
0010
0000
,
0001
0000
0010
0000
,
1000
0000
0100
0000
,
0001
0000
0010
0000
,
1000
0001
1000
0000
,
0001
0001
0001
0000
,
1000
0000
0010
0000
,
0001
0000
0010
0000
,
1000
0000
0100
0000
,
0001
0000
0100
0000
,
1000
2000
3000
0002
,
2003
0000
3002
0000
,
1003
0000
0010
0000
,
0100
0000
0001
0000
,
1000
1000
1000
0000
,
0001
0001
0001
0000
,
0100
0100
0100
0000
,
0010
0000
1000
0000
,
2002
0000
0000
0000
,
3003
0000
2000
0000
,
0000
0000
0000
0000
,
3002
0000
0000
0000
,
0023
0000
0000
0000
,
0130
0100
0100
0000
,
1000
1000
1000
0000
,
0001
0010
0001
0000
,
1000
0010
2000
0000
,
3001
0001
0001
0000
,
0100
0100
0100
0000
,
2001
0000
3002
0000
,
0023
0030
0020
0030
,
0020
0030
0100
0000
,
1000
1000
1000
0000
,
1001
0000
1001
0000
,
0110
0000
1001
0000
,
0110
0000
0110
0000
,
0010
0010
0100
0000
,
0001
0010
0001
0000
,
0010
0001
0010
0000
,
0001
0010
0001
0000
,
1000
0001
1000
0000
,
0001
0000
0010
0000
,
1000
0000
0100
0000
,
0001
0001
0001
0000
,
1000
0001
1000
0000
,
0001
0010
0001
0000
,
0010
0001
0010
0000
,
0001
0010
0001
0000
,
1000
0001
1000
0000
,
0002
0003
2000
3000
,
1000
0000
0100
0000
,
0001
0000
0010
0000
,
1000
0001
1000
0000
,
2002
0000
0000
0000
,
0000
0000
0000
0000
,
0000
0000
0000
0000
,
0000
0000
0000
0000
,
0000
0000
0000
0000
,
0000
3003
0000
0000
;

//--------------- dance-single - chrononical ----------------
#NOTES:
     dance-single:
     chrononical:
     Easy:
     6:
     0,0,0,0,0:
0000
0000
0000
0000
,
0000
0000
0000
0000
,
0000
0000
0000
0000
,
0000
0000
0000
0000
,
0000
0000
0000
0000
,
0000
0000
0000
0000
,
0000
0000
0000
0000
,
1000
0001
1000
0001
,
0001
0100
0001
0100
,
0010
0100
0001
2000
,
3001
0010
0001
0000
1000
0010
2000
0000
,
3001
0100
0010
2000
,
3001
0010
0001
0000
0002
0000
2003
0000
,
0000
3010
0000
0000
0010
0000
0200
0000
,
0301
0100
0001
0000
1000
0010
1000
0000
,
0001
0010
0100
2000
,
3001
0100
0001
0000
0001
0000
2000
0000
,
0000
3100
0000
0000
0100
0000
0020
0000
,
0031
0010
0001
0000
1000
0010
1000
0000
,
0001
0100
1000
0100
,
0001
0001
0001
1000
,
0200
0301
0200
1300
,
0001
0100
0010
0100
,
0001
0010
1000
0010
,
0001
0001
0001
1000
,
0020
0031
0020
1030
,
0001
0000
0010
0000
0000
0010
0200
0000
,
2300
3010
0020
0130
,
0001
0010
0001
0000
0100
0010
0100
0000
,
0020
0000
0000
0230
0000
0000
0000
0000
,
0000
0000
0302
2003
,
3002
0013
0020
0130
,
0100
1000
0100
0000
1000
0000
0001
0000
,
1001
0000
0000
0000
1001
0000
0000
0002
,
0000
0000
0000
0013
0000
0000
0001
0000
,
0001
0010
0000
0000
1000
0010
0000
0000
,
0001
0100
0001
2000
,
0000
3020
0000
0000
0130
0000
0100
0000
,
0001
0010
1000
0010
,
0001
0100
0000
0000
1000
0100
0000
0000
,
0001
0010
1000
0200
,
0000
0302
0000
0000
2003
0000
3100
0000
,
0200
0310
0020
0031
,
1000
0010
0000
0000
0001
0010
0000
0000
,
2001
3010
1002
0203
,
0000
0302
0000
0000
0023
0000
0130
0000
,
0200
0301
0200
1300
,
0001
0010
0002
0000
0013
0001
0000
0000
,
0002
0203
2300
3200
,
0000
0302
0000
0000
2003
0000
3100
0000
,
0200
0000
0310
0000
0001
2000
0000
3002
,
0000
0003
1000
0100
,
0010
0001
0010
1000
,
0010
0100
0001
0100
,
1000
0010
0100
0001
,
2000
0000
3002
0023
,
0032
0203
0320
0000
,
0000
0000
2030
3200
,
0320
0000
0000
0000
,
0032
0203
0000
0000
,
0310
0000
1000
0000
0001
1000
0001
0000
,
1000
0100
1000
0000
0001
0000
1002
0000
,
1003
0000
0010
0000
0100
0010
0100
0000
,
0001
0010
0200
0000
,
2300
3100
0200
0310
,
0001
1000
0001
0000
0010
0100
0010
0000
,
0020
0000
0000
0230
0000
0000
0302
0000
,
0203
0000
0000
2300
0000
0000
3002
0000
,
0203
0320
0130
0001
,
0001
0010
0001
0000
1000
0000
0001
0000
,
1001
0000
0000
0000
1001
0000
0000
0002
,
0000
0000
0000
0013
0000
0000
0000
0200
,
0000
0000
0000
1300
0000
0000
0000
0000
,
0010
0010
0100
0100
,
0001
0010
0001
0010
,
0010
0001
0010
0001
,
0001
0010
0001
1000
,
1000
0001
1000
0001
,
0001
0100
0001
1000
,
1000
0001
1000
0001
,
0001
0100
0001
0100
,
0010
0010
0100
0100
,
0001
0010
0001
0010
,
0010
0001
0010
0001
,
0001
0010
0001
1000
,
1000
0001
1000
0001
,
0001
0100
0001
1000
,
1000
0001
1000
0001
,
0010
0001
0010
0001
,
0002
0103
0200
0310
,
2002
0000
0000
0000
,
0000
0000
0000
0000
,
0000
0000
0000
0000
,
0000
0000
0000
0000
,
0000
0000
0000
0000
,
0000
3003
0000
0000
;

//--------------- dance-single - chrononical ----------------
#NOTES:
     dance-single:
     chrononical:
     Medium:
     10:
     0,0,0,0,0:
0000
0000
0000
0000
,
0000
0000
0000
0000
,
0000
0000
0000
0000
,
0000
0000
0000
0000
,
0000
0000
0000
0000
,
0000
0000
0000
0000
,
0000
0000
0000
0000
,
1000
0001
1000
0001
,
1001
1000
0011
0001
,
0010
0001
1001
0002
,
1003
0100
0010
0010
0001
1000
0002
0000
,
1003
0010
0100
2000
,
3100
0010
1000
0100
0010
0000
0120
0000
,
0000
1030
0000
0010
0001
1000
0002
0000
,
0103
1000
0100
0000
0010
0001
0010
0000
,
1000
0100
0010
2000
,
3001
0100
0010
0001
0100
0000
0120
0000
,
0000
0031
0000
0010
1000
0100
0020
0000
,
0130
0001
0100
0000
0100
1000
0100
0000
,
1000
0010
0100
0000
0100
0100
0001
0000
,
1000
0100
0000
0110
0000
0100
1000
0001
,
0002
0000
0103
0001
1000
0000
1000
0010
,
0001
0010
0000
0110
0000
0000
0010
0000
,
1000
0100
0010
0002
0000
1003
1000
0000
,
1000
0100
0000
0110
0000
0010
1000
0010
,
0002
0000
0103
0001
0010
0000
0100
1000
,
0010
0100
0000
0110
0000
0000
0120
0000
,
2030
0000
3100
0000
0200
0000
0310
0001
,
1000
0010
0100
0000
0001
1000
0001
0000
,
2001
0000
0000
3200
0000
0000
0001
0000
,
1000
0001
0320
0032
,
2003
0000
3020
0000
0130
0000
0100
0001
,
1000
0100
0010
0000
0002
0000
1003
0000
,
0001
0010
0000
0000
1000
0100
0000
0002
,
0000
1003
0100
0010
0000
0000
0001
1000
,
0010
0001
0000
1000
0100
0001
2000
0000
,
3001
0000
0100
0000
0002
0000
1003
2000
,
0000
3002
0000
0013
0100
0000
0001
0100
,
1000
0010
0100
0000
0100
0001
0010
0001
,
0010
1000
0000
0001
0100
1000
0002
0000
,
1003
0010
0001
0200
,
0000
0301
0100
1000
0020
0000
0130
0000
,
1001
0000
0110
0000
1001
0000
1000
0001
,
0100
1000
0000
0001
0010
1000
0001
0000
,
2001
0000
3010
0000
1002
0000
0103
0200
,
0000
1300
0100
0001
0010
0000
0010
0100
,
1000
0001
0100
0000
0001
1000
0001
1000
,
0010
0001
2000
0000
3100
0010
2000
0000
,
3002
0000
0023
0000
2030
0000
3010
0020
,
0000
1030
0010
0001
0100
0000
0100
0000
,
0010
0001
0010
0000
0010
2000
0000
3020
,
0000
0030
1000
0100
,
0010
0000
0001
0000
1000
0010
0001
0010
,
1000
0000
0001
0010
1000
0010
0001
0000
,
0100
0000
0100
0000
0010
0000
0000
1000
0000
0000
0001
0000
1000
0000
0001
0000
,
0200
0000
2300
3200
,
0302
0000
0013
0100
0020
0000
0001
0000
,
1000
0000
0001
0000
0031
0100
0010
1000
,
0020
0001
1000
0001
,
2030
3200
1000
0001
,
0310
0001
1000
0000
0010
1000
0001
0000
,
0100
0010
0100
0000
0001
1000
0002
0000
,
1003
0100
0001
0000
0001
0100
1000
0000
,
0001
0100
1000
0100
0020
0000
0001
0000
,
0230
0000
0301
0000
0020
0000
0031
1000
,
0100
0001
0100
0000
1000
0010
1000
0000
,
2001
0000
0000
3020
0000
0000
0032
0000
,
0023
0000
0000
2030
0000
0000
3020
0000
,
0230
0000
0302
0000
1003
0000
0100
0010
,
1000
0010
0001
0000
2000
0000
3001
0000
,
1000
0100
0000
0000
0001
0010
0000
2000
,
0000
3001
0010
1000
0000
0000
0000
2000
,
0000
3010
0001
0100
0000
0000
0000
0001
,
0100
1000
0000
0001
0010
1000
0001
0000
,
1000
0100
2000
3002
,
0013
0001
0010
0001
,
0001
0000
0010
0000
0001
0000
0010
0001
,
0010
1000
0000
0001
0100
1000
0001
0000
,
1000
0010
0001
0100
,
1000
0001
1000
0001
,
0100
0001
0010
0000
0100
1000
0010
1000
,
0010
0001
0000
1000
0100
0001
1000
0000
,
1002
0103
2010
3002
,
0013
0001
0010
0001
,
0001
0000
0010
0000
0001
0000
0010
0001
,
0100
1000
0000
0001
0010
1000
0001
0000
,
2000
3200
0302
0203
,
1300
0010
0100
0000
0100
0010
1000
0000
,
0100
0001
0100
1000
0001
0000
0100
0000
,
0120
0000
0130
0100
0002
0000
1003
0000
,
2002
0000
0000
0000
,
0000
0000
0000
0000
,
0000
0000
0000
0000
,
0000
0000
0000
0000
,
0000
0000
0000
0000
,
0000
3003
0000
0000
;

//--------------- dance-single - chrononical ----------------
#NOTES:
     dance-single:
     chrononical:
     Hard:
     12:
     0,0,0,0,0:
0000
0000
0000
0000
,
0000
0000
0000
0000
,
0000
0000
0000
0000
,
0000
0000
0000
0000
,
0000
0000
0000
0000
,
0000
0000
0000
0000
,
0000
0000
0000
0000
,
1000
0001
1000
0001
,
1001
1000
0011
0001
,
0010
0000
0000
0000
0001
0000
0000
0000
1001
0000
0000
0000
0001
1000
0001
1000
,
0001
0100
1000
0100
0001
0010
0200
0000
,
1300
0000
0000
0000
0010
0000
0000
0000
0100
0000
0000
0000
0001
0010
0001
0010
,
0001
0010
1000
0010
0002
0000
0203
0000
,
0000
0000
0310
0000
0000
0000
0001
0000
0010
0000
1000
0000
0100
0010
0100
0010
,
0100
0001
0100
1000
0010
0001
0020
0000
,
1030
0000
0000
0000
0100
0000
0000
0000
0010
0000
0000
0000
0001
0100
0001
0100
,
0001
0100
1000
0100
0002
0000
0023
0000
,
0000
0000
0130
0000
0000
0000
0001
0000
0100
0000
1000
0000
0010
0100
0010
0100
,
0010
0001
0010
1000
0100
0001
0100
0010
,
0001
0100
0010
0100
0100
1000
0100
0010
,
1000
0100
0000
0110
0000
0010
0001
1000
,
2001
0000
3001
0100
0010
0000
0001
0010
,
0100
0010
0000
0110
0000
0010
0010
1000
,
0001
0010
0100
0020
0000
1030
0010
0001
,
1000
0010
0000
0110
0000
0010
1000
0001
,
1002
0000
1003
0100
1100
0000
1000
0010
,
0001
0010
0000
0110
0000
0010
1010
1000
,
0002
0000
0023
0000
0130
0000
0001
0100
,
0010
0001
0100
0010
0001
0010
1000
0010
,
0200
0000
0000
0320
0000
0000
0001
0000
,
1000
0001
2030
3200
,
0320
0000
0032
0000
0103
0000
1000
0100
,
0010
1000
0100
0010
0110
0000
1001
0000
,
1010
1010
0000
0000
0101
0101
0000
2001
,
0000
3001
0100
0110
0000
0000
1001
0001
,
0100
1000
1000
0001
0010
1000
2010
0000
,
3100
0000
0100
0000
0200
0000
0301
0002
,
0000
0203
0000
1300
0010
0000
0010
0001
,
0010
1000
0100
0010
1000
0010
0100
1000
,
0010
0001
0001
1000
0100
0001
1002
0000
,
1003
0000
0100
0000
0001
0000
0010
0020
,
0000
1030
0100
0001
0200
0000
1300
0010
,
0110
0000
1001
0000
0110
0000
1001
1000
,
0100
0001
0001
1000
0010
0001
0011
0000
,
1002
0000
0103
0000
2001
0000
3010
0020
,
0000
0031
0010
1000
0100
0000
0100
0001
,
0100
1000
0010
0001
0010
0010
1000
0001
,
0100
1000
0002
0013
1000
0010
1020
0000
,
2030
0000
3200
0000
0302
0000
0103
0200
,
0000
0301
0100
1000
0010
0001
0010
1000
,
0100
0001
0100
1000
0010
0110
0000
2002
,
0000
0000
3003
0000
1000
0100
0010
0001
,
1000
0010
0100
0001
1000
0010
0100
1000
,
0100
0010
1000
0100
0010
1000
0010
0100
,
1000
0000
0001
0010
0000
0100
0000
0001
0000
0100
0010
0000
0001
0000
0100
0000
,
0210
0000
2300
3200
,
0302
0000
0013
0100
0020
0000
1000
0000
,
0001
0000
1000
0000
0031
0100
0110
0010
,
0200
0000
0000
0000
1000
0000
0000
0000
0001
0000
0000
0000
0010
0000
0310
1000
,
0001
0010
0020
0000
0001
0000
1000
0000
,
0031
0000
1000
0001
1000
0000
0100
0000
0010
0000
1000
0000
0010
0000
0001
0000
,
0100
0000
1000
0000
0100
0010
0100
0000
0001
0000
1000
0000
2100
0000
0000
0000
,
3100
0001
0100
0001
0100
1000
0100
1000
,
0010
0100
0001
1000
2002
0000
3003
0000
,
1002
0000
0203
0000
0310
0000
0001
0010
,
1000
0100
0001
0100
1000
0010
0200
0000
,
0320
0000
0000
0230
0000
0000
2300
0000
,
3200
0000
0000
0302
0000
0000
0023
0000
,
0230
0000
0320
0000
0130
0000
0001
0100
,
0010
0001
0100
0010
0110
0000
1001
0000
,
0101
0101
0000
0000
1010
1010
0000
2100
,
0000
3100
0010
0001
0000
0000
0000
0102
,
0000
0103
0010
1000
0000
0000
0000
1000
,
0001
0010
0100
0001
1000
0010
0001
0000
,
0001
0100
0001
1002
,
0013
0001
0100
0001
,
0001
0000
0010
0000
0001
0000
0100
0001
,
1000
0010
0100
1000
0001
0010
1000
0000
,
1000
0100
0001
0010
,
1000
0001
0000
0000
0002
0000
0000
0000
1003
0001
0000
0000
0002
0000
0000
0000
,
1003
0010
0200
0000
1300
0100
0010
0001
,
1000
0100
0010
1000
0001
0010
0100
0000
,
1002
0013
2001
3200
,
0310
0001
0100
0001
,
0001
0000
0010
0000
0001
0000
0100
1000
,
0001
0010
0100
0001
1000
0100
0010
0000
,
0002
0203
2300
3200
,
0301
0010
0100
1000
1000
0010
0100
0001
,
0001
0010
1000
0010
0001
0011
0000
1002
,
0000
0000
0103
0100
0002
0000
1003
0000
,
2002
0000
0000
0000
,
0000
0000
0000
0000
,
0000
0000
0000
0000
,
0000
0000
0000
0000
,
0000
0000
0000
0000
,
0000
3003
0000
0000
;

//--------------- dance-double - chrononical ----------------
#NOTES:
     dance-double:
     chrononical:
     Easy:
     6:
     0,0,0,0,0:
00000000
00000000
00000000
00000000
,
00000000
00000000
00000000
00000000
,
00000000
00000000
00000000
00000000
,
00000000
00000000
00000000
00000000
,
00000000
00000000
00000000
00000000
,
00000000
00000000
00000000
00000000
,
00000000
00000000
00000000
00000000
,
10000000
00010000
10000000
00010000
,
00010000
00100000
00001000
00010000
,
00000010
00000100
00000001
00002000
,
00003010
00000100
00000010
00000000
00001000
00000100
00002000
00000000
,
00013000
00100000
00020000
20030000
,
30010000
00100000
00010000
00000000
01000000
00000000
00020000
00000000
,
00000000
20030000
00000000
00000000
31000000
00000000
00200000
00000000
,
00310000
01000000
00010000
00000000
00100000
00010000
00100000
00000000
,
00001000
00010000
00000100
00002000
,
00003001
00000010
00000001
00000000
00000010
00000000
00000200
00000000
,
00000000
00020300
00000000
00000000
00031000
00000000
00200000
00000000
,
00310000
01000000
00010000
00000000
10000000
00100000
10000000
00000000
,
00010000
00100000
10000000
00100000
,
00010000
00001000
00000100
00000010
,
00000020
00001030
00000020
00000031
,
00000100
00001000
00010000
01000000
,
10000000
00100000
00010000
00100000
,
10000000
00100000
00010000
00001000
,
00000020
00001030
00000020
00000031
,
00000100
00000000
00001000
00000000
00000000
00010000
00002000
00000000
,
00203000
00310000
00020000
01030000
,
00010000
00100000
00010000
00000000
00100000
01000000
00100000
00000000
,
00020000
00000000
00000000
00032000
00000000
00000000
00000000
00000000
,
00000000
00000000
00003020
00000032
,
00000203
00000310
00000020
00001030
,
00000100
00001000
00000100
00000000
00010000
00000000
00001000
00000000
,
00011000
00000000
00000000
00000000
00011000
00000000
00000000
00002000
,
00000000
00103000
00000000
01000000
,
10000000
00100000
00000000
00000000
00010000
00100000
00000000
00000000
,
10000000
01000000
00100000
00002000
,
00000000
00023000
00000000
00000000
00030100
00000000
00001000
00000000
,
00000001
00000010
00001000
00000010
,
00000001
00000010
00000000
00000000
00001000
00000010
00000000
00000000
,
00000001
00000010
00001000
00000200
,
00000000
00000320
00000000
00000000
00001030
00000000
00010000
00000000
,
00200000
01300000
02000000
13000000
,
00010000
01000000
00000000
00000000
10000000
01000000
00000000
00000000
,
20010000
30100000
10020000
02030000
,
00000000
03020000
00000000
00000000
00130000
00000000
00001000
00000000
,
00020000
10030000
00020000
00031000
,
00001000
00010000
00002000
00000000
00013000
00001000
00000000
00000000
,
00002000
00003200
00000302
00000023
,
00000000
00002030
00000000
00000000
00023000
00000000
01030000
00000000
,
20000000
00000000
30100000
00000000
01000000
00020000
00000000
20030000
,
00000000
30000000
01000000
00100000
,
00010000
00001000
00000100
00000010
,
00000001
00000100
00000010
00010000
,
00001000
00100000
00010000
10000000
,
00020000
00000000
00032000
00023000
,
00230000
00302000
00023000
00000000
,
00000000
00000000
00030200
00000320
,
00000032
00000000
00000000
00000000
,
00002003
00023000
00000000
00000000
,
00130000
00000000
00100000
00000000
01000000
10000000
01000000
00000000
,
10000000
00100000
10000000
00000000
00010000
00000000
00200000
00000000
,
00301000
00010000
00100000
00010000
,
00001000
00000100
00002000
00000000
,
00023000
01030000
02000000
13000000
,
00100000
01000000
00100000
00000000
01000000
00010000
01000000
00000000
,
00020000
00000000
00000000
00230000
00000000
00000000
20300000
00000000
,
30200000
00000000
00000000
00302000
00000000
00000000
00023000
00000000
,
00030200
00002300
00003010
00000020
,
00001030
00000100
00001000
00000000
00010000
00000000
00100000
00000000
,
00110000
00000000
00000000
00000000
00110000
00000000
00000000
00020000
,
00000000
00000000
00000000
01030000
00000000
00000000
00000000
02000000
,
00000000
00000000
00000000
03001000
00000000
00000000
00000000
00000000
,
00100000
00100000
01000000
01000000
,
00100000
00010000
00010000
00100000
,
00100000
00001000
00010000
00001000
,
00001000
00010000
00001000
00010000
,
00001000
00010000
00001000
00010000
,
00010000
00000100
00000010
00000001
,
00001000
00000001
00001000
00000001
,
00000001
00001000
00010000
00001000
,
00000010
00000010
00000100
00000100
,
00001000
00010000
00001000
00010000
,
00010000
00001000
00010000
00001000
,
00001000
00010000
00001000
00010000
,
00001000
00010000
00001000
00010000
,
01000000
10000000
00100000
10000000
,
10000000
00010000
10000000
00010000
,
00100000
00010000
00100000
00010000
,
00200000
00301000
00002000
00013000
,
00022000
00000000
00000000
00000000
,
00000000
00000000
00000000
00000000
,
00000000
00000000
00000000
00000000
,
00000000
00000000
00000000
00000000
,
00000000
00000000
00000000
00000000
,
00000000
00033000
00000000
00000000
;

//--------------- dance-double - chrononical ----------------
#NOTES:
     dance-double:
     chrononical:
     Medium:
     10:
     0,0,0,0,0:
00000000
00000000
00000000
00000000
,
00000000
00000000
00000000
00000000
,
00000000
00000000
00000000
00000000
,
00000000
00000000
00000000
00000000
,
00000000
00000000
00000000
00000000
,
00000000
00000000
00000000
00000000
,
00000000
00000000
00000000
00000000
,
10000000
00010000
10000000
00010000
,
00100000
00001000
00010000
00000100
,
00000010
00000001
00000100
00000020
,
00001030
00000100
00010000
00010000
01000000
00100000
00020000
00000000
,
00130000
00001000
00010000
00000020
,
00000130
00001000
00000100
00000010
00001000
00000000
00020000
00000000
,
00000000
00130000
00000000
00001000
00010000
00000100
00020000
00000000
,
00031000
00010000
00001000
00000000
00001000
00000100
00002000
00000000
,
00013000
01000000
00100000
00200000
,
00310000
00100000
00001000
00010000
00000100
00000000
00002000
00000000
,
00000000
00013000
00000000
00001000
00000010
00001000
00000200
00000000
,
00001300
00010000
00100000
00000000
01000000
10000000
00010000
00000000
,
00100000
00001000
00010000
00000000
00000100
00000100
00010000
00000000
,
00001000
00010000
00000000
00011000
00000000
00010000
01000000
10000000
,
20000000
00000000
30100000
00010000
00001000
00000000
00010000
00001000
,
00000100
00000010
00000000
00000110
00000000
00000000
00000010
00000000
,
00001000
00000100
00000010
00000002
00000000
00001003
00000100
00010000
,
00001000
00100000
00000000
00101000
00000000
00100000
01000000
10000000
,
00200000
00000000
00310000
00100000
10000000
00000000
01000000
00100000
,
00010000
00001000
00000000
00011000
00000000
00010000
00002000
00000000
,
00003020
00000000
00000031
00000000
00000020
00000000
00001030
00000100
,
00010000
00001000
00100000
00000000
00001000
00010000
00000100
00000000
,
00001200
00000000
00000000
00020300
00000000
00000000
00100000
00000000
,
00001000
00100000
00032000
00203000
,
02300000
00000000
23000000
00000000
30100000
00000000
01000000
00010000
,
00100000
00001000
00010000
00000000
00000200
00000000
00002300
00000000
,
00003001
00000010
00000000
00000000
00001000
00000100
00000000
00000002
,
00000000
00001003
00000100
00010000
00000000
00000000
00001000
00010000
,
01000000
10000000
00000000
00010000
00100000
10000000
00020000
00000000
,
00031000
00000000
00000100
00000000
00000020
00000000
00001030
00002000
,
00000000
00023000
00000000
00030100
00000010
00000000
00001000
00000100
,
00010000
00001000
00100000
00000000
01000000
01000000
10000000
00010000
,
01000000
10000000
00000000
00010000
00100000
10000000
00020000
00000000
,
10030000
01000000
00010000
00200000
,
00000000
00310000
00100000
10000000
02000000
00000000
03100000
00000000
,
00110000
00000000
00011000
00000000
00001100
00000000
00001000
00000001
,
00000010
00001000
00000000
00000001
00000100
00001000
00000001
00000000
,
00001002
00000000
00000103
00000000
00002001
00000000
00003010
00000020
,
00000000
00010030
00001000
00010000
01000000
00000000
01000000
10000000
,
00100000
01000000
00010000
00000000
00100000
00001000
00010000
00010000
,
01000000
10000000
00020000
00000000
00130000
01000000
00020000
00000000
,
00032000
00000000
00003200
00000000
00000302
00000000
00000103
00000200
,
00000000
00001300
00000100
00000010
00010000
00000000
00010000
00000000
,
00001000
00010000
01000000
00000000
01000000
20000000
00000000
30200000
,
00000000
00300000
01000000
00001000
,
00010000
00000000
00000100
00000000
00001000
00000010
00000001
00000010
,
00001000
00000000
00010000
00100000
10000000
00100000
00010000
00000000
,
01000000
00000000
01000000
00000000
00100000
00000000
00000000
10000000
00000000
00000000
01000000
00000000
00100000
00000000
00010000
00000000
,
02000000
00000000
23000000
32000000
,
03020000
00230000
00302000
00010000
,
00000010
00000000
00010000
00000000
00013000
01000000
10000000
00100000
,
02000000
10000000
00010000
10000000
,
03020000
00230000
10000000
00010000
,
00310000
00001000
00000010
00000000
00000100
00000001
00001000
00000000
,
00000010
00001000
00000100
00000000
00010000
00001000
00200000
00000000
,
00310000
00100000
10000000
00000000
10000000
00100000
00010000
00000000
,
10000000
00100000
00010000
00100000
02000000
00000000
10000000
00000000
,
03020000
00000000
00130000
00000000
00200000
00000000
00301000
00010000
,
00000100
00001000
00000010
00000000
00001000
00000100
00000010
00000000
,
00000200
00000000
00000000
00000302
00000000
00000000
00000203
00000000
,
00002300
00000000
00000000
00023000
00000000
00000000
00230000
00000000
,
00320000
00000000
01030000
00000000
02000000
00000000
03010000
00100000
,
00001000
00010000
00000100
00000000
00002000
00000000
00003002
00000000
,
00001003
00000100
00000000
00000000
00000001
00000010
00000000
00002000
,
00000000
00003100
00010000
00001000
00000000
00000000
00000000
00200000
,
00000000
00310000
01000000
00100000
00000000
00000000
00000000
10000000
,
00100000
00010000
00000000
10000000
01000000
00010000
20000000
00000000
,
30010000
01000000
00020000
02030000
,
03100000
00010000
00100000
00010000
,
00010000
00000000
00100000
00000000
00010000
00000000
00100000
10000000
,
01000000
00010000
00000000
00010000
00001000
00000010
00000002
00000000
,
00001003
00000100
00000001
00000010
,
00001000
00000001
00001000
00000001
,
00001000
00010000
00100000
00000000
00010000
01000000
00010000
10000000
,
00100000
00010000
00000000
10000000
01000000
00010000
10000000
00000000
,
20010000
30100000
10020000
02030000
,
03100000
00010000
00100000
00010000
,
00010000
00000000
00100000
00000000
00010000
00000000
00100000
10000000
,
01000000
00010000
00000000
00010000
00001000
00000010
00000002
00000000
,
00000023
00002030
00003020
00000032
,
00001003
00000010
00000100
00000000
00000100
00000010
00001000
00000000
,
00000100
00010000
00001000
00100000
00010000
00000000
01000000
00000000
,
01200000
00000000
01300000
01000000
00020000
00000000
10030000
00000000
,
20020000
00000000
00000000
00000000
,
00000000
00000000
00000000
00000000
,
00000000
00000000
00000000
00000000
,
00000000
00000000
00000000
00000000
,
00000000
00000000
00000000
00000000
,
00000000
30030000
00000000
00000000
;

//--------------- dance-double - chrononical ----------------
#NOTES:
     dance-double:
     chrononical:
     Hard:
     12:
     0,0,0,0,0:
00000000
00000000
00000000
00000000
,
00000000
00000000
00000000
00000000
,
00000000
00000000
00000000
00000000
,
00000000
00000000
00000000
00000000
,
00000000
00000000
00000000
00000000
,
00000000
00000000
00000000
00000000
,
00000000
00000000
00000000
00000000
,
10000000
00010000
10000000
00010000
,
00101000
00011000
00010100
00001010
,
00000010
00000000
00000000
00000000
00001000
00000000
00000000
00000000
00001001
00000000
00000000
00000000
00000001
00000010
00000001
00000010
,
00000001
00000010
00000100
00010000
00001000
00100000
00020000
00000000
,
00130000
00000000
00000000
00000000
00001000
00000000
00000000
00000000
00010000
00000000
00000000
00000000
00000100
00001000
00000100
00001000
,
00000100
00010000
00000010
00001000
00000200
00000000
00000320
00000000
,
00000000
00000000
00000031
00000000
00000000
00000000
00000100
00000000
00001000
00000000
00000100
00000000
00000010
00000100
00000010
00000100
,
00000010
00000001
00000010
00000100
00000010
00001000
00000200
00000000
,
00010300
00000000
00000000
00000000
00001000
00000000
00000000
00000000
00100000
00000000
00000000
00000000
00010000
01000000
00010000
01000000
,
00010000
00100000
00001000
00100000
00020000
00000000
00230000
00000000
,
00000000
00000000
00301000
00000000
00000000
00000000
00100000
00000000
00001000
00000000
00010000
00000000
01000000
00100000
01000000
00100000
,
01000000
00100000
00010000
01000000
00001000
00010000
00001000
00010000
,
00000100
00001000
00010000
00100000
00100000
01000000
00010000
01000000
,
00100000
00010000
00000000
00110000
00000000
00100000
00001000
00010000
,
00020100
00000000
00030100
00001000
00000010
00000000
00010000
00000100
,
00001000
00000100
00000000
00001100
00000000
00000100
00010000
00001000
,
00100000
00010000
01000000
00020000
00000000
10030000
00100000
01000000
,
00010000
00100000
00000000
00101000
00000000
00001000
00001000
00010000
,
00010200
00000000
00001300
00000010
00000110
00000000
00000100
00000010
,
00001000
00000100
00000000
00001100
00000000
00001000
00020000
00130000
,
02000000
00000000
23000000
00000000
30100000
00000000
01000000
00100000
,
10000000
01000000
00100000
00010000
00001000
00000100
00000010
00000001
,
00002000
00000000
00000000
00023000
00000000
00000000
00100000
00000000
,
00001000
00100000
00230000
02300000
,
23000000
00000000
30100000
00000000
01000000
00000000
00010000
10000000
,
10000000
00100000
01000000
00010000
00002000
00000000
00003010
00000000
,
00000110
00000110
00000000
00000000
00001010
00001010
00000000
00011000
,
00000000
00001000
00000100
00001000
00000000
00000000
00011000
00010000
,
01000000
10000000
10000000
00010000
00100000
10000000
10200000
00000000
,
00310000
00000000
01000000
00000000
00001000
00000000
00010000
00020000
,
00000000
20030000
00000000
30100000
00100000
00000000
00001000
00010000
,
00000100
00001000
00010000
00001000
00000010
00000001
00000010
00001000
,
00000100
00000001
00000001
00001000
00000010
00000001
00000021
00000000
,
00000031
00000000
00000010
00000000
00001000
00000000
00000100
00000200
,
00000000
00000310
00001000
00000100
00020000
00000000
00031000
00100000
,
00101000
00000000
00110000
00000000
01100000
00000000
11000000
10000000
,
01000000
00010000
00010000
10000000
00100000
00010000
00110000
00000000
,
10020000
00000000
01030000
00000000
20010000
00000000
30100000
00200000
,
00000000
01300000
00010000
00100000
00001000
00000000
00001000
00010000
,
00000100
00000001
00000100
00001000
00000010
00000001
00000010
00001000
,
00000010
00000001
00002000
00003100
00000001
00000100
00000102
00000000
,
00002003
00000000
00003200
00000000
00020300
00000000
00031000
00002000
,
00000000
00103000
01000000
00100000
00010000
00001000
00000100
00000010
,
00000001
00000100
00001000
00000100
00000010
00000110
00000000
00002020
,
00000000
00000000
00003030
00000000
00000010
00010000
00001000
00100000
,
00001000
01000000
00010000
01000000
01000000
10000000
01000000
00100000
,
00010000
00010000
00000100
00000010
00001000
00000010
00000001
00001000
,
00000001
00000000
00000100
00000010
00000000
00001000
00000000
00000100
00000000
00010000
00001000
00000000
00100000
00000000
00010000
00000000
,
00210000
00000000
20300000
30200000
,
00320000
00000000
00130000
00001000
00020000
00000000
00100000
00000000
,
00001000
00000000
00100000
00000000
00031000
00100000
00020000
00031000
,
00000020
00000000
00001000
00000000
00000001
00000000
00001000
00001030
,
00000100
00000010
00000002
00000000
00000100
00000000
00000010
00000000
,
00001003
00000000
00000010
00001000
00000010
00000000
00001000
00000000
00000100
00000000
00010000
00000000
00001000
00000000
00100000
00000000
,
00010000
00000000
01000000
00000000
00100000
01000000
00100000
00000000
10000000
00000000
01000000
00000000
00200000
00000000
00310000
00000000
,
00001000
00000100
00001000
00010000
00001000
00000100
00001000
00010000
,
00001000
00000100
00000010
00000001
00000022
00000000
00000033
00000000
,
00001002
00000000
00002003
00000000
00013000
00000000
00100000
01000000
,
00100000
00010000
01000000
00100000
01000000
00010000
00200000
00000000
,
00302000
00000000
00000000
00023000
00000000
00000000
00230000
00000000
,
00320000
00000000
00000000
00032000
00000000
00000000
00023000
00000000
,
00030200
00000000
00002300
00000000
00003200
00000000
00000310
00000001
,
00000100
00000010
00001000
00000100
00001100
00000000
00011000
00000000
,
00110000
00110000
00000000
00000000
01010000
01010000
00000000
00201000
,
00000000
00301000
00010000
00000100
00000000
00000000
00000000
00020100
,
00000000
00030100
00000010
00000001
00000000
00000000
00000000
00000001
,
00000100
00001000
00000001
00000010
00001000
00000100
00000200
00000000
,
00001300
00010000
00200000
00302000
,
00013000
00001000
00010000
00001000
,
00001000
00000000
00010000
00000000
00001000
00000000
00010000
00001000
,
00000010
00000100
00001000
00000010
00000100
00001000
00000100
00000010
,
00001000
00000100
00000001
00000010
,
00001000
00000001
00000000
00000000
00000002
00000000
00000000
00000000
00001003
00000001
00000000
00000000
00000002
00000000
00000000
00000000
,
00001003
00000100
00010000
00000000
00010000
00000010
00001000
00000001
,
00000010
00001000
00010000
00001000
00100000
10000000
00100000
00000000
,
00201000
00301000
00020010
00030200
,
00010300
00001000
00010000
00001000
,
00001000
00000000
00010000
00000000
00001000
00000000
00010000
01000000
,
00100000
00010000
01000000
00010000
00001000
00000010
00001000
00000000
,
00002000
00003200
00020300
00032000
,
00013000
01000000
00100000
00010000
00010000
01000000
00100000
10000000
,
10000000
00100000
01000000
00010000
00100000
00110000
00000000
00012000
,
00000000
00000000
00013000
00010000
00000020
00000000
00001030
00000000
,
00002002
00000000
00000000
00000000
,
00000000
00000000
00000000
00000000
,
00000000
00000000
00000000
00000000
,
00000000
00000000
00000000
00000000
,
00000000
00000000
00000000
00000000
,
00000000
00003003
00000000
00000000
;
