#VERSION:0.83;
#TITLE:REDLINE;
#SUBTITLE:;
#ARTIST:Virtual Riot;
#TITLETRANSLIT:;
#SUBTITLETRANSLIT:;
#ARTISTTRANSLIT:;
#GENRE:;
#ORIGIN:;
#CREDIT:;
#BANNER:;
#BACKGROUND:;
#PREVIEWVID:;
#JACKET:;
#CDIMAGE:;
#DISCIMAGE:;
#LYRICSPATH:;
#CDTITLE:;
#MUSIC:REDLINE.ogg;
#OFFSET:-0.043576;
#SAMPLESTART:54.892017;
#SAMPLELENGTH:13.714283;
#SELECTABLE:YES;
#BPMS:0.000=140.000;
#STOPS:127.000=0.214,
254.500=0.214,
271.000=0.643,
301.500=0.643;
#DELAYS:;
#WARPS:;
#TIMESIGNATURES:0.000=4=4;
#TICKCOUNTS:0.000=4;
#COMBOS:0.000=1;
#SPEEDS:0.000=1.000=0.000=0;
#SCROLLS:0.000=1.000;
#FAKES:;
#LABELS:0.000=Song Start;
#BGCHANGES:;
#KEYSOUNDS:;
#ATTACKS:
;

//---------------dance-single - ----------------
#NOTEDATA:;
#CHARTNAME:;
#STEPSTYPE:dance-single;
#DESCRIPTION:;
#CHARTSTYLE:;
#DIFFICULTY:Challenge;
#METER:17;
#RADARVALUES:0.821138,0.991943,0.565031,0.425517,1.070768,824.000000,743.000000,81.000000,61.000000,0.000000,0.000000,0.000000,0.000000,0.000000,0.821138,0.991943,0.565031,0.425517,1.070768,824.000000,743.000000,81.000000,61.000000,0.000000,0.000000,0.000000,0.000000,0.000000;
#CREDIT:Daniel Van Eden;
#NOTES:
0000
0000
0000
0000
,
0000
0000
0000
0000
,
0000
0000
0000
0000
,
0000
0000
0000
0000
,
0000
0000
0000
0000
,
0000
0000
0000
0000
,
0000
0000
0000
0000
,
0000
0000
0000
0000
,
1001
0000
1010
0000
0101
0000
0000
1000
,
0001
0000
0011
0000
1100
0000
0000
0100
,
0010
0000
0011
0000
0101
0000
0000
0100
,
0010
0000
0000
0000
1010
0000
0000
1000
0010
0000
0100
0010
0100
0001
1000
0001
,
1000
0000
1100
0000
1010
0000
0000
0010
,
0100
0000
0101
0000
0011
0000
0000
0010
,
0100
0000
1100
0000
1001
0000
0000
1000
,
0010
0000
0000
0000
0110
0000
0000
0100
0001
0000
0001
0100
0010
1000
0001
0000
,
2002
3003
0000
0000
0001
0100
0000
0001
0100
0000
0010
0100
0000
0010
0100
0000
,
2002
3003
0000
0000
1000
0100
0000
1000
0100
0000
0010
0001
0000
0010
0001
0000
,
0220
0330
0000
0000
0100
1000
0000
0001
1000
0000
0010
1000
0000
1000
0100
0010
,
0001
0000
1000
0000
0020
0000
0000
0000
0130
0001
1000
0001
0100
0010
1000
0000
,
2020
3030
0000
0000
0010
0100
0000
0100
0010
0000
0010
1000
0001
1000
0100
0000
,
0022
0033
0000
0000
0010
0001
0000
0001
1000
0000
1000
0010
0100
0001
1000
0000
,
2200
3300
0000
0000
0100
0010
0000
0010
0100
0000
0100
1000
0001
0100
0010
1000
,
0001
0010
0001
0010
0100
0000
0001
0100
0000
0100
1000
0010
1000
0100
0010
0001
,
1000
0010
0000
1000
0001
0000
1000
0010
0100
0001
0010
0000
0001
0100
0000
0001
,
1000
0000
0001
0100
0010
1000
0100
0000
0010
0001
0000
0001
2000
0000
0000
0000
,
3001
0010
0001
1000
0001
0000
0100
0001
0100
0010
0100
0000
0010
1000
0001
1000
,
0010
0000
0100
0001
1000
0001
0100
0000
0001
0010
0100
1000
0002
0000
0000
0000
,
1003
0000
0000
0010
0000
0000
1000
0000
0000
0010
0000
0000
1000
0000
0000
0001
0000
0000
1000
0000
0000
0001
0000
0000
0010
0000
0000
0001
0000
0000
0010
0000
0000
0001
0000
0000
1000
0000
0001
0000
1000
0000
0001
0000
1000
0000
0001
0000
,
1000
0010
1000
0100
0010
0100
0010
0001
0100
0010
0100
0010
2000
0000
0000
0000
,
3001
0000
0000
0000
0001
0100
0000
0010
0100
0000
0010
1000
0000
0010
0100
0000
,
0001
0010
0000
1000
0010
0000
0001
0100
0000
1000
0100
0000
0000
0000
1001
0000
,
0001
0100
0010
1000
0010
0000
0100
0000
0000
0000
0100
0000
0001
0000
0000
0000
0010
0000
0100
0000
0000
0000
0100
0000
0010
0000
0000
0000
0001
0000
0100
0000
,
0000
0100
0010
1000
0001
0010
1000
0010
0001
0000
2000
0000
3000
0000
0022
0000
,
0033
0000
0010
0100
0000
0100
1000
0000
0010
0100
0000
0100
0010
0000
1000
0100
,
0000
0100
0010
0001
1000
0001
0100
0000
0100
0000
0010
0000
1010
0000
2002
0000
,
3003
0000
0011
0000
0021
0000
0130
0000
1002
0000
0103
0000
0010
1000
0100
1000
,
0010
0000
0000
0000
0100
0010
0100
0000
0001
0000
0000
0000
0101
0000
0000
0000
0100
0000
0000
0000
2020
0000
0000
0000
3030
0000
0000
0000
2002
0000
0000
0000
,
3003
0000
1100
0000
1200
0000
0310
0000
2001
0000
3010
0000
0100
0010
0100
0001
,
1000
0000
0100
0010
0001
0000
1000
0000
0000
0000
0010
0000
0001
0000
0000
0000
0010
0000
1000
0000
0001
0000
0010
0000
0100
0000
1000
0000
0002
0000
0000
0000
,
0003
0000
1000
2000
3000
0001
0002
0003
0010
0020
0030
0100
0200
0300
0010
0020
,
0030
0001
0001
1000
0010
0100
0010
1000
2000
3000
0020
0000
0030
0000
0101
0000
,
0200
0000
0301
0002
0003
1000
2000
3000
0010
0020
0030
0100
0200
0300
0010
0020
,
0030
1000
1000
0010
0100
0001
0010
0000
0010
0000
0100
0000
1100
0000
2002
0000
,
3003
0000
0110
0000
0110
0000
1001
0000
0110
0000
0001
0000
0010
0001
0100
0001
,
0010
0000
0000
0000
0100
0010
0100
0000
1000
0000
0000
0000
1100
0000
0000
0000
0100
0000
0000
0000
0022
0000
0000
0000
0033
0000
0000
0000
2002
0000
0000
0000
,
3003
0000
1010
0000
1010
0000
0110
0000
0201
0000
0310
0000
0100
0010
0100
0001
,
0000
0000
0100
0010
1000
0000
0001
0000
0000
0000
0010
0000
1000
0000
0000
0000
0010
0000
0001
0000
0000
0000
0001
0000
1000
0000
0000
0000
1010
0000
0000
0000
,
1000
0000
0001
0100
0000
0001
1000
0100
0010
0001
0000
0001
0100
0001
1000
0000
,
1000
0000
0001
0010
0000
0001
1000
0010
0100
0000
0001
1000
0010
1000
0001
0000
,
0001
0000
1000
0100
0000
1000
0001
0100
0010
1000
0000
1000
0100
0010
0001
0000
,
0001
0000
0010
0100
1000
0000
0010
0000
0000
0000
0010
0000
0001
0000
1000
0000
0100
0000
0001
0000
0000
0000
1000
0000
0100
0000
0010
0000
0001
0000
0000
0000
,
0001
0000
1000
0100
0000
1000
0001
0010
0100
1000
0000
1000
0010
1000
0001
0000
,
0001
0000
1000
0010
0000
1000
0001
0010
0100
0000
1000
0001
0100
0001
1000
0000
,
1000
0000
0010
0100
0000
0010
1000
0001
0010
0100
0000
0100
1000
0001
0100
0010
,
0001
0010
1000
0100
0010
1000
0010
0100
1000
0010
0001
0010
1000
0000
1001
0000
,
0001
0101
0000
0110
0010
0100
0001
0011
,
0000
0110
0100
1000
0010
1010
0000
1001
,
1000
1100
0000
0110
0010
0100
1000
1010
,
0000
0000
0110
0000
0100
0000
0001
0000
0010
0000
0011
0000
0001
0000
1000
0100
,
0010
0000
0000
0001
0000
0000
1000
0000
0000
0100
0000
0000
0010
0000
0000
0001
0000
0000
1000
0000
0000
0010
0000
0000
0100
0000
0000
0001
0000
0000
0100
0000
0010
0000
0100
0000
0010
0000
0100
0000
0010
0000
0100
0000
0000
0001
0000
0000
,
0100
0010
1000
0001
0010
0100
1000
0001
0100
0001
0020
0000
0000
0000
0130
0000
,
0000
0000
0010
0001
0000
0010
1000
0000
0010
0001
0000
0100
1000
0000
0100
0001
,
0000
0000
0010
0000
1000
0000
0000
0000
0001
0000
0100
0000
0000
0000
1000
0000
0001
0000
0000
0000
0000
0000
0000
0000
0110
0000
0000
0000
0001
1000
0001
1000
,
0001
0010
0000
1000
0010
0000
0100
0001
0000
0100
1000
0000
0010
0001
0000
1000
,
0100
0000
0001
0010
1000
0010
0100
0000
1001
0000
1000
0001
1000
0100
0000
0001
,
0100
0000
1000
0010
0100
0220
0330
0000
1010
0000
0000
1000
0001
0000
0010
0100
,
1000
0000
0000
0000
0000
0000
0000
0000
0000
0000
0000
0000
0100
0000
0000
0000
0000
0000
0000
0000
0000
0000
0000
0000
0010
0000
0000
0000
0000
0000
0000
0000
0000
0000
0000
0000
0000
0000
0000
0000
0000
0000
0000
0000
0000
0000
0000
0000
0001
0000
0000
0000
0000
0000
0000
0000
0010
0000
0000
0000
0000
0000
0000
0000
0001
0000
0000
0000
0000
0000
0000
0000
0100
0000
0000
0000
0000
0000
0000
0000
0010
0000
0000
0000
0000
0000
0000
0000
1000
0000
0000
0000
0000
0000
0000
0000
0001
0000
0000
0000
0000
0000
0000
0000
0010
0000
0000
0000
0000
0000
0000
0000
0100
0000
0000
0000
0000
0000
0000
0000
1000
0000
0000
0000
0000
0000
0000
0000
0100
0000
0000
0000
0000
0000
0000
0000
0010
0000
0000
0000
0000
0000
0000
0000
0002
0000
0000
0000
0000
0000
0003
0000
0000
0000
0000
0000
0000
0000
0000
0000
0000
0000
0000
0000
0000
0000
0000
0000
1000
0000
0000
0000
0000
0000
0000
0000
0000
0000
0000
0000
0010
0000
0000
0000
0000
0000
0000
0000
0000
0000
0000
0000
,
0001
0000
1000
0000
0100
0000
0010
0000
0100
0000
0010
0000
0100
0000
0010
0000
0100
0000
0010
0000
1000
0000
0001
0010
0001
0000
0010
0000
0100
0000
1000
0000
,
0000
0000
0100
0000
1000
0000
0000
0000
0010
1000
0010
1000
0001
0000
0010
0000
0100
0000
0010
0000
0100
0000
0010
0000
0100
0000
0010
0000
0001
0000
1000
0000
,
0010
0000
0100
0001
1000
0001
1000
0001
1000
0001
0010
1000
0010
0001
0100
0010
,
0001
0010
1000
0001
0010
0000
0210
0000
0000
0000
1300
0010
0000
0001
0010
0000
,
0100
1000
0000
0100
0001
0000
0010
1000
0000
0001
0100
0000
1000
0010
0001
0010
,
0100
0000
1001
0000
0001
1000
0001
0100
0000
1000
0100
0000
0001
0010
0100
0220
,
0330
0000
0000
0000
0000
0000
0011
0000
0000
0000
0000
0000
0000
0000
0000
0001
0000
0000
1000
0000
0000
0000
0000
0000
0010
0000
0000
0100
0000
0000
0010
0000
0000
1000
0000
0000
0001
0000
0000
0000
0000
0000
0010
0000
0000
0000
0001
0000
,
0000
0000
0000
0000
0000
0000
0000
0000
1000
0000
0000
0000
0000
0000
0000
0000
0000
0000
0000
0000
0000
0000
0000
0000
1010
0000
0000
0000
0000
0000
0000
0000
0000
0000
0000
0000
0000
0000
0000
0000
0110
0000
0000
0000
0000
0000
0000
0000
0000
0000
0000
0000
0000
0000
0000
0000
0101
0000
0000
0000
0000
0000
0000
0000
0000
0000
0000
0000
0000
0000
0000
0000
2002
0000
0000
0000
0000
0000
3003
0000
0000
0000
0000
0000
0000
0000
0000
0000
0000
0000
0000
0000
0000
0000
0000
0000
1000
0000
0000
0000
0000
0000
0000
0000
0000
0000
0000
0000
0010
0000
0000
0000
0000
0000
0000
0000
0000
0000
0000
0000
0100
0000
0000
0000
0000
0000
0000
0000
0000
0000
0000
0000
0001
0000
0000
0000
0000
0000
0000
0000
0000
0000
0000
0000
0010
0000
0000
0000
0000
0000
0000
0000
0000
0000
0000
0000
0000
0000
0000
0000
0000
0000
0000
0000
0000
0000
0000
0000
0110
0000
0000
0000
0000
0000
0000
0000
0000
0000
0000
0000
0000
0000
0000
0000
0000
0000
0000
0000
0000
0000
0000
0000
,
1100
0000
0000
0000
0110
0000
0000
0000
0010
0000
0001
1000
0001
0000
0000
0000
0100
0000
1000
0000
0000
0000
0100
0000
1000
0000
0000
0000
0100
0001
0100
0001
,
1000
0000
1010
0000
0110
0000
1010
0000
1000
0001
0100
0000
0220
0000
0000
0000
,
0000
0000
0000
0330
,
1001
0000
0000
0000
;

//---------------dance-single - ----------------
#NOTEDATA:;
#CHARTNAME:;
#STEPSTYPE:dance-single;
#DESCRIPTION:;
#CHARTSTYLE:;
#DIFFICULTY:Hard;
#METER:15;
#RADARVALUES:0.688600,0.854173,0.153465,0.327857,0.885913,691.000000,669.000000,22.000000,47.000000,0.000000,0.000000,0.000000,0.000000,0.000000,0.688600,0.854173,0.153465,0.327857,0.885913,691.000000,669.000000,22.000000,47.000000,0.000000,0.000000,0.000000,0.000000,0.000000;
#CREDIT:Daniel Van Eden;
#NOTES:
0000
0000
0000
0000
,
0000
0000
0000
0000
,
0000
0000
0000
0000
,
0000
0000
0000
0000
,
0000
0000
0000
0000
,
0000
0000
0000
0000
,
0000
0000
0000
0000
,
0000
0000
0000
0000
,
1001
0000
0001
0000
0010
0000
0000
0010
,
0001
0000
0001
0000
1000
0000
0000
0001
,
1000
0000
1000
0000
0010
0000
0000
0010
,
1000
0000
0000
0000
1000
0000
0000
1000
0001
0000
0010
0000
0100
0010
0100
0000
,
1000
0000
1000
0000
0100
0000
0000
0100
,
1000
0000
1000
0000
0001
0000
0000
1000
,
0001
0000
0001
0000
0100
0000
0000
0100
,
0001
0000
0000
0000
0001
0000
0000
0001
0010
0000
0100
0000
1000
0001
1000
0000
,
2002
3003
0000
0000
0001
0100
0000
0001
0100
0000
0001
0100
0000
0001
0100
0000
,
0220
0330
0000
0000
0010
1000
0000
0010
1000
0000
0001
0010
0000
0001
0010
0000
,
2002
3003
0000
0000
1000
0100
0000
1000
0100
0000
1000
0100
0000
1000
0100
0010
,
0002
0000
0000
0000
0000
0000
0000
0000
0103
0010
1000
0001
0010
0100
1000
0000
,
2200
3300
0000
0000
0100
0010
0000
0010
0100
0000
0010
0001
0000
0001
0010
0000
,
0220
0330
0000
0000
0100
1000
0000
1000
0001
0000
0100
0010
0000
0010
0100
0000
,
0202
0303
0000
0000
0100
0010
0000
0010
0100
0000
0010
1000
0000
1000
0010
0000
,
0100
0000
0001
1000
0010
0000
1000
0100
0000
0001
0100
0000
0010
0001
1000
0000
,
0010
1000
0000
1000
0010
0000
0100
0010
0000
0010
1000
0000
0001
0010
0000
0010
,
0001
0000
0010
0100
0000
0100
1000
0000
0001
0100
0000
0100
0020
0000
0000
0000
,
1030
0000
0001
0100
0001
0000
1000
0000
0010
0100
0010
0000
1000
0000
0001
0010
,
0001
0000
0010
0000
0100
1000
0100
0000
0010
0000
0001
1000
0200
0000
0000
0000
,
0310
0001
0010
0001
1000
0001
1000
0001
1000
0010
1000
0010
2000
0000
0000
0000
,
3001
0100
0001
0100
0001
1000
0001
1000
0100
1000
0100
0010
0002
0000
0000
0000
,
1003
0000
0000
0000
0001
1000
0000
0001
1000
0000
0001
1000
0000
0001
1000
0000
,
0100
0010
0000
0001
1000
0000
0010
0100
0000
0001
0010
0000
0000
0000
1001
0000
,
2000
0000
3001
0010
0000
0001
0010
0000
0100
0010
0000
0010
0100
0000
1000
0010
,
0000
0100
0010
1000
0100
0010
0000
0010
0001
0000
1000
0000
0000
0000
2200
0000
,
3300
0000
1000
0010
0000
1000
0010
0000
0100
0010
0000
0010
0100
0000
0001
0100
,
0000
0100
0010
1000
0001
0010
0100
0000
0100
0000
1000
0000
1010
0000
0202
0000
,
0003
0000
0310
0000
0010
0000
0001
0000
0010
0000
1000
0000
0001
0010
0000
1000
,
0010
0000
0001
1000
0001
0000
1000
0000
0010
0000
0200
0000
0300
0000
2020
0000
,
3000
0000
0130
0000
0100
0000
1000
0000
0100
0000
0001
0000
0010
0001
0010
0000
,
0001
0010
0100
1000
0000
1000
0010
0000
0100
0010
0100
0001
1000
0100
0020
0000
,
0030
0000
0001
0100
0000
0001
0100
0000
1000
0100
0000
1000
0100
0000
0001
1000
,
0000
0001
0010
0001
0010
0100
0000
0010
0100
0000
1000
0000
0000
0000
1001
0000
,
0002
0000
1003
0100
0000
1000
0100
0000
0001
0100
0000
0001
0100
0000
1000
0010
,
0000
0100
0010
1000
0001
0010
0100
0000
0100
0000
0010
0000
0011
0000
2002
0000
,
0003
0000
3100
0000
0100
0000
0001
0000
0100
0000
1000
0000
0001
0100
0000
1000
,
0100
0000
0010
0100
0010
0000
1000
0000
0001
0000
0020
0000
0030
0000
2200
0000
,
3000
0000
0310
0000
0010
0000
1000
0000
0010
0000
0001
0000
1000
0001
1000
0000
,
0000
1000
0010
0100
0000
0100
0001
0000
0010
0001
0000
0001
1000
0000
0100
0000
,
0100
0000
0010
0001
0000
0010
0001
0000
1000
0001
0000
1000
0010
1000
0100
0000
,
0100
0000
1000
0010
0000
1000
0010
0100
0001
0000
1000
0001
0000
1000
0010
0000
,
0010
0000
1000
0100
0000
1000
0100
0000
0010
0001
0000
0010
0001
1000
0100
0000
,
0100
0010
0001
1000
0000
1000
0010
0100
0010
0100
0000
0100
0001
0000
0010
0000
,
0010
0000
0100
1000
0000
0100
1000
0000
0001
1000
0000
0001
0100
0001
0010
0000
,
0010
0000
0001
0100
0000
0001
0100
0010
1000
0000
0001
1000
0000
0001
0100
0000
,
0100
0000
0001
0010
0000
0001
0010
0000
0100
1000
0000
1000
0100
0010
0001
0000
,
0100
0010
0100
0000
0001
0100
0000
0010
0100
0010
1000
0001
0010
0000
0100
0000
,
0010
0100
0000
0100
0001
0100
1000
0100
,
0000
0100
1000
0010
0001
0010
0000
0010
,
0100
0010
0000
0010
0001
0010
1000
0010
,
0000
0000
0010
0000
1000
0000
0100
0000
0001
0000
0100
0000
1000
0000
0010
1000
,
0010
0100
0010
0100
0001
0100
0001
1000
0001
1000
0200
0000
0000
0000
0310
0001
,
0010
0100
0010
0100
1000
0001
1000
0100
0010
0001
2000
0000
0000
0000
3001
0000
,
0000
0000
1000
0100
0000
1000
0100
0000
1000
0001
0000
1000
0001
0000
1000
0010
,
0000
0100
0001
0000
1000
0100
0000
0010
0001
0000
0000
0000
1001
0000
0002
0000
,
0013
1000
0000
0010
0100
0000
0010
0001
0000
1000
0010
0000
0100
0010
0000
0100
,
1000
0000
0100
0001
0000
0100
0010
0000
1000
0000
0001
0010
0100
0010
0000
0100
,
1000
0000
0100
0010
0001
0100
0000
0000
1010
0000
0000
0010
0100
0000
0010
1000
,
0000
0000
0001
0000
0010
0000
0000
0000
0002
0000
0000
0000
0203
0000
0000
0000
0320
0000
0000
0000
2030
0000
0000
0000
3002
0003
0000
0000
0001
0000
0010
0000
,
0100
1000
0010
0100
0010
0100
0010
0100
0010
0100
0001
0100
0010
0100
0001
0100
,
0000
1000
0100
0000
0010
1000
0001
0010
0100
0010
0100
0010
0100
0010
0001
1000
,
0010
0000
1000
0010
0100
0010
0100
0010
0100
0010
1000
0001
0000
1000
0010
1000
,
0100
0010
0100
0010
0001
1000
0002
0000
0000
0000
1003
0010
0000
1000
0001
0000
,
0010
1000
0000
0010
0001
0000
0100
0001
0000
1000
0010
0000
0100
1000
0000
0100
,
0001
0000
0010
0000
0100
0010
0100
1000
0000
0001
1000
0000
0010
0100
0001
0010
,
0000
0000
0000
0000
0000
0000
1100
0000
0000
0000
0000
0000
0000
0000
0000
1000
0000
0000
0001
0000
0000
0000
0000
0000
0010
0000
0000
1000
0000
0000
0000
0000
0000
0010
0000
0000
0100
0000
0000
0000
0000
0000
1000
0000
0000
0000
0010
0000
,
0000
0000
0000
0000
0000
0000
0000
0000
0100
0000
0000
0000
0000
0000
0000
0000
0000
0000
0000
0000
0000
0000
0000
0000
1000
0000
0000
0000
0000
0000
0000
0000
0000
0000
0000
0000
0000
0000
0000
0000
0100
0000
0000
0000
0000
0000
0000
0000
0000
0000
0000
0000
0000
0000
0000
0000
0001
0000
0000
0000
0000
0000
0000
0000
0000
0000
0000
0000
0000
0000
0000
0000
2002
0000
0000
0000
0000
0000
3003
0000
0000
0000
0000
0000
0000
0000
0000
0000
0000
0000
0000
0000
0000
0000
0000
0000
1000
0000
0000
0000
0000
0000
0000
0000
0000
0000
0000
0000
0100
0000
0000
0000
0000
0000
0000
0000
0000
0000
0000
0000
0010
0000
0000
0000
0000
0000
0000
0000
0000
0000
0000
0000
0001
0000
0000
0000
0000
0000
0000
0000
0000
0000
0000
0000
0200
0000
0000
0000
0000
0000
0000
0000
0000
0000
0000
0000
0000
0000
0000
0000
0000
0000
0000
0000
0000
0000
0000
0000
0010
0000
0000
0000
0000
0000
0000
0000
0000
0000
0000
0000
0000
0000
0000
0000
0000
0000
0000
0000
0000
0000
0000
0000
,
1000
0000
0301
0000
0100
0010
0100
0000
0001
0010
0000
1000
0010
0000
0001
1000
,
0200
0000
0010
0000
0001
0000
1300
0000
0001
1000
0010
0000
0220
0000
0000
0000
,
0000
0000
0000
0330
,
1001
0000
0000
0000
;

//---------------dance-single - ----------------
#NOTEDATA:;
#CHARTNAME:;
#STEPSTYPE:dance-single;
#DESCRIPTION:;
#CHARTSTYLE:;
#DIFFICULTY:Medium;
#METER:12;
#RADARVALUES:0.442458,0.551080,0.069757,0.292979,0.254613,444.000000,434.000000,10.000000,42.000000,0.000000,0.000000,0.000000,0.000000,0.000000,0.442458,0.551080,0.069757,0.292979,0.254613,444.000000,434.000000,10.000000,42.000000,0.000000,0.000000,0.000000,0.000000,0.000000;
#CREDIT:Daniel Van Eden;
#NOTES:
0000
0000
0000
0000
,
0000
0000
0000
0000
,
0000
0000
0000
0000
,
0000
0000
0000
0000
,
0000
0000
0000
0000
,
0000
0000
0000
0000
,
0000
0000
0000
0000
,
0000
0000
0000
0000
,
1000
0000
1000
0000
0001
0000
0000
1000
,
0001
0000
0001
0000
1000
0000
0000
0001
,
1000
0000
1000
0000
0100
0000
0000
1000
,
0001
0000
0001
0000
0100
0010
1000
0001
,
1000
0000
1000
0000
0010
0000
0000
1000
,
0001
0000
0001
0000
0010
0000
0000
0100
,
1000
0000
1000
0000
0001
0000
0000
1000
,
0001
0000
0001
0000
0100
0001
1000
0000
,
2002
0000
3003
0000
0001
0000
0000
0001
0000
0000
1000
0000
0000
1000
0000
0000
,
2002
0000
3003
0000
1000
0000
0000
1000
0000
0000
0010
0000
0000
0010
0000
0000
,
0220
0000
0330
0000
0100
0000
0000
0100
0000
0000
0010
0000
0000
0010
0000
0000
,
0200
0000
0000
0000
0301
1000
0010
0100
,
0002
0000
0003
0000
0010
0000
0000
0010
0100
0000
0010
0000
0100
1000
0000
0000
,
2200
0000
3300
0000
1000
0000
0000
1000
0010
0000
0100
0000
0010
0100
0000
0000
,
0202
0000
0303
0000
0001
0000
0000
0001
0100
0000
0010
0000
0100
0010
0000
0000
,
1000
0000
0010
0000
0100
0000
0000
0100
0000
0000
0001
0000
1000
0000
0100
0000
,
0010
0000
0000
0001
0010
0000
0001
0000
1000
0000
0000
0001
1000
0000
0010
0000
,
1000
0000
0000
0001
0100
0000
0001
0000
1000
0000
0010
0000
2000
0000
0000
0000
,
3001
0010
0001
0001
1000
0010
1000
1000
,
0001
0100
0001
0001
1000
0100
0020
0000
,
0130
1000
0000
0100
1000
0000
0100
1000
0000
0100
1000
0000
0200
0000
0000
0000
,
0310
0001
0000
0010
0001
0000
0010
0001
0000
0010
0001
0000
2000
0000
0000
0000
,
3001
0000
0000
0000
,
0002
0000
0000
0000
0000
0000
0003
2002
,
3003
0000
1000
0000
0000
1000
0001
0000
0000
1000
0000
0000
0100
0000
0010
0000
,
0000
0100
0010
0001
1000
0001
0000
2002
,
3003
0000
0001
0000
0000
0001
0100
0000
0000
0001
0000
0000
1000
0000
0010
0000
,
0000
1000
0001
1000
0100
0010
0001
2000
,
0000
0000
3010
0000
0010
0000
0000
0000
0010
0000
0000
0000
0010
0100
0000
0010
,
0100
0001
1000
0100
0010
0002
0000
2003
,
0000
3100
0100
0000
0100
0000
0010
0001
,
0000
0000
1000
0001
0000
0000
1000
0000
0000
0001
0000
0000
1000
0000
0100
0000
,
0000
0000
2000
0100
0000
0000
0100
0000
0000
0001
0000
0000
3001
0000
0002
0100
,
0000
0000
0100
0000
0000
1000
0000
0000
1003
0000
0010
0000
0000
0000
0110
0000
,
0000
0000
0020
1000
0000
0000
1000
0000
0000
0100
0000
0000
0130
0000
0200
0001
,
0000
0000
0001
0000
0000
0301
0010
0000
0001
0000
1000
0000
0100
0000
0020
0000
,
0000
0000
0031
0000
0001
0000
0000
0000
1000
0000
0000
0000
1000
0010
0000
1000
,
0010
0100
0001
1000
0001
0020
0000
0230
,
0000
1300
1000
0000
0001
0000
0100
0001
,
0000
0000
1000
0010
0000
0000
0010
0000
0000
0010
0000
0000
1000
0000
0001
0000
,
0001
0000
0010
0000
0000
0000
0001
0000
1000
0000
0010
0000
0000
0010
1000
0000
,
1000
0000
0001
0000
0000
0000
1000
0000
0100
0000
0010
0100
0000
0000
1000
0000
,
1000
0000
0100
0000
0000
0000
1000
0000
0010
0000
0100
0000
0000
0100
0001
0000
,
0001
0000
0010
0000
0000
0000
0100
0000
0000
0100
0000
0000
0100
0000
1000
0000
,
1000
0000
0001
0000
0000
0000
0100
0000
0001
0000
1000
0000
0000
1000
0010
0000
,
0010
0000
0100
0000
0000
0000
0010
0000
1000
0000
0001
1000
0000
0000
0001
0000
,
0001
0100
0000
0010
1000
0001
0000
0010
,
0100
0000
1000
0000
0000
0001
0000
0000
1000
0000
0010
0000
0100
0000
0001
0000
,
0100
0001
0000
0001
1000
0000
0001
1000
,
0000
1000
0010
0000
1000
0010
0000
1000
,
0001
1000
0000
1000
0100
0000
1000
0100
,
0000
0100
0010
0000
0010
0001
1000
0010
,
1000
0010
1000
0001
0100
0002
0000
0003
,
0010
0000
0001
0000
0010
0000
0100
0000
1000
0000
0001
1000
0001
1000
0001
0000
,
0000
0000
0000
0000
0000
0000
0000
0010
,
0000
0010
0000
0010
0000
0000
2002
3003
,
1000
0000
0000
1000
0001
0000
0000
0000
0100
0000
1000
0000
0000
0000
0100
0000
,
0001
0000
0000
0001
0010
0000
0100
0000
0010
0000
0010
0000
0001
0000
0000
1000
,
0000
0000
0001
0000
0010
0100
0000
0000
0100
0000
0000
0010
0000
0000
0010
0000
,
0001
0000
0000
0000
0000
0000
0000
0000
2000
0000
0000
0000
3020
0000
0000
0000
0230
0000
0000
0000
0302
0000
0000
0000
2003
3000
0000
0000
0010
0000
0000
0000
,
1000
0000
0100
0000
0100
0000
0100
0000
0100
0000
0010
0000
0001
0000
1000
0010
,
0000
1000
0010
0000
0100
0000
0001
0000
0001
0000
0001
0000
0001
0000
0100
0000
,
0010
0000
1000
0000
1000
0000
1000
0000
1000
0000
0100
1000
0000
0000
0001
0000
,
0000
1000
0000
0000
0010
0000
0200
0000
0000
0000
0301
0000
0000
0001
1000
0000
,
0000
0000
0100
0000
0001
0000
0000
0000
0100
0000
1000
0000
0000
1000
0010
0000
,
0100
0000
0010
0000
0010
0000
1000
0000
0000
0001
0000
0000
1000
0000
0010
0100
,
0000
0000
0000
0000
0000
0000
0100
0000
0000
0000
0000
0000
0000
0000
0000
0010
0000
0000
0000
0000
0000
0000
0000
0000
0010
0000
0000
0000
0000
0000
1000
0000
0000
0000
0000
0000
0000
0000
0000
0000
0000
0000
0010
0000
0000
0000
1000
0000
,
0000
0000
0000
0000
0000
0000
0000
0000
0100
0000
0000
0000
0000
0000
0000
0000
0000
0000
0000
0000
0000
0000
0000
0000
0010
0000
0000
0000
0000
0000
0000
0000
0000
0000
0000
0000
0000
0000
0000
0000
0001
0000
0000
0000
0000
0000
0000
0000
0000
0000
0000
0000
0000
0000
0000
0000
1000
0000
0000
0000
0000
0000
0000
0000
0000
0000
0000
0000
0000
0000
0000
0000
0200
0000
0000
0000
0000
0000
0300
0000
0000
0000
0000
0000
0000
0000
0000
0000
0000
0000
0000
0000
0000
0000
0000
0000
0010
0000
0000
0000
0000
0000
0000
0000
0000
0000
0000
0000
0000
0000
0000
0000
0000
0000
0000
0000
0000
0000
0000
0000
0001
0000
0000
0000
0000
0000
0000
0000
0000
0000
0000
0000
0000
0000
0000
0000
0000
0000
0000
0000
0000
0000
0000
0000
1000
0000
0000
0000
0000
0000
0000
0000
0000
0000
0000
0000
0000
0000
0000
0000
0000
0000
0000
0000
0000
0000
0000
0000
1000
0000
0000
0000
0000
0000
0000
0000
0000
0000
0000
0000
0000
0000
0000
0000
0000
0000
0000
0000
0000
0000
0000
0000
,
0001
0000
0001
0000
0100
0000
0010
0000
0100
0001
0000
0100
0001
0000
1000
0000
,
0100
0010
0010
0010
0100
1000
0002
0000
,
0000
0000
0000
0003
,
1001
0000
0000
0000
;

//---------------dance-single - ----------------
#NOTEDATA:;
#CHARTNAME:;
#STEPSTYPE:dance-single;
#DESCRIPTION:;
#CHARTSTYLE:;
#DIFFICULTY:Easy;
#METER:9;
#RADARVALUES:0.324868,0.385756,0.188344,0.251125,0.003488,326.000000,299.000000,27.000000,36.000000,0.000000,0.000000,0.000000,0.000000,0.000000,0.324868,0.385756,0.188344,0.251125,0.003488,326.000000,299.000000,27.000000,36.000000,0.000000,0.000000,0.000000,0.000000,0.000000;
#CREDIT:Daniel Van Eden;
#NOTES:
0000
0000
0000
0000
,
0000
0000
0000
0000
,
0000
0000
0000
0000
,
0000
0000
0000
0000
,
0000
0000
0000
0000
,
0000
0000
0000
0000
,
0000
0000
0000
0000
,
0000
0000
0000
0000
,
1000
1000
0010
0000
,
0010
0010
1000
0000
,
0001
0001
0010
0000
,
0100
0100
0010
0001
,
1000
1000
0100
0000
,
1000
1000
0001
0000
,
0001
0001
0100
0000
,
0001
1000
0001
0010
,
0220
0330
0000
0000
0000
0000
0000
0000
,
2002
3003
0000
0000
0000
0000
0000
0000
,
2020
3030
0000
0000
0000
0000
0000
0000
,
1000
0000
0001
0000
0010
0100
0010
0000
,
0021
0100
0100
0130
,
1200
0010
0010
1300
,
1020
0100
0100
0130
,
0100
0001
0100
0000
0001
0000
1000
0001
,
1000
1000
0100
0100
,
0010
0010
0001
0002
,
1003
0010
1000
0000
1000
0000
0001
0100
,
0001
0000
0001
0000
0010
0100
0020
0000
,
0130
1000
0010
0200
,
0301
0000
0010
0000
0001
1000
0001
1000
,
0001
0000
0000
0000
,
2000
0000
0000
0000
0000
0000
3000
1001
,
0000
0001
0000
0101
0000
0100
0000
0010
,
0000
0100
0010
1000
0000
0002
0003
0011
,
0000
0010
0000
0100
0000
1000
0000
0010
,
0000
1000
0010
1000
0001
1000
0000
0002
,
0000
0013
0010
0000
0010
0000
0001
0000
,
1000
0001
0000
0100
0000
0020
0000
2030
,
0000
3100
0100
0000
0100
0000
1000
0001
,
0000
0100
0000
0010
1000
0001
0000
1001
,
0000
1000
0000
1100
0000
0100
0000
0010
,
0000
0001
1000
0001
1000
0001
0000
1001
,
0000
0001
0000
0011
0000
0010
0000
0100
,
0000
1000
0001
1000
0010
0100
0010
0100
,
0000
0001
0001
0000
0001
0000
1000
0000
,
1000
0010
0000
1000
0001
0020
0000
0230
,
0000
1300
1000
0000
1000
0000
0001
0010
,
0000
0100
0000
0010
0000
0001
1000
0100
,
0000
1000
0000
0010
1000
0010
0000
1000
,
0000
0001
0000
0010
0001
0010
0000
0100
,
0000
1000
0000
0001
0100
0001
0000
1000
,
0000
0010
0000
0100
0100
0010
0010
0100
,
0000
0001
0000
1000
0001
1000
0000
0001
,
0000
0010
0000
0100
1000
0100
0000
1000
,
0000
0010
0000
1000
0001
1000
0000
0001
,
0000
0000
0000
0000
0000
0000
0000
0011
,
0000
0001
0000
0010
0000
0010
0000
0001
,
0000
0001
0000
1000
0000
1000
0000
1010
,
0000
0010
0000
1000
0000
1000
0000
0100
,
0000
0100
0000
1000
0000
1000
0000
0100
,
0000
0010
0000
0001
1000
0200
0000
1300
,
0000
0010
0000
1000
0001
1000
0001
1000
,
0000
0000
0000
0000
0000
0000
0000
0100
,
0000
0100
0000
0100
0000
0000
1001
0000
,
0001
0010
0210
1300
,
2100
0000
3001
0100
0001
1000
0002
0000
,
1003
0010
0201
0310
,
1020
0000
0000
0000
0000
0000
0000
0000
1030
0000
0000
0000
0001
0000
0000
0000
1000
0000
0000
0000
0100
0000
0000
0000
0020
0030
0000
0000
0000
0000
0000
0000
,
0000
0001
1000
0001
1000
0001
0000
0110
,
0000
0000
0000
1000
0000
0010
0000
0100
,
0010
0100
0000
0001
1000
0001
0000
0010
,
0000
0010
0000
0000
0010
0000
0200
0000
0000
0000
0300
0000
0000
0000
1000
0000
,
0000
0201
0000
0310
0000
0012
0000
1003
,
0010
1000
0001
2000
0000
3001
0000
0010
,
0000
1200
0000
0310
0000
0021
0000
0032
,
0000
0000
0000
0000
2003
0000
0000
0000
0000
0000
0000
0000
3020
0030
0000
0000
0000
0000
0000
0000
0000
0000
0000
0000
1000
0000
0000
0000
0001
0000
0000
0000
,
0001
0001
1000
0000
0110
0000
0000
0000
,
0100
0001
0001
0001
0100
0000
0002
0000
,
0000
0000
0000
0003
,
1001
0000
0000
0000
;

//---------------dance-single - ----------------
#NOTEDATA:;
#CHARTNAME:;
#STEPSTYPE:dance-single;
#DESCRIPTION:;
#CHARTSTYLE:;
#DIFFICULTY:Beginner;
#METER:5;
#RADARVALUES:0.192330,0.303094,0.153465,0.027903,0.000000,193.000000,171.000000,22.000000,4.000000,0.000000,0.000000,0.000000,0.000000,0.000000,0.192330,0.303094,0.153465,0.027903,0.000000,193.000000,171.000000,22.000000,4.000000,0.000000,0.000000,0.000000,0.000000,0.000000;
#CREDIT:Daniel Van Eden;
#NOTES:
// measure 0
0000
0000
0000
0000
,  // measure 1
0000
0000
0000
0000
,  // measure 2
0000
0000
0000
0000
,  // measure 3
0000
0000
0000
0000
,  // measure 4
0000
0000
0000
0000
,  // measure 5
0000
0000
0000
0000
,  // measure 6
0000
0000
0000
0000
,  // measure 7
0000
0000
0000
0000
,  // measure 8
1000
0000
1000
0000
,  // measure 9
0001
0000
0001
0000
,  // measure 10
1000
0000
1000
0000
,  // measure 11
0001
0000
0100
0100
,  // measure 12
0100
0000
0001
0000
,  // measure 13
1000
0000
1000
0000
,  // measure 14
0001
0000
0001
0000
,  // measure 15
1000
0000
0010
0010
,  // measure 16
0110
0000
0000
0000
,  // measure 17
1001
0000
0000
0000
,  // measure 18
0110
0000
0000
0000
,  // measure 19
1001
0000
1000
1000
,  // measure 20
1000
0000
0001
0000
,  // measure 21
0010
0000
0100
0100
,  // measure 22
0100
0000
1000
0000
,  // measure 23
0010
0000
0000
0000
,  // measure 24
1000
0000
0001
0000
,  // measure 25
0010
0010
0100
0000
,  // measure 26
1000
0000
0001
0000
,  // measure 27
0100
0100
0010
0000
,  // measure 28
0010
0100
0010
0000
,  // measure 29
1000
0001
1000
0000
,  // measure 30
1001
0000
0000
0000
,  // measure 31
0000
0000
0000
0000
0000
0000
0000
1001
,  // measure 32
0000
0000
0000
0001
0000
0001
0000
1000
,  // measure 33
0000
0001
0000
1000
0000
0000
0000
0110
,  // measure 34
0000
0000
0000
0010
0000
0010
0000
0100
,  // measure 35
0000
0010
0000
0100
0000
0100
0000
0100
,  // measure 36
0000
0000
0000
0001
0000
0000
0000
1000
,  // measure 37
0000
0001
0000
1000
0000
0000
0000
0100
,  // measure 38
0000
0000
0000
0010
0000
0000
0000
0001
,  // measure 39
0000
0000
0000
0000
0000
0000
0000
0110
,  // measure 40
0000
0100
0000
0100
0000
0000
0000
0010
,  // measure 41
0000
0100
0000
0010
0000
0010
0000
0001
,  // measure 42
0000
0001
0000
0001
0000
0000
0000
1000
,  // measure 43
0000
0001
0000
1000
0000
1000
0000
1000
,  // measure 44
0000
0000
0000
0010
0000
0000
0000
0100
,  // measure 45
0000
0010
0000
0100
0000
0000
0000
0001
,  // measure 46
0000
0000
0000
1000
0000
0000
0000
0100
,  // measure 47
0000
0010
0000
0010
0000
0010
0000
0001
,  // measure 48
0000
0000
0000
1000
0000
0000
0000
0010
,  // measure 49
0000
0000
0000
0100
0000
0100
0000
0100
,  // measure 50
0000
0000
0000
0001
0000
0000
0000
0010
,  // measure 51
0000
0000
0000
0001
0000
0001
0000
1000
,  // measure 52
0000
0000
0000
0010
0000
0000
0000
0100
,  // measure 53
0000
0000
0000
0010
0000
0010
0000
0010
,  // measure 54
0000
0000
0000
1000
0000
0000
0000
1001
,  // measure 55
0000
0000
0000
0000
0000
0000
0000
0100
,  // measure 56
0000
0000
0000
0010
0000
0000
0000
0001
,  // measure 57
0000
0000
0000
1000
0000
0000
0000
0010
,  // measure 58
0000
0000
0000
0100
0000
0000
0000
0001
,  // measure 59
0000
0000
0000
1000
0000
0000
0000
0001
,  // measure 60
0000
0001
0000
0001
0000
0000
0000
1000
,  // measure 61
0000
1000
0000
1000
0000
0000
0000
0110
,  // measure 62
0000
0000
0000
0000
,  // measure 63
0000
0000
0000
1001
,  // measure 64
0000
0010
1001
0000
,  // measure 65
1000
0001
0010
0110
,  // measure 66
0000
0100
1001
0000
,  // measure 67
0001
0000
0000
0000
0000
0000
0000
0000
1000
0000
0000
0000
0000
0000
0000
0000
0000
0000
0000
0000
0000
0000
0000
0000
2002
3003
0000
0000
0000
0000
0000
0000
,  // measure 68
0000
0001
0000
0001
0000
1000
0000
1000
,  // measure 69
0000
0000
0000
0100
0000
0010
0000
0100
,  // measure 70
0000
0100
0000
0010
0000
0010
0000
0000
,  // measure 71
0000
0000
0000
0110
0000
0000
0000
0010
,  // measure 72
0000
1001
0000
0000
0000
1000
0000
1001
,  // measure 73
0000
0001
0000
1001
0000
0000
0000
0100
,  // measure 74
0000
0110
0000
0000
0000
0010
0000
0010
,  // measure 75
0000
0000
0000
0000
0000
0000
0000
0000
0000
0000
0000
0000
2002
3003
0000
0000
0000
0000
0000
0000
0000
0000
0000
0000
1000
0000
0000
0000
0000
0000
0000
0000
,  // measure 76
0001
0001
1000
0000
,  // measure 77
0100
0100
0010
0100
,  // measure 78
0000
0000
0000
0000
,  // measure 79
1001
0000
0000
0000
;
