#VERSION:0.83;
#TITLE:RECONSTRUCTION_SEQUENCE\:act_three\:reach;
#SUBTITLE:;
#ARTIST:Z-I-v Sound Team "Karl with a K";
#TITLETRANSLIT:;
#SUBTITLETRANSLIT:;
#ARTISTTRANSLIT:;
#GENRE:;
#ORIGIN:;
#CREDIT:;
#BANNER:RECONSTRUCTION_SEQUENCE_act_three_reach_banner.png;
#BACKGROUND:RECONSTRUCTION_SEQUENCE_act_three_reach_bg.png;
#PREVIEWVID:;
#JACKET:;
#CDIMAGE:;
#DISCIMAGE:;
#LYRICSPATH:;
#CDTITLE:;
#MUSIC:RECONSTRUCTION_SEQUENCE_act_three_reach.ogg;
#OFFSET:-0.025000;
#SAMPLESTART:24.815510;
#SAMPLELENGTH:14.811718;
#SELECTABLE:YES;
#BPMS:0.000=239.000,
194.000=159.333,
196.500=239.000,
283.000=119.500,
314.000=239.000,
448.500=119.500,
449.000=239.000;
#STOPS:;
#DELAYS:;
#WARPS:;
#TIMESIGNATURES:0.000=4=4;
#TICKCOUNTS:0.000=4;
#COMBOS:0.000=1;
#SPEEDS:0.000=1.000=0.000=0;
#SCROLLS:0.000=1.000,
194.000=1.500,
196.500=1.000,
448.500=2.000,
449.000=1.000;
#FAKES:;
#LABELS:0.000=Song Start;
#BGCHANGES:;
#KEYSOUNDS:;
#ATTACKS:
;

//---------------dance-single - ----------------
#NOTEDATA:;
#CHARTNAME:;
#STEPSTYPE:dance-single;
#DESCRIPTION:;
#CHARTSTYLE:;
#DIFFICULTY:Challenge;
#METER:19;
#RADARVALUES:1.079730,1.543672,0.307948,0.234308,1.328861,1129.000000,1083.000000,46.000000,35.000000,0.000000,0.000000,0.000000,0.000000,0.000000,1.079730,1.543672,0.307948,0.234308,1.328861,1129.000000,1083.000000,46.000000,35.000000,0.000000,0.000000,0.000000,0.000000,0.000000;
#CREDIT:Karl with a K;
#NOTES:
// measure 0
0000
0000
0000
0000
,  // measure 1
0000
0000
0000
0000
,  // measure 2
0000
0000
0000
0000
,  // measure 3
0000
0000
0000
0000
,  // measure 4
0000
0000
0000
0000
,  // measure 5
0000
0000
0000
0000
,  // measure 6
0000
0000
0000
0000
,  // measure 7
0000
0000
0000
0000
,  // measure 8
0000
0000
0000
0000
,  // measure 9
0000
0000
0000
0000
,  // measure 10
0000
0000
0220
0000
,  // measure 11
0000
0000
0000
0000
,  // measure 12
0000
0000
0000
0000
,  // measure 13
0000
0000
0000
0330
,  // measure 14
2002
0000
0000
0000
,  // measure 15
0000
0000
0000
0000
0000
0000
0000
0000
3003
0000
0000
0000
1000
0010
1000
0010
,  // measure 16
0100
0000
0000
0000
0010
0000
0000
0000
1000
0000
0000
0000
0001
0000
0000
0010
0000
0000
0001
0000
0000
0010
0000
0000
0001
0000
0000
1000
0000
0000
0100
0000
0000
0010
0000
0000
0001
0000
0000
0010
0000
0000
0001
0000
0000
1000
0000
0000
,  // measure 17
0001
1000
0010
1000
0010
1000
0001
0100
0001
0000
0000
0000
1100
0000
0000
0000
,  // measure 18
1001
1010
1001
0101
,  // measure 19
1001
1001
0011
1001
,  // measure 20
1010
1001
1100
0110
,  // measure 21
1000
0100
0010
0001
0001
0100
0010
1000
,  // measure 22
1000
0000
0010
0000
0100
0000
0001
0000
0001
0000
0010
0000
0001
0010
0001
0010
,  // measure 23
0001
0000
0000
0000
1000
0000
0000
0000
0100
0000
0000
0000
0010
0000
0000
0001
0000
0000
0010
0000
0000
0001
0000
0000
0010
0000
0000
0100
0000
0000
1000
0000
0000
0100
0000
0000
0010
0000
0000
0001
0000
0000
1000
0000
0000
0001
0000
0000
,  // measure 24
1000
0001
0200
0000
0000
0000
0000
0000
0301
0000
0100
0000
0001
0000
0100
0000
,  // measure 25
0001
0100
0001
0100
0001
0010
1000
0001
,  // measure 26
0100
1000
1000
0100
1000
0100
1000
0100
,  // measure 27
1000
0100
1000
0010
0001
1000
0100
0001
,  // measure 28
0100
0010
1000
0010
1000
0010
1000
0010
,  // measure 29
1000
0010
1000
0100
0001
1000
0010
0001
,  // measure 30
0001
0010
0001
0010
0100
0010
1000
0010
,  // measure 31
0100
1000
0001
0010
0001
1000
0001
0100
0001
1000
0010
1000
0001
0100
0001
0000
,  // measure 32
0010
0001
0010
0001
0010
0001
0010
0001
,  // measure 33
0100
1000
0001
0010
1000
1000
0010
1000
,  // measure 34
0010
1000
0010
1000
0010
1000
0100
0001
,  // measure 35
1000
0010
0001
0010
0100
1000
0100
1000
,  // measure 36
0100
1000
0100
1000
0100
1000
0010
0001
,  // measure 37
1000
0100
0001
0001
0100
0001
0100
1000
,  // measure 38
0100
0000
0010
0000
0100
0000
0100
0001
1000
0010
1000
0010
1000
0010
0100
0010
,  // measure 39
0100
0010
0100
0001
1000
0001
1000
0100
0010
0100
0010
0100
1000
0100
1000
0100
,  // measure 40
1000
0100
1000
0001
0100
0010
0100
0010
0100
0010
1000
0010
1000
0010
1000
0010
,  // measure 41
1000
0010
1000
0000
0001
0010
0001
0000
1001
0000
0000
1001
0000
0000
1001
0000
,  // measure 42
0000
0001
0010
0001
0000
1000
0010
1000
0000
1001
0000
0000
1001
0000
0000
1001
,  // measure 43
0000
0000
1000
0010
1000
0000
0001
0010
0001
0000
0110
0000
0000
0110
0000
0000
,  // measure 44
0110
0000
0000
1000
0100
1000
0100
0000
0000
1000
0001
1000
0001
0000
0000
0100
,  // measure 45
0001
0100
0001
0000
0000
1000
0100
1000
0000
0001
0100
0001
0000
1100
0000
0000
,  // measure 46
1001
0000
0000
1001
0000
0000
0001
0100
0001
0000
1000
0100
1000
0000
0101
0000
,  // measure 47
0000
1001
0000
0000
1001
0000
0000
1000
0100
1000
0000
0001
0100
0001
0000
0110
,  // measure 48
0000
0000
0110
0000
0000
0110
0000
0000
1010
0000
1010
0000
1010
0000
1010
0000
,  // measure 49
1010
0000
1000
0010
1000
0001
0000
0000
0001
0010
0001
1000
0000
0000
1000
0010
,  // measure 50
1000
0001
0000
0000
0001
0010
0100
1000
0001
0010
0001
1000
0000
0000
1000
0010
,  // measure 51
1000
0001
0000
0000
0001
0010
0001
1000
0000
0000
1000
0010
1000
0000
0001
0100
,  // measure 52
0010
1000
0010
1000
0010
1000
0001
0100
0001
0100
0001
1000
0100
0010
0001
0010
,  // measure 53
0001
0000
0000
0010
0000
0000
0001
0000
0000
0010
0000
0000
0100
0000
0000
1000
0000
0000
0100
0000
0000
0000
0010
0000
0000
0000
0001
0000
0000
0000
0100
0000
0000
0000
0010
0000
0000
0000
1000
0000
0000
0000
0100
0000
0000
0000
0010
0000
,  // measure 54
0000
0001
0000
0100
0000
0010
0000
1000
0000
0100
0000
0001
0000
1000
0000
0010
0000
0100
0000
1000
0000
0010
0000
0000
,  // measure 55
0000
0000
0000
1001
,  // measure 56
1000
0100
0010
0001
2000
0000
0000
0000
0000
0000
0000
0000
0001
0000
0000
0000
,  // measure 57
3001
0100
0010
1000
0002
0000
0000
0000
0010
0000
0000
0000
1003
0000
0000
0000
,  // measure 58
1000
0010
0100
0001
2000
0000
0000
0000
0000
0000
0000
0000
3001
0010
0100
1000
,  // measure 59
0001
0010
0100
1000
0001
0000
0000
0000
0110
0000
0000
0000
1001
0000
0000
0000
,  // measure 60
1000
0001
0100
0010
2000
0000
0000
0000
0000
0000
0000
0000
0010
0000
0000
0000
,  // measure 61
3001
1000
0100
0010
0002
0000
0000
0000
0010
0000
0000
0000
1000
0000
0000
0000
,  // measure 62
1003
0000
0000
0001
0000
0000
0010
0000
0000
0100
0000
0000
2000
0000
0000
0000
0000
0000
0000
0000
0000
0000
0000
0000
0000
0000
0000
0000
0000
0000
0000
0000
0000
0000
0000
0000
3100
0000
0000
0000
0000
0000
0000
0000
0001
0000
0000
0000
,  // measure 63
0000
0000
0000
0000
0100
0000
0000
0000
0000
0000
0000
0000
1001
0000
0000
0000
0000
0000
0000
0000
0000
0000
0000
0000
0001
0000
0000
0100
0000
0000
0010
0000
0000
1000
0000
0000
0002
0000
0000
0000
0000
0000
0000
0000
0000
0000
0000
0000
,  // measure 64
0000
0000
0000
0000
1000
0000
0000
0000
1003
0100
0010
0001
2000
0000
0000
0000
,  // measure 65
0010
0000
0000
0000
3001
0000
0000
0000
0001
0010
0100
1000
0002
0000
0000
0000
,  // measure 66
0000
0000
0000
0000
1003
0010
0100
0001
1000
0010
0100
0001
1000
0000
0000
0000
,  // measure 67
0110
0000
0000
0000
1001
0000
0000
0000
0001
1000
0100
0010
0002
0000
0000
0000
,  // measure 68
0000
0000
0000
0000
0010
0000
0000
0000
1003
0001
0100
0010
2000
0000
0000
0000
,  // measure 69
0010
0000
0000
0000
0001
0000
0000
0000
3001
1000
0010
0100
0002
0000
0000
0000
,  // measure 70
0000
0000
0000
0013
0000
1000
0000
0001
0000
0200
0000
0000
,  // measure 71
0000
2300
0000
3020
,  // measure 72
0000
2030
0000
3002
,  // measure 73
0000
0023
0000
0230
,  // measure 74
0000
0000
0320
0000
0000
0031
0000
0000
,  // measure 75
0000
0001
0000
0000
0001
0100
0000
0000
,  // measure 76
0000
0001
0000
1000
0000
0001
0000
0000
,  // measure 77
0000
1000
0100
0000
0000
1000
0000
0000
,  // measure 78
0000
0000
0010
0010
0001
0010
0010
0100
0220
0000
0000
0000
0000
0000
0000
0000
,  // measure 79
0000
0000
0000
0000
,  // measure 80
0000
0000
0000
0000
,  // measure 81
0000
0000
0000
0000
,  // measure 82
0330
2002
0000
0000
,  // measure 83
0000
0000
0000
3003
,  // measure 84
0001
0000
0000
0010
0000
0000
0001
0000
0000
0010
0000
0000
0001
0000
0000
0000
0010
0000
0000
0000
0001
0000
0000
0000
1000
0000
0000
0010
0000
0000
1000
0000
0000
0010
0000
0000
1000
0000
0000
0001
0000
0000
0100
0000
0000
0010
0000
0000
,  // measure 85
1000
0010
1000
0001
1000
0001
1000
0001
1000
0100
1000
0100
1000
0100
1000
0000
,  // measure 86
0100
0000
0000
0001
0000
0000
0100
0000
0000
1000
0000
0000
0010
0000
0000
1000
0000
0010
0000
1000
0000
0002
0000
0000
,  // measure 87
0000
0003
0000
0001
0100
1000
0100
0001
,  // measure 88
0010
0000
0000
0001
0000
0010
0000
0001
0000
2000
0000
0000
0000
0000
0000
3000
0000
0000
0000
0000
0000
1000
0000
0000
,  // measure 89
0010
0001
0010
1000
0100
0001
0100
0010
,  // measure 90
0001
0100
1000
0100
0001
0010
1000
0010
,  // measure 91
0100
0001
0100
1000
0001
0010
1000
0010
,  // measure 92
0001
0000
0100
0000
0010
1000
0010
1000
0001
0100
0001
0100
0001
0010
0001
0010
,  // measure 93
0100
1000
0200
0000
0000
0000
0000
0000
0000
0000
0000
0000
0000
0000
0000
0000
,  // measure 94
1300
0100
1000
0100
0010
0100
1000
0100
,  // measure 95
1000
0010
0001
1000
0100
0001
0001
0100
,  // measure 96
0001
0100
0010
0100
0001
0100
0001
0010
,  // measure 97
1000
0001
0100
1000
0100
0010
0001
0010
,  // measure 98
0001
0010
0100
0010
0001
0010
0001
0100
,  // measure 99
1000
0001
0010
1000
1000
0010
1000
0010
,  // measure 100
0100
0000
0010
0000
0001
0000
0010
0000
1000
0010
1000
0010
1000
0001
1000
0001
,  // measure 101
1000
0001
0010
0001
0010
0001
1000
0000
0010
0000
1000
0000
0010
0000
0100
0000
,  // measure 102
0010
1000
0010
1000
0100
0001
1000
0010
,  // measure 103
0001
0001
0010
0001
0010
0100
0010
0001
,  // measure 104
0010
0001
0100
1000
0001
0010
1000
0010
,  // measure 105
0100
0001
1000
0001
0010
1000
0010
0100
,  // measure 106
1000
0100
0010
0001
0010
0001
0010
0001
1000
0010
1000
0010
0100
0001
0100
0000
,  // measure 107
0001
0000
0010
0000
0001
0000
0100
0000
1000
0000
0100
0000
0010
0000
1000
0010
,  // measure 108
0100
0001
0100
0001
0100
0001
1000
0100
1000
0200
0000
0000
0000
0000
1300
0100
,  // measure 109
0010
0001
0010
0001
1000
0010
0000
0000
0000
0000
0000
0000
1000
0010
0100
0001
,  // measure 110
0100
0001
1000
0100
1000
0001
0010
0001
0010
0000
0100
1000
0001
0010
0001
0010
,  // measure 111
0001
1000
0001
1000
0010
1000
0010
1000
0010
0100
0001
0100
0001
1000
0000
0000
,  // measure 112
0000
0000
0000
1000
0100
0010
0001
0010
0100
1000
0010
0100
,  // measure 113
0001
0100
0010
1000
0010
0100
0010
1000
0001
1000
0100
0010
,  // measure 114
0100
1000
0001
1000
0010
0100
0010
0001
0010
0100
0010
1000
,  // measure 115
0100
0010
0001
1000
0100
0010
0100
0001
0100
0010
0100
1000
,  // measure 116
0010
0100
0001
1000
0010
0001
0010
1000
0001
0010
1000
0010
,  // measure 117
0001
1000
0001
1000
0100
0001
0100
1000
0001
0100
1000
0100
,  // measure 118
0001
1000
0001
1000
0100
0001
1000
0010
0001
1000
0001
0100
,  // measure 119
1000
0100
0001
1000
0010
0001
1000
0100
0001
1000
0001
0010
,  // measure 120
1000
0000
0000
0000
0010
0000
0000
0000
0001
0000
0000
0000
1000
0000
0000
0010
0000
0000
1000
0000
0000
0010
0000
0000
1000
0000
0000
0000
0001
0000
0000
0000
0100
0000
0000
0000
0010
0000
0000
0000
0001
0000
0000
0000
0010
0000
0000
0000
,  // measure 121
0100
0000
0000
0000
0001
0000
0000
0000
1000
0000
0000
0000
0001
0000
0000
0010
0000
0000
0001
0000
0000
0010
0000
0000
0001
0000
0000
0000
1000
0000
0000
0000
0100
0000
0000
0000
0010
0000
0000
0000
1000
0000
0000
0000
0010
0000
0000
0000
,  // measure 122
0100
0000
0000
0000
1000
0000
0000
0000
0001
0000
0000
0000
1000
0000
0000
0010
0000
0000
1000
0000
0000
0010
0000
0000
1000
0000
0000
0000
0001
0000
0000
0000
0010
0000
0000
0000
0100
0000
0000
0000
0001
0000
0000
0000
0100
0000
0000
0000
,  // measure 123
0010
0000
0000
0000
0001
0000
0000
0000
1000
0000
0000
0000
0001
0000
0000
0010
0000
0000
0001
0000
0000
0010
0000
0000
0001
0000
0000
0000
1000
0000
0000
0000
0010
0000
0000
0000
0100
0000
0000
0000
1000
0000
0000
0000
0100
0000
0000
0000
,  // measure 124
0010
0000
0000
0000
1000
0000
0000
0000
0001
0000
0000
0000
1000
0000
0000
0100
0000
0000
1000
0000
0000
0100
0000
0000
1000
0000
0000
0100
0000
0000
1000
0000
0000
0100
0000
0000
1000
0000
0000
0100
0000
0000
1000
0000
0000
0100
0000
0000
,  // measure 125
1000
0100
1000
0100
1000
0001
0100
0001
0100
0001
0100
0001
0100
0001
0100
0001
,  // measure 126
0100
0001
0100
0001
1000
0010
1000
0010
1000
0010
1000
0010
1000
0010
1000
0010
,  // measure 127
1000
0010
1000
0010
1000
0001
0010
0100
1000
0001
0010
0100
1000
0001
0010
0100
,  // measure 128
1000
0001
0010
0100
2000
0000
0000
0000
0000
0000
0000
0000
0000
0000
0000
0000
,  // measure 129
0000
0000
0000
0000
,  // measure 130
0000
0000
0000
0000
,  // measure 131
0000
0000
3000
0000
0000
0000
0001
0001
,  // measure 132
0100
0100
0010
0010
1000
1000
0100
0100
,  // measure 133
0010
0000
0000
0000
0000
0000
0010
0000
0000
0000
0000
0000
0001
0000
0000
0000
0000
0000
0001
0000
0000
0000
0000
0000
1000
0000
0000
0100
0000
0000
0010
0000
0000
0001
0000
0000
0010
0000
0000
0000
0001
0000
0000
0000
0100
0000
0000
0000
,  // measure 134
0001
0100
0010
1000
0010
1000
0001
0100
0010
0100
0010
0100
0001
0100
0001
0000
,  // measure 135
0000
0000
0000
0000
0000
0000
0000
0000
0000
0000
0000
0000
0010
0000
0000
0001
0000
0000
0010
0000
0000
0001
0000
0000
0010
0000
0000
0000
0001
0000
0000
0000
0100
0000
0000
0000
0010
0000
0000
1000
0000
0000
0010
0000
0000
1000
0000
0000
,  // measure 136
0010
0000
0000
1000
0000
0000
0001
0000
0000
0100
0000
0000
0001
0000
0000
0100
0000
0000
0001
0000
0000
0000
1000
0000
0000
0000
0100
0000
0000
0000
0010
0000
0000
0001
0000
0000
0010
0000
0000
0001
0000
0000
0010
0000
0000
0001
0000
0000
,  // measure 137
1000
0000
0000
0100
0000
0000
1000
0000
0000
0100
0000
0000
1000
0000
0000
0000
0010
0000
0000
0000
0100
0000
0000
0000
0010
0000
0000
0100
0000
0000
0010
0000
0000
0100
0000
0000
0010
0000
0000
0100
0000
0000
0001
0000
0000
0100
0000
0000
,  // measure 138
0001
0000
0000
0100
0000
0000
0001
0000
0000
0000
0010
0000
0000
0000
0100
0000
0000
0000
0010
0000
0000
0100
0000
0000
0010
0000
0000
0001
0000
0000
1000
0000
0000
0100
0000
0000
0020
0000
0000
0000
0000
0000
0000
0000
0000
0000
0000
0000
,  // measure 139
0000
0000
0000
0030
;

//---------------dance-single - ----------------
#NOTEDATA:;
#CHARTNAME:;
#STEPSTYPE:dance-single;
#DESCRIPTION:;
#CHARTSTYLE:;
#DIFFICULTY:Hard;
#METER:18;
#RADARVALUES:0.889414,1.403338,0.241003,0.234308,0.913801,930.000000,894.000000,36.000000,35.000000,0.000000,0.000000,0.000000,0.000000,0.000000,0.889414,1.403338,0.241003,0.234308,0.913801,930.000000,894.000000,36.000000,35.000000,0.000000,0.000000,0.000000,0.000000,0.000000;
#CREDIT:Karl with a K;
#NOTES:
0000
0000
0000
0000
,
0000
0000
0000
0000
,
0000
0000
0000
0000
,
0000
0000
0000
0000
,
0000
0000
0000
0000
,
0000
0000
0000
0000
,
0000
0000
0000
0000
,
0000
0000
0000
0000
,
0000
0000
0000
0000
,
0000
0000
0000
0000
,
0000
0000
2002
0000
,
0000
0000
0000
0000
,
0000
0000
0000
0000
,
0000
0000
0000
3003
,
0220
0000
0000
0000
,
0000
0000
0000
0000
0000
0000
0000
0000
0330
0000
0000
0000
0001
0010
0001
0000
,
1000
0000
0000
0000
0100
0000
0000
0000
1000
0000
0000
0000
0100
0000
0000
0010
0000
0000
0001
0000
0000
0010
0000
0000
0001
0000
0000
0000
0000
0000
1000
0000
0000
0010
0000
0000
1000
0000
0000
0010
0000
0000
1000
0000
0000
0000
0000
0000
,
0010
0100
0010
0000
0100
0010
0100
0000
0010
0000
0000
0000
1000
0000
0000
0000
,
0001
1000
0100
0010
,
0001
1000
0001
0100
,
0010
1000
0100
1000
,
0010
1000
0010
0000
0100
0001
0100
0000
,
0001
0000
0010
0000
0001
0000
0000
0000
1000
0000
0100
0000
1000
0100
1000
0000
,
0010
0000
0000
0000
1000
0000
0000
0000
0010
0000
0000
0000
1000
0000
0000
0001
0000
0000
1000
0000
0000
0001
0000
0000
1000
0000
0000
0000
0000
0000
0100
0000
0000
0000
0000
0000
0010
0000
0000
0100
0000
0000
0010
0000
0000
0000
0000
0000
,
0100
0010
0100
0000
0000
0000
0000
0000
1001
0000
0000
0000
0001
0000
0100
0000
,
0010
1000
0010
0100
0001
0010
1000
0000
,
0001
0100
0010
0000
0001
0010
0100
1000
,
0100
0010
0001
0100
1000
0000
0001
0010
,
0100
0000
1001
0000
1000
0010
0100
0001
,
0010
0100
0001
1000
0010
0000
0001
1000
,
0001
0000
1000
0100
0010
0001
0100
0010
,
1000
0010
1000
0010
1000
0000
0000
0000
0001
0010
0001
0010
0001
0000
1001
0000
,
0000
1000
0100
0010
0001
0010
0100
1000
,
0010
0001
0000
1000
0100
0001
0000
1000
,
0010
0100
0001
0100
0010
1000
0100
0001
,
0000
1000
0010
0001
0000
1001
0000
0001
,
0010
0100
1000
0010
0100
1000
0001
0010
,
0000
1000
0001
1000
0000
0001
0100
0010
,
1000
0000
0100
0000
0010
0000
0001
0010
0001
0010
0001
0000
0000
0000
1000
0100
,
1000
0100
1000
0000
0000
0000
0010
1000
0010
1000
0010
0000
0000
0000
0100
0001
,
0100
0000
0001
1000
0001
1000
0001
0000
0000
0000
0010
0100
0010
0100
0010
0100
,
1000
0000
0000
0000
1001
0000
0000
0000
1001
0000
0000
1000
0000
0000
0001
0000
,
0000
1010
0000
0000
0000
1010
0000
0000
0000
1010
0000
0000
0010
0000
0000
1000
,
0000
0000
0011
0000
0000
0000
0011
0000
0000
0000
0011
0000
0000
0010
0000
0000
,
0001
0000
0000
0001
0010
0001
0000
0000
0000
1000
0010
1000
0000
0000
0000
0001
,
0010
0001
0000
0000
0000
1001
0000
0000
0000
1001
0000
0000
0000
1001
0000
0000
,
0001
0000
0000
1000
0000
0000
1100
0000
0000
0000
1100
0000
0000
0000
1100
0000
,
0000
0100
0000
0000
1000
0000
0000
0101
0000
0000
0000
0101
0000
0000
0000
0101
,
0000
0000
0100
0000
0000
0001
0000
0000
0110
0000
0100
0000
0110
0000
0010
0000
,
0110
0000
1000
0100
1000
0000
0000
0000
1000
0100
1000
0000
0000
0000
0100
1000
,
0100
0000
0000
0000
1000
0100
1000
0000
0001
0100
0001
0000
0000
0000
0100
0001
,
0100
0000
0000
0000
0001
0100
0001
0000
0000
0000
1000
0001
1000
0000
0001
0010
,
0100
0000
1000
0100
0010
0000
0001
0100
0010
1000
0001
0000
1000
0010
0100
0000
,
0001
0000
0000
0100
0000
0000
0010
0000
0000
0000
0000
0000
1000
0000
0000
0100
0000
0000
0010
0000
0000
0000
0100
0000
0000
0000
0010
0000
0000
0000
0001
0000
0000
0000
1000
0000
0000
0000
0001
0000
0000
0000
0100
0000
0000
0000
0010
0000
,
0000
0100
0000
0001
0000
1000
0000
0001
0000
0010
0000
0001
0000
0010
0000
0100
0000
0010
0000
0100
0000
1000
0000
0000
,
0000
0000
0000
1000
,
0010
0000
0100
0010
0200
0000
0000
0000
0000
0000
0000
0000
0000
0000
0000
0000
,
0301
0000
0100
0010
0200
0000
0000
0000
0000
0000
0000
0000
0301
0000
0000
0000
,
1000
0000
0100
0010
0200
0000
0000
0000
0000
0000
0000
0000
0310
0000
0001
0000
,
0100
0000
0001
0100
0001
0000
0000
0000
1001
0000
0000
0000
1001
0000
0000
0000
,
1000
0000
0001
1000
0200
0000
0000
0000
0000
0000
0000
0000
0000
0000
0000
0000
,
1300
0000
1000
0001
0200
0000
0000
0000
0000
0000
0000
0000
0000
0000
0000
0000
,
0301
0000
0000
0000
0000
0000
0001
0000
0000
1000
0000
0000
0200
0000
0000
0000
0000
0000
0000
0000
0000
0000
0000
0000
0000
0000
0000
0000
0000
0000
0000
0000
0000
0000
0000
0000
1300
0000
0000
0000
0000
0000
0000
0000
0010
0000
0000
0000
,
0000
0000
0000
0000
1000
0000
0000
0000
0000
0000
0000
0000
0001
0000
0000
0000
0000
0000
0000
0000
0000
0000
0000
0000
0010
0000
0000
0000
0000
0000
0100
0000
0000
0010
0000
0000
0200
0000
0000
0000
0000
0000
0000
0000
0000
0000
0000
0000
,
0000
0000
0000
0000
0000
0000
0000
0000
1300
0000
0100
0010
0200
0000
0000
0000
,
0000
0000
0000
0000
1300
0000
0000
0000
0001
0000
0100
0010
0200
0000
0000
0000
,
0000
0000
0000
0000
0310
0000
1000
0000
0100
0000
1000
0100
1000
0000
0000
0000
,
0110
0000
0000
0000
1001
0000
0000
0000
0001
0000
1000
0001
0200
0000
0000
0000
,
0000
0000
0000
0000
0000
0000
0000
0000
0301
0000
0001
1000
0200
0000
0000
0000
,
0000
0000
0000
0000
0000
0000
0000
0000
1300
0000
1000
0001
0200
0000
0000
0000
,
0000
0000
0000
0301
0000
0010
0000
0001
0000
1002
0000
0000
,
0000
2003
0000
3002
,
0000
2003
0000
3020
,
0000
0032
0000
0023
,
0000
0000
2030
0000
0000
3100
0000
0000
,
0000
0100
0000
0000
0100
0100
0000
0000
,
0000
0100
0000
0100
0000
0010
0000
0000
,
0000
0010
0010
0000
0000
0010
0000
0000
,
0000
0000
0001
1000
0001
1000
0001
0000
2002
0000
0000
0000
0000
0000
0000
0000
,
0000
0000
0000
0000
,
0000
0000
0000
0000
,
0000
0000
0000
0000
,
3003
2002
0000
0000
,
0000
0000
0000
3003
,
1000
0000
0000
0010
0000
0000
1000
0000
0000
0000
0000
0000
0001
0000
0000
0000
0100
0000
0000
0000
0001
0000
0000
0000
0100
0000
0000
0010
0000
0000
1000
0000
0000
0010
0000
0000
1000
0000
0000
0000
0000
0000
0001
0000
0000
0010
0000
0000
,
0001
0010
0001
0000
0010
0100
0010
0000
0100
0010
0100
0000
0010
0001
1000
0000
,
0000
0000
0000
0100
0000
0000
0010
0000
0000
0001
0000
0000
0000
0000
0000
0100
0000
0010
0000
0100
0000
0020
0000
0000
,
0000
0000
0000
1030
0000
0010
0100
0001
,
0000
0000
0000
0010
0000
0100
0000
0010
0000
0200
0000
0000
0000
0000
0000
0000
0000
0000
0000
0000
0000
1300
0000
0000
,
0000
0100
0010
0001
0100
0010
1000
0001
,
1000
0010
0100
0001
0010
0100
1000
0100
,
1000
0001
0001
0100
0001
0001
0010
0001
,
0001
0000
0100
0000
0001
0100
0001
0000
1000
0001
1000
0000
0100
1000
0100
0000
,
1000
0001
1000
0000
0000
0000
0000
0000
0000
0000
0000
0000
0000
0000
0000
0000
,
1001
0000
0001
0010
0100
1000
0100
0010
,
0001
0100
1000
0000
0001
0010
0100
0000
,
0001
0100
0010
1000
0010
0100
0001
0010
,
1000
0000
0001
0100
0010
0000
1001
0000
,
1000
0100
0010
0001
0100
0010
0001
1000
,
0100
0000
0001
1000
0001
0000
1000
0010
,
0100
0000
0001
0000
0010
0000
0100
0000
1000
0010
1000
0010
1000
0000
0000
0000
,
0001
0010
0001
0010
0001
0000
1001
0000
0000
0000
1000
0000
0010
0000
0100
0000
,
0001
0100
0010
1000
0100
0001
0000
1000
,
0010
0001
0000
1000
0100
0010
0001
0010
,
0100
1000
0010
0001
0000
1000
0100
0010
,
0100
0001
0010
1000
0001
0100
1000
0001
,
0001
0010
0001
0010
0001
0000
0000
0000
1000
0010
1000
0010
1000
0000
1000
0000
,
0010
0000
0001
0000
1000
0000
0100
0000
0001
0000
2000
0000
0000
0000
3001
0010
,
0001
0010
0001
0000
0000
0000
1000
0100
1000
0100
2000
0000
0000
0000
3010
1000
,
0010
0000
1000
0010
1000
0000
0001
0000
0000
0000
0000
0000
0001
0010
0001
0000
,
0010
0001
0010
0000
0100
1000
0100
1000
0100
0000
1000
0010
1000
0000
0010
1000
,
0010
0000
0100
0001
0100
0000
0001
1000
0001
0000
1000
0001
1000
0000
0001
0000
,
0000
0000
0000
1000
0100
1000
0100
1000
0100
1000
0100
1000
,
0100
1000
0100
0010
0001
0010
0001
0010
0001
0010
0001
0010
,
0001
0010
0001
1000
0010
1000
0010
1000
0010
1000
0010
1000
,
0010
1000
0010
0100
0001
0100
0001
0100
0001
0100
0001
0100
,
0001
0100
0001
1000
0100
0010
0001
0010
0100
1000
0100
0010
,
0001
0010
0100
1000
0010
0100
0001
0100
0010
1000
0010
0100
,
0001
0100
0010
1000
0100
0010
0001
0100
0010
1000
0100
0010
,
0001
0100
0010
0100
0010
0001
0010
1000
0001
0010
0100
0001
,
0100
0000
0000
0000
0000
0000
0000
0000
0000
0000
0000
0000
0010
0000
0000
0001
0000
0000
0010
0000
0000
0000
0000
0000
0001
0000
0000
0000
0100
0000
0000
0000
0010
0000
0000
0000
1000
0000
0000
0000
0100
0000
0000
0000
0010
0000
0000
0000
,
0001
0000
0000
0000
0000
0000
0100
0000
0000
0000
0000
0000
0010
0000
0000
1000
0000
0000
0010
0000
0000
0000
0000
0000
1000
0000
0000
0000
0100
0000
0000
0000
0010
0000
0000
0000
0001
0000
0000
0000
0100
0000
0000
0000
0010
0000
0000
0000
,
1000
0000
0000
0000
0000
0000
0100
0000
0000
0000
0000
0000
0010
0000
0000
0001
0000
0000
0010
0000
0000
0000
0000
0000
0001
0000
0000
0000
0100
0000
0000
0000
0010
0000
0000
0000
1000
0000
0000
0000
0100
0000
0000
0000
0010
0000
0000
0000
,
0001
0000
0000
0000
0000
0000
0100
0000
0000
0000
0000
0000
0010
0000
0000
0001
0000
0000
0010
0000
0000
0000
0000
0000
0100
0000
0000
0000
0010
0000
0000
0000
1000
0000
0000
0000
0100
0000
0000
0000
0010
0000
0000
0000
0001
0000
0000
0000
,
1000
0000
0000
0000
1000
0100
1000
0000
0001
1000
0001
0000
0100
0001
0100
0000
,
0001
1000
0001
0000
1000
0010
1000
0000
0001
1000
0001
0000
0010
0001
0010
0000
,
0001
1000
0001
0000
0100
0001
0100
0001
0100
0001
0100
0001
0100
0001
0100
0001
,
0100
0000
0000
0000
0010
0100
0010
0100
0010
0100
0010
0100
0010
0100
0010
0100
,
0010
0100
0010
0100
0002
0000
0000
0000
0000
0000
0000
0000
0000
0000
0000
0000
,
0000
0000
0000
0000
,
0000
0000
0000
0000
,
0000
0000
0000
0000
0003
0000
1000
0010
,
1000
0010
0100
0001
0100
0001
0010
0001
,
0010
0000
0000
0000
0000
0000
0001
0000
0000
0000
0000
0000
1000
0000
0000
0000
0000
0000
0100
0000
0000
0000
0000
0000
1000
0000
0000
0001
0000
0000
1000
0000
0000
0000
0000
0000
0001
0000
0000
0000
0100
0000
0000
0000
0010
0000
0000
0000
,
1000
0100
1000
0100
1000
0000
0001
0010
0001
0000
0100
0001
0100
0001
2000
0000
,
0000
0000
0000
0000
0000
0000
0000
0000
0000
0000
0000
0000
3001
0000
0000
1000
0000
0000
0001
0000
0000
0000
0000
0000
1000
0000
0000
0000
0100
0000
0000
0000
0010
0000
0000
0000
0001
0000
0000
0100
0000
0000
0001
0000
0000
0100
0000
0000
,
0001
0000
0000
0000
0000
0000
1000
0000
0000
0001
0000
0000
1000
0000
0000
0000
0000
0000
0001
0000
0000
0000
0100
0000
0000
0000
0010
0000
0000
0000
1000
0000
0000
0100
0000
0000
1000
0000
0000
0100
0000
0000
1000
0000
0000
0000
0000
0000
,
0001
0000
0000
1000
0000
0000
0001
0000
0000
0000
0000
0000
1000
0000
0000
0000
0010
0000
0000
0000
0100
0000
0000
0000
0001
0000
0000
0010
0000
0000
0001
0000
0000
0010
0000
0000
0001
0000
0000
0000
0000
0000
1000
0000
0000
0001
0000
0000
,
1000
0000
0000
0000
0000
0000
0001
0000
0000
0000
0010
0000
0000
0000
0100
0000
0000
0000
1000
0000
0000
0010
0000
0000
1000
0000
0000
0010
0000
0000
1000
0000
0000
0000
0000
0000
0002
0000
0000
0000
0000
0000
0000
0000
0000
0000
0000
0000
,
0000
0000
0000
0003
;

//---------------dance-single - ----------------
#NOTEDATA:;
#CHARTNAME:;
#STEPSTYPE:dance-single;
#DESCRIPTION:;
#CHARTSTYLE:;
#DIFFICULTY:Medium;
#METER:15;
#RADARVALUES:0.611114,1.075892,0.167363,0.341420,0.153974,639.000000,614.000000,25.000000,51.000000,0.000000,0.000000,0.000000,0.000000,0.000000,0.611114,1.075892,0.167363,0.341420,0.153974,639.000000,614.000000,25.000000,51.000000,0.000000,0.000000,0.000000,0.000000,0.000000;
#CREDIT:Karl with a K;
#NOTES:
0000
0000
0000
0000
,
0000
0000
0000
0000
,
0000
0000
0000
0000
,
0000
0000
0000
0000
,
0000
0000
0000
0000
,
0000
0000
0000
0000
,
0000
0000
0000
0000
,
0000
0000
0000
0000
,
0000
0000
0000
0000
,
0000
0000
0000
0000
,
0000
0000
1001
0000
,
0000
0000
0000
0000
,
0000
0000
0000
0000
,
0000
0000
0000
0000
,
1001
0000
0000
0000
,
0000
0000
0000
0000
0000
0000
0001
0010
,
0100
0000
0010
0000
0100
0000
0010
0000
0000
0001
0000
0000
0100
0000
0000
1000
0000
0000
0001
0000
0000
0010
0000
0000
,
1000
0100
0001
0100
1000
0000
0001
0000
,
1000
0001
0100
0010
,
0100
0001
1000
0001
,
1000
0100
0010
0100
,
1000
0100
1000
0000
0001
0100
0001
0000
,
1000
0010
1000
0000
0001
0010
1000
0010
,
0001
0000
0010
0000
0001
0000
0010
0000
0000
0001
0000
0000
0100
0000
0000
1000
0000
0000
0001
0000
0000
0010
0000
0000
,
1000
0002
0000
0000
1003
0000
0001
0010
,
0100
0010
0001
0000
0001
0100
1000
0000
,
0100
0000
0001
0000
0001
0100
0010
0100
,
0001
0000
0001
0010
1000
0000
0010
0000
,
0110
0000
1001
0000
1000
0010
0100
0010
,
1000
0000
0001
0010
1000
0000
0010
0000
,
0001
0000
1000
0100
0010
0100
1000
0000
,
0001
0100
1000
0000
0001
0010
0100
0001
,
0000
1000
0010
0100
0010
1000
0000
1000
,
0100
0001
0000
0100
0000
1000
0000
1000
,
0100
0010
0100
1000
0000
1000
0010
0001
,
0000
0010
0000
0110
0000
1001
0000
0001
,
0010
0100
0010
0001
0000
1000
0010
0001
,
0000
0010
0000
1000
0000
0001
0100
0010
,
0100
0001
0000
1000
0100
0001
0000
1000
,
0010
0100
1000
0010
0001
0000
1000
0100
,
0010
1000
0001
0010
0000
1000
0001
0100
,
1000
0000
0000
0000
0010
0000
0000
0000
1000
0000
0000
0010
0000
0000
1000
0000
,
0000
0001
0000
0000
0000
0010
0000
0000
0000
0001
0000
0000
0010
0000
0000
0001
,
0000
0000
1000
0000
0000
0000
0010
0000
0000
0000
1000
0000
0000
0010
0000
0000
,
1000
0000
0000
0001
0000
0000
0000
0000
0000
0110
0000
0000
0000
0000
0000
1001
,
0000
0000
0000
0000
0000
1000
0000
0000
0000
0100
0000
0000
0000
1000
0000
0000
,
0100
0000
0000
1000
0000
0000
0001
0000
0000
0000
0100
0000
0000
0000
0001
0000
,
0000
0100
0000
0000
0001
0000
0000
1000
0000
0000
0000
0100
0000
0000
0000
1000
,
0000
0000
0100
0000
0000
1000
0000
0000
0001
0000
1000
0000
0010
0000
0100
0000
,
0001
1000
0100
0000
0001
0100
0000
1000
,
0100
0000
0001
0100
1000
0010
0000
0001
,
0010
0000
1000
0010
0000
0001
0000
0010
,
0100
1000
0001
0010
0100
0001
1000
0100
,
0010
1000
0001
0100
1000
0010
0001
0010
,
1000
0100
0001
0100
1000
0010
0001
0010
,
0000
0000
0000
1001
,
0010
1000
0200
0000
0000
0000
0000
0000
,
0310
0001
0200
0000
0000
0000
0301
0000
,
0010
0001
0200
0000
0000
0000
0301
0100
,
1000
0100
0001
0000
1000
0000
1001
0000
,
0010
0001
0200
0000
0000
0000
0000
0000
,
0310
1000
0200
0000
0000
0000
1300
0000
,
0010
0000
0000
1000
0000
0000
0200
0000
0000
0000
0000
0000
0000
0000
0000
0000
0000
0000
0310
0000
0000
0000
0010
0000
,
0000
0000
0010
0000
0000
0000
0011
0000
0000
0000
0000
0000
1000
0000
0000
0001
0000
0000
0200
0000
0000
0000
0000
0000
,
0000
0000
0000
0000
0301
1000
0200
0000
,
0000
0000
1300
0000
0010
1000
0200
0000
,
0000
0000
1300
0010
0001
1000
0100
0000
,
0001
0000
1001
0000
0001
1000
0200
0000
,
0000
0000
0000
0000
1300
0001
0200
0000
,
0000
0000
0301
0000
0010
0001
0200
0000
,
0000
0000
0000
1300
0000
0100
0000
0001
0000
2002
0000
0000
,
0000
0000
0000
0000
,
0000
0000
0000
0000
,
0000
0000
0000
0000
,
0000
0000
0000
3003
0000
0001
0000
0000
,
0000
0001
0000
0000
0001
0001
0000
0000
,
0000
0001
0000
0001
0000
0001
0000
0000
,
0000
0001
0001
0000
0000
0001
0000
0000
,
0000
0000
1001
0000
,
0000
0000
0000
0000
,
0000
0000
0000
0000
,
0000
0000
0000
0000
,
0000
1001
0000
0000
,
0000
0000
0000
0000
,
1000
0000
0000
0010
0000
0000
0100
0000
0010
0000
0100
0000
0010
0000
0000
1000
0000
0000
0100
0000
0000
0001
0000
0000
,
1000
0010
0001
0100
1000
0100
0001
1000
,
0000
0010
0000
0100
0000
0010
0000
2000
,
0000
0000
0000
3001
0000
0010
0000
0100
,
0000
0010
0000
0002
0000
0000
0000
1003
,
0000
0100
0000
0010
0000
0001
0000
0100
,
0000
0010
0000
1000
0000
0100
0000
0010
,
0000
1000
0000
0010
0100
0000
0100
1000
,
0000
0010
0100
0010
0100
0010
0100
0010
,
0100
0010
0000
0000
0000
0000
0000
0000
,
1000
0000
0001
0100
0010
0100
0001
0000
,
0001
0010
1000
0000
0010
0000
0001
0000
,
0001
0010
0100
0010
0001
0000
0001
0100
,
1000
0100
0110
1001
,
1000
0100
0010
0100
1000
0000
0001
0100
,
1000
0000
0100
0000
0001
0000
1000
0010
,
0100
0010
1000
0000
0001
0010
1000
0000
,
0001
0100
0010
0001
0000
1000
0100
0010
,
0100
1000
0000
1000
0010
0001
0000
0010
,
0000
1000
0000
0001
0000
1000
0100
0010
,
0100
1000
0000
1000
0010
0001
0000
0010
,
1000
0001
0100
1000
0001
1000
0100
0001
,
0010
1000
0010
0000
0100
0001
0100
0000
,
1000
0010
0100
0001
0010
0100
0000
0001
,
1000
0010
0001
1000
0001
0200
0000
1300
,
0001
0010
1000
0001
0000
0000
0001
0010
,
1000
0010
0001
1000
0000
1000
0010
0001
,
0010
1000
0100
0001
1000
0010
0001
1000
,
0000
2000
3002
2003
,
3002
0203
0320
0230
,
0320
2030
3020
2030
,
3020
0032
0023
2030
,
3200
2300
3200
0302
,
0203
2300
3002
2003
,
3200
2300
3020
0032
,
0023
2030
3020
0230
,
0302
0000
1003
0100
0001
0000
0100
0000
,
1000
0000
1000
0010
0001
0000
0010
0000
,
1000
0000
0001
0010
1000
0000
0001
0000
,
0100
0000
1000
0100
0001
0000
1000
0000
,
0010
0000
0001
0100
0001
0100
1000
0100
,
1000
0100
0001
0010
0001
0010
1000
0010
,
0001
0000
0010
0000
0001
0010
0001
0000
0010
0000
0100
0000
1000
0010
1000
0000
,
0010
0000
0100
0000
0001
0010
0001
0000
0010
0000
0100
0000
1000
0010
1000
0000
,
0010
0100
1001
0000
0000
0000
0000
0000
,
0000
0000
0000
0000
,
0000
0000
0000
0000
,
0000
0000
0000
0011
,
1001
0011
1001
1100
,
1001
0000
0000
0000
0000
0000
1010
0000
0000
0000
0000
0000
0001
0000
0000
1000
0000
0000
0001
0000
0100
0000
0010
0000
,
1000
1000
0010
0010
0100
0100
0001
0001
,
0000
0000
0000
0000
0000
0000
1000
0000
0000
0010
0000
0000
0100
0000
0010
0000
0100
0000
0001
0000
0000
0100
0000
0000
,
0010
0000
0000
0100
0000
0000
0001
0000
0000
0010
0000
0100
0000
0010
0000
0100
0000
0000
1000
0000
0000
0100
0000
0000
,
1000
0000
0000
0100
0000
0000
1000
0000
0000
0000
0000
0000
0100
0000
0000
0000
0010
0000
0000
0000
0100
0000
0000
0000
0010
0000
0000
0001
0000
0000
0010
0000
0000
0000
0000
0000
0100
0000
0000
0000
0000
0000
1000
0000
0000
0001
0000
0000
,
1000
0000
0000
0000
0000
0000
0010
0000
0000
0000
0100
0000
0000
0000
0010
0000
0000
0000
1000
0000
0000
0010
0000
0000
1000
0000
0000
0000
0000
0000
0100
0000
0000
0000
0000
0000
0020
0000
0000
0000
0000
0000
0000
0000
0000
0000
0000
0000
,
0000
0000
0000
0030
;

//---------------dance-single - ----------------
#NOTEDATA:;
#CHARTNAME:;
#STEPSTYPE:dance-single;
#DESCRIPTION:;
#CHARTSTYLE:;
#DIFFICULTY:Easy;
#METER:11;
#RADARVALUES:0.416016,0.743091,0.133890,0.133890,0.073640,435.000000,415.000000,20.000000,20.000000,0.000000,0.000000,0.000000,0.000000,0.000000,0.416016,0.743091,0.133890,0.133890,0.073640,435.000000,415.000000,20.000000,20.000000,0.000000,0.000000,0.000000,0.000000,0.000000;
#CREDIT:;
#NOTES:
0000
0000
0000
0000
,
0000
0000
0000
0000
,
0000
0000
0000
0000
,
0000
0000
0000
0000
,
0000
0000
0000
0000
,
0000
0000
0000
0000
,
0000
0000
0000
0000
,
0000
0000
0000
0000
,
0000
0000
0000
0000
,
0000
0000
0000
0000
,
0000
0000
1001
0000
,
0000
0000
0000
0000
,
0000
0000
0000
0000
,
0000
0000
0000
0000
,
1001
0000
0000
0000
,
0000
0000
0000
1000
,
0010
0100
1000
0100
,
0000
0001
0000
0000
0000
1000
0000
0000
0200
0000
0000
0000
0000
0000
0000
0000
,
0010
0000
0010
0000
,
0010
0000
0010
0000
,
0010
0000
0310
0000
,
0220
0000
0000
0000
,
0000
0000
0330
0010
,
0001
0100
0010
0001
,
1000
0000
0110
1000
,
1000
1000
0001
0010
,
0100
1000
1000
1000
,
1000
0001
0100
0010
,
0100
0001
0001
0001
,
0001
1000
0010
0100
,
0001
0001
0010
0100
,
0001
0000
1000
0000
0001
0100
1000
0001
,
0000
0001
0000
0001
0000
0001
0000
1000
,
0000
0010
0000
0100
0000
0001
0000
0001
,
0000
0001
0000
0001
0000
1000
0000
0100
,
0000
0010
0000
0100
0000
1000
0000
1000
,
0000
1000
0000
1000
0000
0001
0000
0010
,
0000
0100
0000
1000
0000
1000
0000
0010
,
0000
0100
0000
1000
0000
0001
0000
1000
,
0100
0001
1000
0000
0001
0000
1000
0100
,
0001
1000
0000
0001
0000
1000
0010
0001
,
1000
0000
0000
0000
1000
0000
0000
0000
1000
0000
0000
1000
0000
0000
1000
0000
,
0000
0001
0000
0000
0000
0001
0000
0000
0000
0001
0000
0000
0001
0000
0000
0001
,
0000
0000
1000
0000
0000
0000
1000
0000
0000
0000
1000
0000
0000
1000
0000
0000
,
1000
0000
0000
0001
0000
0000
0000
0000
0000
1001
0000
0000
0000
0000
0000
1001
,
0000
0000
0000
0000
0000
0101
0000
0000
0000
0100
0000
0000
0000
0100
0000
0000
,
0100
0000
0000
0100
0000
0000
0010
0000
0000
0000
0010
0000
0000
0000
0010
0000
,
0000
0010
0000
0000
0010
0000
0000
0100
0000
0000
0000
0100
0000
0000
0000
0100
,
0000
0000
0100
0000
0000
0100
0000
0000
0010
0000
0010
0000
0010
0000
0010
0000
,
0010
1000
0000
0000
0001
0000
0000
1000
,
0000
0000
0001
0000
0010
0000
0000
0100
,
0000
0000
0010
0000
0000
0100
0000
0010
,
0000
0001
0000
1000
0000
0010
0000
0001
,
0000
1000
0000
0100
0000
0001
0000
0010
,
0000
1000
0000
0001
0000
0100
0100
0000
,
0000
0000
0000
1000
,
0100
0020
0000
0000
,
0031
0020
0000
0030
,
0001
0200
0000
0310
,
0100
1000
0100
0001
,
0100
0020
0000
0000
,
1030
0020
0000
0030
,
1000
0200
0300
0110
,
0000
1000
0010
0200
,
0000
0000
0301
0200
,
0000
0000
0301
0020
,
0000
0130
0010
1000
,
0010
0001
0010
0200
,
0000
0000
1300
0200
,
0000
0300
1000
0020
,
0030
0110
0000
1001
,
0000
0000
0000
0000
,
0000
0000
0000
0000
,
0000
0000
0000
0000
,
0000
0000
0000
0000
0000
1000
0000
0000
,
0000
0000
0000
0000
,
0000
0000
0000
0000
,
0000
0000
0000
0000
,
0000
0000
1001
0000
,
0000
0000
0000
0000
,
0000
0000
0000
0000
,
0000
0000
0000
0000
,
0000
1001
0000
0000
,
0000
0000
0000
0000
,
1000
0100
0010
1000
,
0010
0000
0000
0000
0000
0001
0000
0000
0000
1000
0000
0000
0000
0000
0010
0000
,
0000
0100
0000
0010
0000
0000
0000
0110
,
0000
0000
0000
0001
0000
1000
0000
0001
,
0000
0000
0000
1001
0000
0000
0000
0001
,
0000
0010
0000
0100
0000
1000
0000
0010
,
0000
0100
0000
0001
0000
0010
0000
0100
,
0000
1000
0000
0000
1001
0000
0000
1001
,
0000
2000
3020
0230
,
0302
0003
0000
0000
,
0110
0001
0001
0001
,
1000
0010
0100
0001
,
0001
0001
0001
1000
,
0100
0010
0100
1000
,
1000
1000
1000
0001
,
0010
0100
1000
1000
,
0010
0100
1000
0001
,
1000
0100
0001
1000
0000
1000
0000
1000
,
0000
1000
0000
0001
0000
0010
0000
0100
,
0000
1000
0000
1000
0000
1000
0000
1000
,
0000
1000
0000
0100
0000
0010
0000
0100
,
0000
1000
0010
0100
,
0001
0000
0010
0000
1000
0000
0000
0010
,
0000
0001
0000
1000
0000
0001
0000
0010
,
0000
0100
0000
0001
0000
0200
0000
1300
,
0000
0010
0000
0001
0000
0000
0010
0000
,
1000
0000
0001
0000
0000
0010
0000
1000
,
0000
0010
0000
1000
0000
0001
0100
0000
,
0000
1000
1000
1000
,
1000
0100
0100
0100
,
0100
0010
0010
0010
,
0010
0001
0001
1000
,
1000
0001
0001
0001
,
0001
0100
0100
0100
,
0100
0010
0010
0010
,
0010
1000
1000
1000
,
1000
0000
0001
0010
0001
0000
0010
0000
,
0010
0000
0100
0010
0100
0000
1000
0000
,
1000
0000
0010
1000
0010
0000
0100
0000
,
0100
0000
0001
0100
0001
0000
1000
0000
,
1000
0000
0010
1000
0001
0000
1000
0000
,
0100
0000
0001
0100
1000
0000
0010
0000
,
0001
0000
0010
0100
0010
0100
0010
0100
,
0010
0000
1000
0100
0010
0001
0010
0001
,
0010
0110
0000
0000
,
0000
0000
0000
0000
,
0000
0000
0000
0000
,
0000
0000
0000
1001
,
1000
0010
0010
0100
,
0100
0001
0001
0010
,
1000
0001
0100
1000
,
0000
0000
1000
0010
1000
0010
1000
0010
,
1000
0000
0001
0010
0001
0010
0001
0000
,
1000
0010
0100
0010
1000
0010
0100
0000
,
0001
0010
0100
0010
0001
0010
0110
0000
;

//---------------dance-single - ----------------
#NOTEDATA:;
#CHARTNAME:;
#STEPSTYPE:dance-single;
#DESCRIPTION:;
#CHARTSTYLE:;
#DIFFICULTY:Beginner;
#METER:5;
#RADARVALUES:0.254392,0.464432,0.127196,0.000000,0.020084,266.000000,247.000000,19.000000,0.000000,0.000000,0.000000,0.000000,0.000000,0.000000,0.254392,0.464432,0.127196,0.000000,0.020084,266.000000,247.000000,19.000000,0.000000,0.000000,0.000000,0.000000,0.000000,0.000000;
#CREDIT:;
#NOTES:
0000
0000
0000
0000
,
0000
0000
0000
0000
,
0000
0000
0000
0000
,
0000
0000
0000
0000
,
0000
0000
0000
0000
,
0000
0000
0000
0000
,
0000
0000
0000
0000
,
0000
0000
0000
0000
,
0000
0000
0000
0000
,
0000
0000
0000
0000
,
0000
0000
1001
0000
,
0000
0000
0000
0000
,
0000
0000
0000
0000
,
0000
0000
0000
0000
,
0000
0000
0000
0000
,
0000
0000
0000
0110
,
0000
0000
0000
0000
,
0000
0000
1001
0000
,
0000
0000
0000
0000
,
0000
0000
0000
0000
,
0000
0000
0000
0000
,
0110
0000
0000
0000
,
0000
0000
0000
1000
,
1000
1000
0000
0001
,
0001
0000
0110
0000
,
0000
0000
1000
1000
,
1000
1000
0000
0000
,
0000
0001
0001
0001
,
0001
0001
0000
0000
,
0000
0001
0001
0001
,
0001
0000
1000
1000
,
1000
0000
0000
0000
0001
0000
0000
0001
,
0000
0000
0000
0000
0000
0000
0000
0001
,
0000
0001
0000
0001
0000
0001
0000
0000
,
0000
0000
0000
0000
0000
1000
0000
1000
,
0000
1000
0000
1000
0000
1000
0000
0000
,
0000
0000
0000
0000
0000
0001
0000
0001
,
0000
0001
0000
0001
0000
0000
0000
1000
,
0000
1000
0000
1000
0000
0000
0000
0010
,
0000
0100
0000
0010
,
0000
0100
0000
0000
0000
0010
0000
0000
,
1000
0000
0000
0000
,
0000
0001
0000
0000
0000
0000
0000
0000
0000
0000
0000
0000
0000
0000
0000
0000
,
0000
1000
0000
0000
0000
0000
0000
0000
,
0000
0000
0000
0001
0000
0000
0000
0000
0000
0001
0000
0000
0000
0000
0000
0001
,
0000
0000
0000
0000
0000
1001
0000
0000
0000
0000
0000
0000
0000
0000
0000
0000
,
0000
0000
0000
0110
0000
0000
0000
0000
,
0000
0000
0000
0000
0000
0000
0000
1001
0000
0000
0000
0000
0000
0000
0000
0000
,
0000
0000
0110
0000
,
0000
0001
0000
0000
0001
0000
0000
0001
,
0000
0000
0000
0000
1000
0000
0000
1000
,
0000
0000
1000
0000
0000
0000
0000
0100
,
0000
0100
0000
0100
0000
0000
0000
0010
,
0000
0010
0000
0010
0000
0000
0000
0100
,
0000
0100
0000
0100
0000
0100
0000
0000
,
0000
0000
0000
0001
,
0000
0001
0000
0000
,
1000
1000
0000
0000
,
0001
0001
0000
0100
,
0000
0010
0000
1000
,
0000
1000
0000
0000
,
0001
0001
0000
0000
,
1000
1000
0000
0110
,
0000
0001
0000
0001
,
0000
0000
1000
1000
,
0000
0000
0001
0001
,
0000
0010
0000
0100
,
0000
1000
0000
1000
,
0000
0000
0001
0001
,
0000
0000
1000
1000
,
0000
0110
0000
0001
,
0000
0000
0000
0000
,
0000
0000
0000
0000
,
0000
0000
0000
0000
,
0000
0000
0000
0000
,
0000
0000
0000
0000
,
0000
0000
0000
0000
,
0000
0000
0000
0000
,
0000
0000
1001
0000
,
0000
0000
0000
0000
,
0000
0000
0000
0000
,
0000
0000
0000
0000
,
0000
0000
0000
0000
,
0000
0000
0000
0000
,
0110
0000
0000
0000
,
0000
0000
0000
0000
0000
0000
0000
1001
,
0000
0000
0000
0000
,
0000
0000
0000
1001
0000
0000
0000
0000
,
0000
0000
0000
0000
0000
0000
0000
1001
,
0000
0000
0000
0100
0000
0000
0000
0010
,
0000
0000
0000
0001
0000
0000
0000
0100
,
0000
0000
0000
0010
0000
0000
0010
0000
,
0000
0010
0000
0000
1000
0000
1000
0000
,
1000
0000
0000
0000
,
0110
0000
0000
0000
,
0001
0001
0001
0001
,
0000
0000
0000
1000
,
1000
1000
1000
1000
,
0000
0000
0000
1000
,
1000
1000
1000
0000
,
0001
0001
0001
0000
,
1000
0000
0000
1000
0000
0000
0000
0000
,
0000
0000
0000
1000
0000
1000
0000
1000
,
0000
1000
0000
0000
0000
0000
0000
0000
,
0000
0001
0000
0001
0000
0001
0000
0001
,
0000
0100
0100
0100
,
0000
0000
0000
0000
0000
0000
0000
0001
,
0000
0001
0000
0001
0000
0000
0000
0010
,
0000
0010
0000
0010
0000
0000
0000
0001
,
0000
0001
0000
0001
0000
0000
1000
0000
,
1000
0000
1000
0000
0000
0010
0000
0010
,
0000
0010
0000
0010
0000
0010
0000
0000
,
0000
1000
1000
1000
,
0000
0010
0010
0010
,
0000
0100
0100
0100
,
0000
0001
0001
0001
,
0000
1000
1000
1000
,
0000
0100
0100
0100
,
0000
0010
0010
0010
,
0000
0001
0001
0001
,
0000
1000
1000
0010
,
0000
0100
0100
0001
,
0000
0010
0010
0100
,
0000
1000
1000
0001
,
0000
0100
0100
0100
,
0100
0010
0010
0010
,
0010
0100
0100
0010
,
0010
1000
1000
0001
,
0001
1001
0000
0000
,
0000
0000
0000
0000
,
0000
0000
0000
0000
,
0000
0000
0000
0001
,
0001
0001
0001
1000
,
1000
1000
0001
0000
,
0100
0000
0001
0001
,
0000
1000
1000
1000
,
1000
0001
0001
0001
,
0010
0010
0010
0010
,
0100
0100
0100
0110
;
